#TITLE:Euphoria;
#SUBTITLE:;
#ARTIST:LOREEN;
#TITLETRANSLIT:;
#SUBTITLETRANSLIT:;
#ARTISTTRANSLIT:;
#CREDIT:;
#BANNER:bn.png;
#BACKGROUND:bg.png;
#LYRICSPATH:;
#CDTITLE:cdtitle.png;
#MUSIC:Euphoria.mp3;
#OFFSET:0.120;
#SAMPLESTART:47.060;
#SAMPLELENGTH:12.000;
#SELECTABLE:YES;
#BPMS:0.000=131.940;
#STOPS:;
#BGCHANGES:;

//---------------dance-single - ----------------
#NOTES:
     dance-single:
     :
     Hard:
     7:
     0.355,0.464,0.241,0.216,0.195:
0000
0000
0000
0000
,
0000
0000
0000
0000
,
0000
2000
0000
3000
,
0000
0000
0000
0001
0100
0000
0010
0000
,
1000
0000
0000
0000
0100
0000
0000
0100
0000
0000
0100
0000
0000
0000
0000
0000
,
0000
0000
0000
0000
,
0000
0010
0002
0000
0000
0000
0003
0000
,
0000
0000
0000
0001
0100
0010
0100
0001
,
1000
0000
0100
0000
1000
0000
0000
1000
0000
0000
2000
0000
0000
0000
0000
0000
,
0000
0000
0000
0000
0000
3000
0000
0000
,
0000
0000
1002
0000
0103
0000
0001
0100
,
0100
0000
0010
0000
1000
0000
0100
0010
,
0001
0000
1000
0000
0001
0000
0000
0100
0000
0000
0002
0000
0000
0000
0000
0000
,
0000
0003
0000
0000
,
0000
0100
0010
0000
1000
0000
1000
0010
,
0001
0000
0010
0000
0100
0000
0001
1000
,
0100
0000
1000
0000
0001
0000
0000
1000
0000
0000
0020
0000
0000
0000
0000
0000
,
0000
0000
0000
0000
0000
0030
0000
0000
,
0100
2002
0000
0003
,
0001
3001
0000
0000
0000
0001
0100
0001
,
0100
0010
0100
0000
0000
0010
0000
0000
,
1000
0000
0000
0000
0000
1000
0100
0010
,
0001
0010
0100
0000
0000
0100
0000
0000
,
0100
0000
0000
0000
0000
0000
0000
0100
,
0010
0000
0001
0000
0010
0000
0000
0010
0000
0000
0010
0000
0000
0010
0000
0000
,
0010
0000
0000
0020
0000
0000
0000
0000
0000
0000
0000
0000
0030
0000
0000
0000
,
0100
2002
0000
3000
,
1000
1003
0000
0000
0000
1000
0100
1000
,
0010
0100
0020
0000
0000
1000
0000
0000
,
2000
0000
3030
0000
0000
1000
0100
0001
,
0100
1000
0020
0000
0000
0100
0000
0000
,
0200
0000
0330
0000
0000
0000
0000
0100
,
0010
0000
1000
0000
1010
0000
0000
1010
0000
0000
1010
0000
0000
1010
0000
0000
,
1010
0000
0000
1020
0000
0000
0000
0000
0030
0000
0000
0000
0000
0000
0000
0000
,
1001
1000
0200
0000
,
0000
0000
0300
0000
0000
0010
0001
0010
,
0001
0000
1000
0000
0010
0000
0000
1000
0000
0000
0002
0000
0000
0000
0000
0000
,
0000
0000
0000
0003
0000
0000
0000
0000
,
0000
0001
2000
0000
0200
0000
0000
0000
,
0000
0000
3300
0000
0000
1000
0001
0100
,
0001
0000
1000
0000
0010
0000
0000
0100
0000
0000
0020
0000
0000
0000
0000
0000
,
0000
0000
0000
0000
,
0030
0000
0100
0000
0000
0010
0000
0000
,
0100
0000
0000
0001
0000
0000
0010
0000
,
0100
0000
1000
0000
0000
0100
0000
0000
,
0001
0000
0000
0100
0000
0000
0010
0000
,
0001
1000
1000
0001
,
0001
0100
0100
0010
,
0010
0000
0000
0000
0110
0000
0000
0110
0000
0000
1001
0000
0000
1001
0000
0000
,
0110
0000
0000
2002
0000
0000
0000
0000
0000
0000
0000
0000
3003
0000
0000
0000
,
0002
0000
0000
0000
0103
0000
0000
0010
0000
0000
1000
0000
0000
0010
0000
0000
,
0001
0000
0000
0010
0000
0000
0100
0000
0000
0010
0000
0000
1000
0000
0100
0000
,
0010
0000
0100
0000
1000
0000
0000
1000
0000
0000
0001
0000
0000
0001
0000
0000
,
0100
0000
0000
0100
0000
0000
0001
0000
0000
0010
0000
0000
0100
0000
1000
0000
,
0100
0000
0010
0000
0100
0000
0000
0100
0000
0000
0010
0000
0000
0010
0000
0000
,
0100
0000
0000
1000
0000
0000
0001
0000
0000
0100
0000
0000
0010
0000
1000
0000
,
0001
0000
0010
0000
0011
0000
0000
0011
0000
0000
0011
0000
0000
0011
0000
0000
,
0011
0000
0000
0021
0000
0000
0000
0000
0000
0000
0000
0000
0030
0000
0000
0000
,
0100
0000
0000
0000
1001
0000
0000
0001
0000
0000
1000
0000
0000
0100
0000
0000
,
1000
0000
0000
0010
0000
0000
0100
0000
0000
0001
0000
0100
0001
0000
1000
0000
,
0100
0000
0010
0000
0100
0000
0000
0010
0000
0000
0001
0000
0000
0010
0000
0000
,
0001
0000
0000
1000
0000
0000
0010
0000
0000
0100
0000
0010
1000
0000
0010
0000
,
0001
0000
0010
0000
1000
0000
0000
0100
0000
0000
0010
0000
0000
0100
0000
0000
,
1000
0000
0000
1000
0000
0000
0001
0000
0000
1000
0000
0000
0100
0000
0010
0000
,
0001
0000
1000
0000
1010
0000
0000
0011
0000
0000
1010
0000
0000
0011
0000
0000
,
1010
0000
0000
0021
0000
0000
0001
0000
0000
0000
0030
0000
0000
0000
0000
0000
;

//---------------dance-single - ----------------
#NOTES:
     dance-single:
     :
     Medium:
     5:
     0.251,0.299,0.116,0.158,0.046:
0000
0000
0000
0000
,
0000
0000
0000
0000
,
0000
1000
0000
0000
,
0000
0000
0001
0100
,
0010
0000
0000
0000
1000
0000
0000
0010
0000
0000
1000
0000
0000
0000
0000
0000
,
0000
0000
0000
0000
,
0000
1000
0100
0000
0000
0000
0000
0000
,
0000
0000
0000
0100
0010
0000
0001
0000
,
0010
0000
0000
0000
0001
0000
0000
1000
0000
0000
0010
0000
0000
0000
0000
0000
,
0000
0000
0000
0000
,
0000
0000
0100
0000
0100
0000
0010
0100
,
0010
0100
0001
1000
,
0100
0000
1000
0000
0100
0000
0010
0001
,
0010
0001
0100
0010
,
1000
0001
0100
0000
0001
0000
1000
0000
,
0100
1000
0100
0001
,
0100
0010
0001
0000
1000
0000
0020
0000
,
0000
0000
0000
0030
,
0100
2002
0000
0000
,
0003
3000
0000
0000
0000
1000
0100
0000
,
0010
0000
0100
0000
0000
0100
0000
0000
,
1100
0000
0000
0000
0000
1000
0010
0000
,
0100
0000
0010
0000
0000
1001
0000
0000
,
0110
0000
0000
0000
0000
0000
0000
0010
,
1000
0010
0200
0000
0000
0000
0000
0000
,
0000
0000
0000
0300
,
0010
0202
0000
0000
,
0300
0003
0000
0000
0000
0001
0100
0000
,
0100
0000
0001
0000
0000
1100
0000
0000
,
0101
0000
0000
0000
0000
0001
0100
0000
,
0010
0000
0110
0000
0000
1001
0000
0000
,
1100
0000
0000
0000
0000
0000
0000
1000
,
0001
1000
0010
0000
0010
0000
0010
0000
,
0010
0020
0000
0030
,
0110
1001
0000
0001
,
0000
1000
0000
0100
,
0100
1000
0000
0100
,
0000
0010
0000
0100
,
0000
1000
0001
0000
,
0000
0000
0000
0001
,
0100
0010
0010
0020
,
0000
0000
0000
0000
,
0130
0020
0000
0000
,
1000
2000
0000
0000
3030
0000
0000
0000
,
0000
1000
0000
0000
,
0000
0001
0000
0000
,
0100
0002
0000
0000
,
0010
0020
0000
0000
0033
0000
0000
0000
,
0001
0000
1000
0000
0010
0000
0000
0010
0000
0000
0010
0000
0000
0010
0000
0000
,
0010
0000
0000
0020
0000
0000
0000
0000
0000
0000
0000
0000
0030
0000
0000
0000
,
0100
2002
0000
0000
,
0003
3000
0000
0000
0000
1000
0100
0010
,
0001
0010
0001
0000
0000
0001
0000
0000
,
0001
0000
0000
0000
0000
0001
0100
0001
,
0100
0010
0100
0000
0000
0010
0000
0000
,
1000
0000
0000
0000
,
1000
0000
0000
0000
0010
0000
0000
0010
0000
0000
0010
0000
0000
0010
0000
0000
,
0010
0000
0000
0020
0000
0000
0000
0000
0000
0000
0030
0000
0000
0000
0000
0000
,
0100
0220
0000
0000
,
0300
0030
0000
0000
0000
0000
0100
0000
,
0010
1000
0001
0010
,
0001
0000
0100
0000
0010
0000
0100
0001
,
1000
0001
1000
0000
0100
0000
0100
0000
,
1000
0000
0100
0000
0001
0000
0001
0100
,
0010
0000
0001
0000
1000
0000
0000
0001
0000
0000
1000
0000
0000
0001
0000
0000
,
1000
0000
0000
0020
0000
0000
0130
0000
0000
0000
0000
0000
0000
0000
0000
0000
;

//---------------dance-single - ----------------
#NOTES:
     dance-single:
     :
     Easy:
     2:
     0.153,0.245,0.042,0.175,0.000:
0000
0000
0000
0000
,
0000
0000
0000
0000
,
0000
0000
0000
0000
,
0000
0000
0000
0000
,
0000
0000
0000
0000
,
0000
0000
0000
0000
,
0000
0100
0000
0000
,
0000
0000
0010
0000
,
1000
0001
0000
1000
,
0000
0000
0000
0000
,
0000
1000
0000
0001
,
0000
0100
0000
0001
,
0000
0010
0010
0010
,
0000
0001
0000
1000
,
0000
1010
0000
0000
,
0000
0000
0010
0000
,
0100
0001
1000
0010
,
0000
0000
0000
0000
,
0010
2002
0000
0000
,
0000
3003
0000
0001
,
0000
2000
0000
0000
,
0020
3030
0000
0010
,
0100
0002
0000
0000
,
0200
0303
0000
0000
,
0001
0020
0000
0000
,
0000
0000
0000
0030
,
0100
2002
0000
0000
,
3000
0003
0000
0000
0000
0001
0100
0000
,
0100
0000
0010
0000
0000
1000
0000
0000
,
0010
0000
0000
0100
,
0010
0000
1000
0000
0000
1000
0000
0000
,
1000
0000
0000
0000
,
1000
0020
0000
0000
,
0000
0000
0000
0000
,
0030
0200
0000
0000
,
0000
0000
0000
0300
,
0000
0020
0000
0000
,
0000
0000
0000
0000
,
0030
2000
0000
0000
,
0000
0000
0000
0000
,
3000
0002
0000
0000
,
0000
0000
0000
0003
,
0000
0200
0000
0000
,
0300
0020
0000
0000
,
0030
2000
0000
0000
,
3000
0002
0000
0000
,
0100
0103
0100
0100
,
0100
0001
0001
0001
,
1000
0020
0000
0000
,
0000
0000
0000
0030
,
0000
0110
0010
1000
,
0010
0000
0000
0100
,
0001
0000
0100
0000
0000
0010
0000
0000
,
0010
0000
0000
0100
,
0001
0000
1000
0000
0000
1000
0000
0000
,
1000
0000
0000
0000
,
0001
0020
0000
0000
,
0000
0000
0000
0000
0000
0030
0000
0000
,
0001
1100
1000
0100
,
0000
0010
0001
0100
,
0010
0100
0010
1000
,
0000
1000
0001
0100
,
0100
0100
0001
0010
,
0000
0001
1000
0010
,
1000
0020
0000
0000
,
0000
0000
0000
0030
0000
0000
0000
0000
;

//---------------dance-single - ----------------
#NOTES:
     dance-single:
     :
     Beginner:
     1:
     0.062,0.134,0.017,0.000,0.000: // measure 1
0000
0000
0000
0000
,  // measure 2
0000
0000
0000
0000
,  // measure 3
0000
0000
0000
0000
,  // measure 4
0000
0000
0000
0000
,  // measure 5
0000
0000
0000
0000
,  // measure 6
0000
0000
0000
0000
,  // measure 7
0000
0000
0000
0000
,  // measure 8
0000
0000
0000
0000
,  // measure 9
0000
0000
0000
0000
,  // measure 10
0000
0000
0000
0000
,  // measure 11
0000
0010
0000
0000
,  // measure 12
0000
0000
0100
0000
,  // measure 13
0000
0001
0000
0000
,  // measure 14
0000
0000
0000
0000
,  // measure 15
0000
1000
0000
0000
,  // measure 16
0000
0000
0100
0000
,  // measure 17
0000
1000
0000
0000
,  // measure 18
0000
0000
0000
0000
,  // measure 19
0010
1001
0000
0000
,  // measure 20
0000
0000
0000
0000
,  // measure 21
0000
0100
0000
0000
,  // measure 22
0000
0000
0000
0000
,  // measure 23
0000
0010
0000
0000
,  // measure 24
0000
0000
0000
0000
,  // measure 25
1000
0010
0000
0000
,  // measure 26
0000
0000
0000
0000
,  // measure 27
0100
1001
0000
0000
,  // measure 28
0001
0000
0000
0100
,  // measure 29
0000
0100
0000
0000
,  // measure 30
0010
0000
0000
0000
,  // measure 31
0000
1000
0000
0000
,  // measure 32
1000
0000
0000
0000
,  // measure 33
0001
0010
0000
0000
,  // measure 34
0000
0000
0000
0000
,  // measure 35
0000
0100
0000
0000
,  // measure 36
0000
0000
0000
0000
,  // measure 37
0000
1000
0000
0000
,  // measure 38
0000
0000
0000
0000
,  // measure 39
0000
0001
0000
0000
,  // measure 40
0000
0000
0000
0000
,  // measure 41
0000
0100
0000
0000
,  // measure 42
0000
0000
0000
0000
,  // measure 43
0000
0001
0000
0000
,  // measure 44
0000
0000
0000
0000
,  // measure 45
0000
0000
0000
0000
,  // measure 46
0000
0000
0000
0000
,  // measure 47
1000
1000
0000
0000
,  // measure 48
0000
0000
0000
0000
,  // measure 49
0000
0010
0000
0000
,  // measure 50
0000
0000
0000
0000
,  // measure 51
0000
0010
0000
0000
,  // measure 52
0000
0100
0000
0000
,  // measure 53
0000
0001
0000
0000
,  // measure 54
0000
1000
0000
0000
,  // measure 55
0000
0100
0000
0000
,  // measure 56
0000
1000
0000
0000
,  // measure 57
0000
0010
0000
0010
,  // measure 58
0000
0010
0000
0000
,  // measure 59
0100
0100
0000
0000
,  // measure 60
0000
0001
0000
0000
,  // measure 61
0000
1000
0000
0000
,  // measure 62
0100
0000
0000
1000
,  // measure 63
0000
0010
0000
0000
,  // measure 64
0100
0000
0000
0100
,  // measure 65
0100
0010
0000
0000
;
