#TITLE:Drive Me Crazy;
#SUBTITLE:;
#ARTIST:kors k feat. 古川未鈴;
#TITLETRANSLIT:;
#SUBTITLETRANSLIT:;
#ARTISTTRANSLIT:;
#CREDIT:;
#BANNER:bn.png;
#BACKGROUND:bg.png;
#LYRICSPATH:;
#CDTITLE:cdtitle.png;
#MUSIC:03 Drive Me Crazy.mp3;
#OFFSET:-1.703;
#SAMPLESTART:51.800;
#SAMPLELENGTH:12.000;
#SELECTABLE:YES;
#BPMS:0.000=180.000,248.000=90.000,252.000=180.000;
#STOPS:;
#BGCHANGES:;

//---------------dance-single - ----------------
#NOTES:
     dance-single:
     :
     Hard:
     9:
     0.561,0.633,0.360,0.033,0.000:
0000
0000
0000
0000
,
0000
0000
0000
0000
,
0000
0000
0000
0000
,
0000
0000
0000
0000
,
0000
0010
0000
1000
0010
0100
0010
1000
,
0001
0010
0100
0010
0001
1000
0010
0000
,
0100
0100
0010
0010
,
0101
1100
1001
0000
,
0001
0000
0100
0000
0010
1000
0100
0010
,
0000
0010
0100
1000
0010
0000
0110
0000
,
1000
0001
1000
0001
1000
0001
1000
0001
,
0010
0100
0010
0001
0100
0010
0010
0000
,
0100
0000
0001
0000
0001
0010
1000
0010
,
0000
0100
0100
1000
0010
0000
0000
0000
,
0100
0000
0010
0000
1000
0001
0000
0011
,
0000
0001
0001
0100
0010
0000
0000
0000
,
0100
0000
0010
0000
1000
0001
0010
0000
,
0100
0000
0010
0000
0001
0100
0010
0100
,
0001
1000
0100
0010
0000
0010
0100
1000
,
0000
1000
0100
0010
0100
1000
0010
0100
,
0001
0000
1000
0000
0010
1000
0010
0000
,
0100
0000
0001
0000
0010
0100
0010
0000
,
0001
0000
0100
0000
0010
0000
0010
1000
,
0000
1000
0100
0010
0000
0010
0001
1000
,
0001
0100
0000
0010
0000
1000
0000
0010
,
0000
0100
0000
0010
0000
1000
0000
0001
,
0000
0010
0100
1000
0000
1000
0010
0100
,
0000
0100
0010
1000
0001
0010
0100
0010
,
0001
0000
0000
1000
1000
0000
0000
0000
,
0010
0000
0100
0010
0000
1000
0000
0002
,
0000
0000
0000
0000
0000
0000
0000
0103
,
0000
0010
0100
0010
0100
0001
0011
0000
,
0001
0100
0010
1000
0100
0010
0100
1000
,
0010
0100
0000
0001
0101
0000
0000
0001
,
1000
0100
1000
0010
0000
0000
1000
0000
,
0010
0100
0010
0000
0010
0100
0001
0000
,
0001
0100
0010
1000
0001
0100
0010
1000
,
0002
0000
0003
0000
,
1001
0000
0101
0000
1010
0000
0000
1010
,
0000
0011
0000
1001
0000
0010
0010
0000
,
0100
0001
0010
0100
0010
0000
0001
0010
,
0000
0100
0000
1000
0000
0100
0010
0010
,
0001
0100
0010
1000
0100
0010
0100
1000
,
0001
0100
0001
0010
0000
0000
0100
0000
,
1000
0000
0001
0100
0000
1000
0000
0100
,
0000
0010
1000
0001
0000
1000
0010
0100
,
0001
0000
0100
0000
0110
0000
0000
0010
,
0000
0100
0000
0001
0000
1000
1000
0000
,
0001
0010
0100
0010
0001
0000
0100
0010
,
0000
0010
0100
0100
0000
0000
0000
0010
,
0010
1000
0100
0010
0100
0000
0000
0010
,
0001
0010
0100
1000
0001
0000
0000
1000
,
0100
0010
0000
0010
0001
0100
0000
0100
,
0010
1000
0001
0010
,
0110
0000
0011
0000
1010
0000
0000
1010
,
0000
0011
0000
1001
0000
0000
0000
0000
,
0001
0000
0100
0000
1000
0100
0010
1000
,
0000
0010
0100
0001
1000
0000
1001
0000
,
0001
0100
0001
0100
0001
0100
0001
0100
,
0001
0100
0010
1000
0001
0100
0110
0000
,
0110
0000
1010
0000
1000
0100
0010
0100
,
0000
0010
0100
1000
0010
0000
0000
0000
,
1000
0100
0010
0001
1100
0011
1100
0000
,
0001
0000
0001
0000
0001
0000
0000
0100
,
0000
0100
0000
0100
0000
0000
0000
0000
,
0010
0010
0100
0010
0010
0000
0100
0010
,
0000
1001
0000
0110
0000
0000
0000
0000
,
0001
0100
0010
0100
0010
1000
0100
0010
,
0000
0010
0100
1000
0000
0000
0100
0000
,
1100
0000
1000
1010
0000
0101
0000
1010
,
0000
0001
0010
1000
0000
1000
0010
0001
,
0010
0000
0101
0000
0110
0000
0000
1001
,
0000
0110
0000
1001
0000
0000
0000
0000
,
0010
0000
0101
0000
0001
0010
1000
0010
,
0000
0010
0100
1000
0100
0000
1100
0000
,
1000
0001
1000
0001
1000
0001
1000
0001
,
1000
0001
0100
0010
1000
0100
0010
0000
,
1100
0000
0011
0000
0001
0010
0100
1000
,
0000
1000
0100
0010
0001
0000
0000
0000
,
0001
0000
0100
0000
0010
1000
0000
0001
,
0000
1000
0100
0010
0001
0000
0000
0001
,
0000
1000
0100
0010
0001
0000
0000
0001
,
0000
1000
0100
0010
0001
1000
0100
0010
,
0001
0010
0100
1000
0220
0000
0000
0000
,
0330
0000
0000
0000
;

//---------------dance-single - ----------------
#NOTES:
     dance-single:
     :
     Medium:
     6:
     0.413,0.457,0.142,0.059,0.000:
0000
0000
0000
0000
,
0000
0000
0000
0000
,
0000
0000
0000
0000
,
0000
0000
0000
0000
,
1000
0100
1000
0010
,
0100
0000
0010
0000
0100
0001
0100
0000
,
0001
0100
1000
0100
,
0110
1001
0110
0000
,
0010
0000
1010
0000
0010
1000
0010
0000
,
0100
0000
0101
0000
0001
0100
0010
0000
,
0100
0100
0100
0100
,
0100
0010
0100
0010
0100
0010
0100
0000
,
0010
0000
1000
0000
0001
0000
0010
0100
,
0000
0100
1000
0100
1000
0000
0000
0000
,
1000
0000
0001
0000
0100
0001
0000
0100
,
0000
0010
1000
0010
1000
0000
0000
0000
,
0010
1000
0010
0001
,
0010
0100
0001
0010
,
0000
0100
1000
0100
0000
1000
0100
1000
,
0000
0100
1000
0000
0100
0000
0010
0000
,
0000
0001
1000
0010
,
1000
0100
1000
0010
,
0000
0000
0100
0000
0100
0000
0010
0100
,
0000
0000
0001
1000
0000
1000
0100
0010
,
0000
0100
0000
1000
0000
0010
0000
0100
,
0000
0010
0000
1000
0000
0010
0000
0100
,
0000
0010
0100
0010
0000
0100
0010
0100
,
0000
0010
0100
0010
0100
0000
0000
0000
,
0020
0000
1030
0000
,
1000
0000
0001
1000
0000
0100
0000
0020
,
0000
0000
0000
0000
0000
0000
0000
0002
,
0000
0000
0000
0033
,
0001
0100
0010
1000
,
0010
0000
0100
0010
1000
0000
0000
1000
,
0001
0100
0001
0100
,
0010
1000
0001
0010
,
0011
1010
0011
1010
,
2002
0000
0000
3003
,
0001
0000
1000
0000
0010
0000
0000
1000
,
0000
0100
0000
0010
0000
0000
0000
0100
,
1000
0000
0100
0000
0010
0000
0100
0100
,
0000
1000
0000
0010
0000
0100
0110
0000
,
0010
1000
0010
0000
0010
0100
0010
0000
,
0100
0000
0001
1000
0000
0000
0001
0000
,
0100
0000
0010
0010
0000
0100
0000
0001
,
0000
0001
0010
0100
0000
0000
0000
0000
,
0010
0000
0001
0000
1000
0000
0000
0001
,
0000
0001
0000
1000
0000
0001
0100
0000
,
0010
0000
0100
0000
0010
0000
1000
0010
,
0000
0100
0000
0010
0000
0000
0000
0000
,
1000
0000
0100
0010
0001
0000
0000
0000
,
0001
0000
0010
0100
1000
0000
0000
0000
,
0100
0000
0010
0000
,
0001
1000
0010
0100
,
0001
0000
1000
0000
0001
0000
0000
0100
,
0000
0100
0000
0100
0000
0000
0000
0000
,
0001
0100
0010
0100
,
0010
1000
0001
0010
,
0100
0100
0100
0100
,
0100
0100
0100
0010
,
0100
1000
0100
1000
,
0010
0000
0100
0010
1000
0000
0000
0000
,
0001
0010
0100
1000
0100
0100
0100
0000
,
1000
0000
0010
0000
0100
0000
0000
0010
,
0000
0010
0000
0010
0000
0000
0000
0000
,
0100
0001
0100
0001
0100
0000
0001
0100
,
0000
0001
0000
1000
0000
0000
0000
0000
,
1000
0100
1000
0010
,
0100
0001
1000
0010
,
0100
0000
0010
0010
0000
1000
0000
0001
,
0000
0001
0010
0100
0000
1000
0100
1000
,
0100
0000
0010
0000
0001
0000
0000
0011
,
0000
0011
0000
0011
0000
0000
0000
0000
,
0001
1010
0001
0100
,
0010
1000
0010
0101
,
0001
0001
0001
0001
,
0001
0000
0001
0000
0001
1000
0001
0000
,
0100
0010
1000
0100
,
0010
0000
0001
0010
0001
0000
0000
0000
,
0001
0000
0100
0000
0010
0000
0000
1000
,
0000
0001
1000
0000
0010
0000
0000
1000
,
0000
0001
1000
0000
0010
0000
0000
1000
,
0000
0001
1000
0000
1000
0000
1000
0000
,
1000
1000
0202
0000
,
0303
0000
0000
0000
;

//---------------dance-single - ----------------
#NOTES:
     dance-single:
     :
     Easy:
     4:
     0.250,0.315,0.100,0.008,0.000:
0000
0000
0000
0000
,
0000
0000
0000
0000
,
0000
0000
0000
0000
,
0000
0000
0000
0000
,
1000
0000
0001
0000
,
1000
0000
0010
0100
,
0001
0100
0010
1000
,
0100
0100
0100
0000
,
1000
0000
1000
0000
,
0001
0000
0100
0000
,
0001
0001
0001
0001
,
0001
0001
0001
0100
,
0001
0000
0100
0000
,
0010
1000
0010
0000
,
0100
0000
0001
0000
,
1000
1000
1000
0000
,
0001
0000
0000
0000
,
0100
0000
0000
0000
,
0010
0000
0010
0000
,
0010
0100
0010
0100
,
0001
0000
0000
0000
,
1000
0000
0000
0000
,
0100
0000
1000
0000
,
0010
0000
0000
0000
,
0100
0000
0001
0000
,
1000
0000
0100
0000
,
1000
0000
1000
0000
,
1000
0001
0100
0000
,
0001
0000
0100
0000
,
0010
0010
0010
0000
,
0100
0000
0001
0000
,
1000
0000
0000
0000
,
0001
1000
0010
0000
,
0100
0001
0100
0000
,
0010
0000
1000
0000
,
0100
1000
0010
0100
,
0002
0000
0000
0000
,
0003
0000
0000
0000
,
1000
1000
1000
0000
,
0001
0001
0001
0000
,
0100
0000
0010
0000
,
1000
0000
0100
0000
,
1000
0000
0010
0000
,
0100
0000
0001
0000
,
0110
0000
1001
0000
,
0110
0010
0010
0000
,
0001
0000
0010
0000
,
0001
0001
0100
0000
,
0010
0000
0100
0000
,
0001
1000
0100
0000
,
0010
0001
0010
0000
,
0001
0100
0001
0000
,
0100
0000
0010
0000
,
1000
1000
0001
0000
,
1000
0000
0001
0000
1000
0000
0000
0001
,
0000
1000
0000
0001
0000
0000
0000
0000
,
0100
0000
0010
0000
,
1000
0000
0100
0000
,
0010
0001
0010
0001
,
0010
0001
0010
0001
,
0100
0000
0010
0000
,
1000
0001
0100
0000
,
0001
0100
0010
1000
,
0100
0000
0100
0000
0100
0000
0000
0010
,
0000
0010
0000
0010
0000
0000
0000
0000
,
0100
0000
0010
0000
0001
0000
0000
1000
,
0000
0001
0000
1000
0000
0000
0000
0000
,
0001
0000
0100
0000
,
0010
0000
0100
0000
,
0001
0000
1000
0000
,
0100
1000
0100
0000
,
1000
0000
0010
0000
0100
0000
0000
0110
,
0000
0110
0000
0110
0000
0000
0000
0000
,
0010
0000
0100
0000
,
0001
0000
1000
0000
,
0100
1000
0100
1000
,
0100
1000
0100
0010
,
0100
0000
1000
0000
,
0001
0100
0010
0000
,
0100
0000
0001
0000
,
1001
0000
0000
0000
,
0110
0000
0000
0000
,
1001
0000
0110
0000
,
1001
0000
0110
0000
;

//---------------dance-single - ----------------
#NOTES:
     dance-single:
     :
     Beginner:
     2:
     0.147,0.245,0.017,0.000,0.000: // measure 1
0000
0000
0000
0000
,  // measure 2
0000
0000
0000
0000
,  // measure 3
0000
0000
0000
0000
,  // measure 4
0000
0000
0000
0000
,  // measure 5
1000
0000
0000
0000
,  // measure 6
0001
0000
0000
0000
,  // measure 7
0100
0000
0010
0000
,  // measure 8
0100
0100
0100
0000
,  // measure 9
0001
0000
0000
0000
,  // measure 10
1000
0000
0000
0000
,  // measure 11
1000
0000
1000
0000
,  // measure 12
0001
0000
0000
0000
,  // measure 13
0100
0000
0000
0000
,  // measure 14
0001
0000
0000
0000
,  // measure 15
1000
0000
1000
0000
,  // measure 16
0100
0100
0100
0000
,  // measure 17
1000
0000
0000
0000
,  // measure 18
0001
0000
0000
0000
,  // measure 19
0100
0000
0100
0000
,  // measure 20
0100
0000
0000
0000
,  // measure 21
0001
0000
0000
0000
,  // measure 22
1000
0000
0000
0000
,  // measure 23
0100
0000
0000
0000
,  // measure 24
0000
0000
0000
0000
,  // measure 25
1000
0000
0000
0000
,  // measure 26
0001
0000
0000
0000
,  // measure 27
0100
0000
0100
0000
,  // measure 28
0100
0000
0000
0000
,  // measure 29
0010
0000
0000
0000
,  // measure 30
0100
0000
0000
0000
,  // measure 31
0000
0000
0000
0000
,  // measure 32
0001
0000
0000
1000
,  // measure 33
1000
0000
0000
0000
,  // measure 34
0001
0000
0000
0000
,  // measure 35
0100
0000
0000
0000
,  // measure 36
0001
0000
1000
0000
,  // measure 37
0010
0000
0000
0000
,  // measure 38
0110
0000
0000
0000
,  // measure 39
1000
1000
1000
0000
,  // measure 40
0001
0001
0001
0000
,  // measure 41
0100
0000
0000
0000
,  // measure 42
0010
0000
0000
0000
,  // measure 43
1000
1000
1000
0000
,  // measure 44
0010
0010
0010
0000
,  // measure 45
0100
0000
0010
0000
,  // measure 46
0100
0000
0010
0000
,  // measure 47
1000
1000
1000
0000
,  // measure 48
0001
0001
0001
0000
,  // measure 49
0100
0000
0000
0000
,  // measure 50
0001
0000
0000
0000
,  // measure 51
1000
0000
0000
0000
,  // measure 52
0100
0000
0000
0000
,  // measure 53
1000
0000
1000
0000
,  // measure 54
1000
0000
0000
0000
,  // measure 55
0001
0001
0001
0000
,  // measure 56
0100
0100
0100
0000
,  // measure 57
0010
0000
0000
0000
,  // measure 58
0100
0000
0000
0000
,  // measure 59
0001
0000
0000
0000
,  // measure 60
0001
0000
0000
0000
,  // measure 61
1000
0000
0000
0000
,  // measure 62
0001
0000
0000
0000
,  // measure 63
0100
0000
0000
0000
,  // measure 64
0010
0000
0000
0000
,  // measure 65
0010
0000
0000
0000
,  // measure 66
0100
0000
0010
0000
,  // measure 67
1000
1000
0001
0000
,  // measure 68
0100
0000
0000
0000
,  // measure 69
0001
0000
0000
0000
,  // measure 70
1000
0000
1000
0000
,  // measure 71
0100
0100
0100
0000
,  // measure 72
1000
1000
1000
0000
,  // measure 73
0010
0010
0010
0000
,  // measure 74
0100
0000
0000
0000
,  // measure 75
0001
0000
0000
0000
,  // measure 76
1000
0000
1000
0000
,  // measure 77
1000
0000
0000
0000
,  // measure 78
0100
0000
0000
0000
,  // measure 79
1000
0000
0000
0000
,  // measure 80
0010
0000
0000
0000
,  // measure 81
0100
0000
0000
0000
,  // measure 82
0100
0000
0000
0000
,  // measure 83
0100
0000
0010
0000
,  // measure 84
0100
0000
1001
0000
;
