#TITLE:Domino;
#SUBTITLE:;
#ARTIST:Jessie J;
#TITLETRANSLIT:;
#SUBTITLETRANSLIT:;
#ARTISTTRANSLIT:;
#GENRE:;
#CREDIT:hooky;
#BANNER:[Falling in Love] - Domino.png;
#BACKGROUND:[Falling in Love] - Domino-bg.png;
#LYRICSPATH:;
#CDTITLE:;
#MUSIC:[Falling in Love] - Domino.ogg;
#OFFSET:-0.519;
#SAMPLESTART:52.020;
#SAMPLELENGTH:15.000;
#SELECTABLE:YES;
#DISPLAYBPM:127.000;
#BPMS:0.000=127.000
;
#STOPS:
;
#BGCHANGES:-4.000=cdtitle.png=1.000=1=0=0=StretchNoLoop==CrossFade==,
0.000=[Falling in Love] - Domino.avi=1.000=0=0=0=StretchNoLoop====,
99999=-nosongbg-=1.000=0=0=0 // don't automatically add -songbackground-
;
#KEYSOUNDS:;
#ATTACKS:;

//---------------dance-single - hooky----------------
#NOTES:
     dance-single:
     hooky:
     Hard:
     7:
     0.456,0.456,0.464,0.204,0.000,223.000,41.000,18.000,0.000,0.000,0.000,0.456,0.456,0.464,0.204,0.000,223.000,41.000,18.000,0.000,0.000,0.000: // measure 0
0000
0000
0000
0000
,  // measure 1
0000
0000
0000
0000
,  // measure 2
0000
0000
0000
0000
,  // measure 3
0000
0000
0000
0000
,  // measure 4
1000
0000
1100
0000
0010
0001
0010
0000
,  // measure 5
0100
0110
0010
1001
,  // measure 6
0001
0000
0011
0000
1000
0100
1000
0000
,  // measure 7
0100
1001
0010
0110
,  // measure 8
0100
0010
0100
0000
1000
0000
1100
0000
,  // measure 9
0010
0011
0100
0110
,  // measure 10
1000
0100
1000
0000
1000
0000
1100
0000
,  // measure 11
0010
0001
0010
0000
1000
0100
1000
0000
,  // measure 12
1000
1000
1100
0000
0001
0001
0011
0000
,  // measure 13
0100
0010
0100
0010
0000
0100
0110
0000
,  // measure 14
0010
0010
0101
0000
0100
0100
1010
0000
,  // measure 15
0100
0010
1000
0100
0000
0100
0110
0000
,  // measure 16
2000
3100
0002
0013
,  // measure 17
0100
0010
1000
0100
0001
0010
1000
0000
,  // measure 18
0100
0000
0110
0000
0010
0001
0010
0000
,  // measure 19
1000
1000
1000
0000
0010
0010
0000
0220
,  // measure 20
0000
0330
1000
0000
1000
0100
1000
0100
,  // measure 21
0000
1100
0000
1000
0000
0001
0011
0000
,  // measure 22
0110
0000
1001
0000
0010
0100
0001
0010
,  // measure 23
0000
0110
0000
1000
0000
0100
1100
0220
,  // measure 24
0000
0330
0001
0000
0001
0010
0001
0010
,  // measure 25
0000
0011
0000
0001
0000
1000
1100
0000
,  // measure 26
0110
0000
1001
0000
0100
0010
0100
0010
,  // measure 27
0000
0110
0000
0001
0000
0010
0011
0220
,  // measure 28
0000
0330
2000
0000
3100
0010
0001
0100
,  // measure 29
0010
0100
0010
1000
1100
0000
0011
0000
,  // measure 30
0002
0000
0013
0100
1000
0100
0010
0100
,  // measure 31
0010
0001
0010
0001
0100
0010
2000
0000
,  // measure 32
3100
0000
0010
0000
0100
0010
0100
0000
,  // measure 33
1000
0100
0010
0001
0100
0010
0100
0000
,  // measure 34
0002
0000
0103
0000
0100
0100
0110
0000
,  // measure 35
1000
0100
1000
0100
0010
0010
0011
0000
,  // measure 36
0002
0000
0010
0000
0013
0100
1000
0010
,  // measure 37
0100
0010
0100
0001
0011
0000
1100
0000
,  // measure 38
2000
0000
3100
0000
0001
0010
0100
0010
,  // measure 39
0100
1000
0100
1000
0010
0100
0002
0000
,  // measure 40
0013
0000
0100
0000
0010
0100
0010
0000
,  // measure 41
0001
0010
0100
1000
0010
0100
0010
0000
,  // measure 42
2000
0000
3010
0000
0010
0010
0110
0000
,  // measure 43
0001
0010
0001
0010
0100
0100
1100
0000
,  // measure 44
0220
0000
0000
0330
;

//---------------dance-single - hooky----------------
#NOTES:
     dance-single:
     hooky:
     Medium:
     6:
     0.348,0.355,0.453,0.113,0.000,165.000,40.000,10.000,0.000,0.000,0.000,0.348,0.355,0.453,0.113,0.000,165.000,40.000,10.000,0.000,0.000,0.000:
0000
0000
0000
0000
,
0000
0000
0000
0000
,
0000
0000
0000
0000
,
0000
0000
0000
0000
,
1000
1100
0010
0011
,
0100
0101
0010
1010
,
1000
1100
0010
0011
,
0001
0101
0100
0110
,
0010
1010
0100
1100
,
0010
0011
0001
0101
,
0100
0110
1000
1010
,
0100
1100
0010
0011
,
1000
0010
1000
0000
0001
0000
0101
0000
,
0010
0001
0010
0000
0100
0000
1100
0000
,
0010
0100
0010
0000
0100
0000
0110
0000
,
0001
0100
0001
0000
0100
0000
0101
0000
,
0010
1000
0010
0000
0100
0000
0110
0000
,
0001
0100
0001
0000
1000
0100
1000
0000
,
0001
0011
1000
1100
,
2020
3030
0202
0303
,
0010
0010
0001
0100
,
0010
0010
1000
0100
,
0010
0010
0001
1000
,
0020
0000
0200
0330
,
0100
0010
1000
0100
,
1000
0010
0100
0001
,
0010
0001
0100
0010
,
2000
0000
0002
3003
,
0100
0110
0001
1001
,
1000
0100
1000
0000
0010
0000
0011
0000
,
0001
0100
0010
1000
,
0100
0000
0010
0001
0010
0000
0011
0000
,
0010
0011
0100
0110
,
1000
0010
0100
0001
,
1000
1100
0010
0011
,
0101
0010
0100
0110
,
0010
1000
0100
1000
,
0010
0100
0101
1010
,
0100
1000
0010
0100
,
0001
0000
0010
0000
0001
0100
0001
0000
,
0010
0101
1000
0010
,
0100
0010
1000
1100
,
0010
0001
0100
0001
,
0010
0001
0100
0010
,
2002
0000
0000
3003
;

//---------------dance-single - hooky----------------
#NOTES:
     dance-single:
     hooky:
     Easy:
     3:
     0.246,0.253,0.260,0.023,0.000,127.000,23.000,2.000,0.000,0.000,0.000,0.246,0.253,0.260,0.023,0.000,127.000,23.000,2.000,0.000,0.000,0.000:
0000
0000
0000
0000
,
0000
0000
0000
0000
,
0000
0000
0000
0000
,
0000
0000
0000
0000
,
1000
0000
1000
0000
,
0010
0100
0001
0010
,
0001
0000
0001
0000
,
1000
0010
0100
0010
,
1000
0000
1000
0000
,
0100
0010
0001
1000
,
0100
0000
0100
0000
,
0010
0100
0010
1000
,
0100
0100
1000
1000
,
0100
0000
0100
0000
,
0010
0010
0001
0001
,
0010
0000
0010
0000
,
0001
0100
0010
1000
,
0100
0000
0100
0000
,
1000
0010
0100
0001
,
0010
0000
0010
0000
,
0100
0000
0100
0010
,
0100
0000
0001
1000
,
0001
0000
0100
1000
,
1100
0000
0011
0000
,
0110
0000
0001
1000
,
0100
0000
0010
1000
,
0100
0000
1000
0001
,
0101
0000
1010
0000
,
1001
0110
0000
0110
,
0010
1000
0100
0010
,
0001
0011
0000
0110
,
0010
1000
0100
1000
,
0010
1010
0000
0101
,
0010
0001
0100
0010
,
1000
1100
0000
0011
,
0100
0010
1000
0100
,
1000
1001
0000
0110
,
0010
1000
0100
0100
,
0010
0011
0000
0110
,
0010
1000
0100
1000
,
0010
0110
0000
0011
,
1000
0100
1000
0010
,
0100
0110
0000
0110
,
1000
0100
0010
0001
,
2002
0000
0000
3003
;

//---------------dance-single - hooky----------------
#NOTES:
     dance-single:
     hooky:
     Beginner:
     1:
     0.120,0.125,0.034,0.000,0.000,71.000,3.000,0.000,0.000,0.000,0.000,0.120,0.125,0.034,0.000,0.000,71.000,3.000,0.000,0.000,0.000,0.000:
0000
0000
0000
0000
,
0000
0000
0000
0000
,
0000
0000
0000
0000
,
0000
0000
0000
0000
,
1000
0000
0000
0000
,
0010
0000
0001
0000
,
0001
0000
0000
0000
,
1000
0000
0100
0000
,
1000
0000
0000
0000
,
0100
0000
0001
0000
,
0100
0000
0000
0000
,
0010
0000
0010
0000
,
0100
0000
1000
0000
,
0100
0000
0000
0000
,
0010
0000
0001
0000
,
0010
0000
0000
0000
,
0001
0000
0010
0000
,
0100
0000
0000
0000
,
1000
0000
0100
0000
,
0010
0000
0000
0000
,
0100
0000
0000
0000
,
0100
0000
0001
0000
,
0001
0000
0100
0000
,
0100
0000
0000
0000
,
0110
0000
0001
0000
,
0100
0000
0010
0000
,
0100
0000
1000
0000
,
0001
0000
1000
0000
,
1001
0000
0100
0000
,
0100
0000
0100
0000
,
0001
0000
0010
0000
,
0010
0000
0100
0000
,
1000
0000
0001
0000
,
0010
0000
0100
0000
,
1000
0000
0001
0000
,
0100
0000
1000
0000
,
1000
0000
0010
0000
,
0010
0000
0100
0000
,
0010
0000
0100
0000
,
0010
0000
0100
0000
,
0010
0000
0001
0000
,
1000
0000
1000
0000
,
0100
0000
0010
0000
,
1000
0000
0000
0001
,
1001
0000
0000
0000
;
