#TITLE:You Will Be In My Heart;
#SUBTITLE:;
#ARTIST:Dave Rodgers;
#TITLETRANSLIT:;
#SUBTITLETRANSLIT:;
#ARTISTTRANSLIT:;
#CREDIT:;
#BANNER:You Will Be In My Heart.png;
#BACKGROUND:You Will Be In My Heart-bg.png;
#LYRICSPATH:;
#CDTITLE:;
#MUSIC:You Will Be In My Heart.mp3;
#OFFSET:-0.060;
#SAMPLESTART:56.870;
#SAMPLELENGTH:16.780;
#SELECTABLE:YES;
#BPMS:0.000=135.090;
#STOPS:;
#BGCHANGES:;

//---------------dance-single - ----------------
#NOTES:
     dance-single:
     :
     Hard:
     7:
     0.539,0.498,0.215,0.332,0.210:
0000
0000
0000
0000
,
0000
0000
0000
0000
,
0000
0000
0000
0000
,
0000
0000
0000
0000
,
1000
0100
0010
0001
1000
0010
0100
0002
,
0010
0100
1000
0103
,
0001
0100
0010
1000
0001
0010
0100
1000
,
1100
0011
0101
1010
,
1000
0000
0001
0000
0000
0100
0000
0000
0001
0000
0000
0010
0000
0000
0100
0000
,
1000
0000
0010
0000
0000
1000
0000
0000
0100
0000
0010
0001
0000
0001
0010
0000
,
0100
0000
1000
0000
0000
0001
0000
0000
0100
0000
0000
0010
0000
0000
1000
0000
,
0100
0000
0001
0000
0000
0100
0000
0000
1000
0000
0001
1000
0000
1000
0001
0000
,
0100
0000
0010
0000
0000
1000
0000
0000
0001
0000
0000
0010
0000
0000
0001
0000
,
0100
0000
0010
0000
0000
1000
0000
0000
0100
0000
1000
0000
0001
0100
0001
0000
,
0100
0000
0010
0000
0000
1000
0000
0000
0100
0000
0010
0000
0001
1000
0001
0000
,
0100
0000
0010
0000
0000
1000
0000
0000
0100
0010
0100
0010
0002
0000
0003
0000
,
0100
0010
1000
0010
0100
0001
1000
0100
,
1000
0001
0000
0102
0000
0010
0013
0000
,
0001
0100
1000
0010
0002
0000
1003
0000
,
0001
0100
0000
2010
0000
0001
3001
0000
,
1000
0100
0001
0100
1000
0010
0000
0011
,
0000
0001
0010
2000
0000
0100
3100
0000
,
1000
0000
0100
0000
0001
0000
0010
0000
1000
0000
0000
0001
0000
0000
0100
0000
,
0010
0000
0110
0000
0010
1000
0001
0000
,
1000
0100
0010
0100
1000
0000
0010
0100
,
0001
0000
0100
0000
0000
0000
0110
0000
0000
0000
1000
0001
1000
0000
0000
0000
,
0001
0100
0010
0100
0001
0010
0100
0010
,
0001
1000
0000
2001
0000
0010
3010
0000
,
1000
0010
0001
0010
1000
0100
0001
0000
,
0100
1000
0010
0002
0000
0010
0013
0000
,
1000
0000
0100
0000
0001
0000
0010
0000
1000
0000
0000
0001
0000
0000
0100
0000
,
0010
0000
1010
0000
1000
0100
0001
0100
,
2000
3020
0032
0203
,
1300
0001
0100
0020
0000
0100
0130
0010
,
0200
0302
0023
2030
,
3100
0000
0210
0000
0001
0301
0000
0010
,
0001
0100
0000
0102
0000
1003
0000
0010
,
1000
0100
0000
2100
0000
0001
3001
0000
,
1000
0100
0010
0000
0001
0100
0010
0000
,
1000
0001
0010
0001
0100
0010
1000
0100
,
2000
3020
0032
0203
,
0310
0001
0100
0020
0000
1000
1030
0100
,
0010
2000
0000
3200
0000
0000
0302
0000
,
0013
0000
2010
0000
0001
3002
0000
0103
,
0001
0010
0000
0012
0000
1000
1003
0000
,
2100
3001
0102
1003
,
2001
0000
3010
0000
1000
0010
0100
0000
,
0001
0010
0100
0010
0001
0100
0010
1000
,
1001
0000
0000
0100
0000
0000
1001
0000
0000
0010
0000
0000
1001
0000
0000
0000
,
0001
0000
1000
0000
0000
0010
0000
0000
1000
0000
0000
0100
0000
0000
0010
0000
,
0001
0000
0100
0000
0000
0001
0000
0000
0010
0000
0100
1000
0000
1000
0100
0000
,
0010
0000
0001
0000
0000
1000
0000
0000
0010
0000
0000
0100
0000
0000
0001
0000
,
0010
0000
1000
0000
0000
0010
0000
0000
0001
0000
1000
0001
0000
0001
1000
0000
,
0010
0000
0100
0000
0000
0001
0000
0000
1000
0000
0000
0100
0000
0000
1000
0000
,
0010
0000
0100
0000
0000
0001
0000
0000
0010
0000
0001
0000
1000
0010
1000
0000
,
0010
0000
0100
0000
0000
0001
0000
0000
0010
0000
0100
0000
1000
0001
1000
0000
,
0010
0000
0100
0000
0000
0001
0000
0000
0010
0100
0010
0100
1000
0000
0000
0000
;

//---------------dance-single - ----------------
#NOTES:
     dance-single:
     :
     Beginner:
     1:
     0.118,0.166,0.000,0.059,0.000: // measure 1
0000
0000
0000
0000
,  // measure 2
0000
0000
0000
0000
,  // measure 3
0000
0000
0000
0000
,  // measure 4
0000
0000
0000
0000
,  // measure 5
1000
0000
0000
0000
,  // measure 6
0001
0000
0000
0000
,  // measure 7
0100
0000
0000
0000
,  // measure 8
0010
0000
0010
0000
,  // measure 9
0010
0000
0000
0000
,  // measure 10
1000
0000
0000
0000
,  // measure 11
0100
0000
0000
0000
,  // measure 12
0010
0000
0010
0000
,  // measure 13
0010
0000
0000
0000
,  // measure 14
0001
0000
0000
0000
,  // measure 15
1000
0000
0000
0000
,  // measure 16
0100
0000
0100
0100
,  // measure 17
0100
0000
0000
0000
,  // measure 18
1000
0000
0000
0000
,  // measure 19
0001
0000
0000
0000
,  // measure 20
0100
0000
0100
0000
,  // measure 21
0100
0000
0000
0000
,  // measure 22
0010
0000
0000
0000
,  // measure 23
1000
0000
1000
0000
,  // measure 24
1000
0000
0000
0000
,  // measure 25
0001
0000
0000
0000
,  // measure 26
0010
0000
0000
0000
,  // measure 27
0100
0000
0000
0000
,  // measure 28
1000
0000
1000
0000
,  // measure 29
1000
0000
0000
0000
,  // measure 30
0001
0000
0000
0000
,  // measure 31
0100
0000
0100
0000
,  // measure 32
0100
0000
0000
0000
,  // measure 33
0001
0000
0001
0001
,  // measure 34
0002
0000
0003
0000
,  // measure 35
1000
0000
1000
1000
,  // measure 36
2000
0000
3000
0000
,  // measure 37
0010
0000
0010
0000
,  // measure 38
0100
0000
0100
0000
,  // measure 39
0002
0000
0003
0000
,  // measure 40
1000
0000
1000
0000
,  // measure 41
0010
0000
0010
0010
,  // measure 42
0020
0000
0030
0000
,  // measure 43
0100
0000
0100
0100
,  // measure 44
0200
0000
0300
0000
,  // measure 45
0001
0000
0001
0000
,  // measure 46
1000
0000
1000
0000
,  // measure 47
0020
0000
0030
0000
,  // measure 48
0100
0000
0001
0000
,  // measure 49
1000
0000
0001
0000
,  // measure 50
1000
0000
0000
0000
,  // measure 51
0010
0000
0000
0000
,  // measure 52
0100
0000
0000
0000
,  // measure 53
0001
0000
0001
0000
,  // measure 54
0001
0000
0000
0000
,  // measure 55
0010
0000
0000
0000
,  // measure 56
0100
0000
0000
0000
,  // measure 57
1000
0000
1000
1000
;

//---------------dance-single - ----------------
#NOTES:
     dance-single:
     :
     Easy:
     3:
     0.273,0.277,0.020,0.098,0.000: // measure 1
0000
0000
0000
0000
,  // measure 2
0000
0000
0000
0000
,  // measure 3
0000
0000
0000
0000
,  // measure 4
0000
0000
0000
0000
,  // measure 5
1000
0100
0010
0001
,  // measure 6
2000
0000
3001
0000
,  // measure 7
0100
0010
1000
0001
,  // measure 8
0100
0100
0010
0010
,  // measure 9
1000
0100
0001
0100
,  // measure 10
1000
0100
0001
0100
,  // measure 11
1000
0010
0001
0010
,  // measure 12
1000
0010
0001
0010
,  // measure 13
1000
0100
0001
0100
,  // measure 14
1000
0010
0001
0010
,  // measure 15
1000
0100
0001
0100
,  // measure 16
1000
0010
0001
1001
,  // measure 17
1000
0010
0100
0010
,  // measure 18
1000
0100
0010
0000
,  // measure 19
0100
1000
0001
0010
,  // measure 20
0001
0100
0010
0000
,  // measure 21
1000
0100
0001
0000
,  // measure 22
1000
0010
0001
0000
,  // measure 23
1000
0010
0100
0001
,  // measure 24
2000
0000
3001
0000
,  // measure 25
1000
0100
0010
0000
,  // measure 26
0001
0010
0100
0000
,  // measure 27
1000
0010
0100
0001
,  // measure 28
0100
0010
1000
0000
,  // measure 29
0001
0010
0100
0000
,  // measure 30
1000
0100
0010
0000
,  // measure 31
0001
0100
1000
0100
,  // measure 32
0001
0010
1000
0010
,  // measure 33
0001
0001
1000
1000
,  // measure 34
0020
0000
0130
0000
,  // measure 35
0001
0001
0100
0100
,  // measure 36
0020
0000
1030
0000
,  // measure 37
0001
1000
0100
0000
,  // measure 38
1000
0001
0100
0010
,  // measure 39
2000
0000
3001
0000
,  // measure 40
1000
0100
0010
0001
,  // measure 41
1000
1000
0001
0001
,  // measure 42
0200
0000
0310
0000
,  // measure 43
1000
1000
0100
0100
,  // measure 44
0020
0000
0031
0000
,  // measure 45
1000
0010
0100
0001
,  // measure 46
2000
0000
3002
0000
,  // measure 47
0203
0000
0310
0000
,  // measure 48
1000
0010
0100
0001
,  // measure 49
1000
1000
0001
0001
,  // measure 50
1000
0010
0001
0010
,  // measure 51
1000
0010
0001
0010
,  // measure 52
1000
0100
0001
0100
,  // measure 53
1000
0100
0001
0100
,  // measure 54
1000
0010
0001
0010
,  // measure 55
1000
0100
0001
0100
,  // measure 56
1000
0010
0001
0010
,  // measure 57
1000
0100
0001
1001
;

//---------------dance-single - ----------------
#NOTES:
     dance-single:
     :
     Medium:
     6:
     0.457,0.415,0.117,0.283,0.000: // measure 1
0000
0000
0000
0000
,  // measure 2
0000
0000
0000
0000
,  // measure 3
0000
0000
0000
0000
,  // measure 4
0000
0000
0000
0000
,  // measure 5
1000
0100
1000
0000
0001
0100
0002
0000
,  // measure 6
0010
0100
1000
0103
,  // measure 7
0001
0100
0001
0000
1000
0010
1000
0000
,  // measure 8
0101
0101
1010
1010
,  // measure 9
1000
0001
1000
0000
0001
0100
0001
0000
,  // measure 10
0100
0010
0100
0000
0010
1000
0010
0000
,  // measure 11
1000
0100
1000
0000
0100
0010
0100
0000
,  // measure 12
0010
0001
0010
0000
0001
0100
0001
0000
,  // measure 13
0100
0010
0100
0000
0010
1000
0010
0000
,  // measure 14
1000
0001
1000
0000
0001
0100
0001
0000
,  // measure 15
1000
0100
1000
0000
0001
0010
0001
0000
,  // measure 16
1000
0010
1000
0000
0001
1000
1001
0000
,  // measure 17
0001
0100
0010
1000
,  // measure 18
0001
0010
0100
0010
0002
0000
1003
0000
,  // measure 19
0001
0100
0010
1000
,  // measure 20
0100
1000
0010
1000
0200
0000
1300
0000
,  // measure 21
0010
0000
1000
0001
1000
0000
0101
0000
,  // measure 22
1000
0000
0001
1000
0001
0000
1100
0000
,  // measure 23
1000
0000
0010
0100
0001
0000
0010
0100
,  // measure 24
1000
0000
0001
0000
1000
0010
0100
0010
,  // measure 25
1000
0100
0010
0001
,  // measure 26
1000
0010
0100
0010
1000
0000
1001
0000
,  // measure 27
0001
0010
0100
0010
,  // measure 28
0001
0100
0010
0100
0001
0000
1001
0000
,  // measure 29
1000
0000
0010
0100
0010
0000
1001
0000
,  // measure 30
0001
0000
0010
0100
0010
0000
1001
0000
,  // measure 31
0001
0000
0100
0010
0100
0000
0010
1000
,  // measure 32
0020
0000
0130
0000
0001
0100
0010
1000
,  // measure 33
0002
0023
0230
2300
,  // measure 34
3002
0000
0103
0000
0001
0100
0010
0000
,  // measure 35
2000
3020
0230
0302
,  // measure 36
2003
0000
3100
0000
1000
0100
0010
0000
,  // measure 37
0001
0010
0001
0010
0002
0000
0013
0000
,  // measure 38
0100
1000
0100
1000
0200
0000
1300
0000
,  // measure 39
0010
1000
0100
0000
0010
0001
0100
0000
,  // measure 40
0010
1000
0001
0100
0001
1000
0010
0000
,  // measure 41
2000
3200
0320
0032
,  // measure 42
2003
0000
3001
0000
0100
0010
1000
0000
,  // measure 43
0002
0023
0230
2300
,  // measure 44
3002
0000
0103
0000
0010
1000
0100
0000
,  // measure 45
0010
0001
0000
0100
0000
0001
0010
0000
,  // measure 46
0200
1300
0002
0103
,  // measure 47
0020
0000
1030
0000
0001
0010
0100
0000
,  // measure 48
1000
0000
0001
0000
0100
0010
1000
0000
,  // measure 49
0001
1000
0001
1000
0010
0100
0010
0000
,  // measure 50
1000
0001
1000
0000
0001
0100
0001
0000
,  // measure 51
0100
0010
0100
0000
0010
1000
0010
0000
,  // measure 52
1000
0100
1000
0000
0100
0010
0100
0000
,  // measure 53
0010
0001
0010
0000
0001
0100
0001
0000
,  // measure 54
0100
0010
0100
0000
0010
1000
0010
0000
,  // measure 55
1000
0001
1000
0000
0001
0100
0001
0000
,  // measure 56
1000
0100
1000
0000
0001
0010
0001
0000
,  // measure 57
1000
0010
1000
0000
0001
1000
1001
0000
;
