#TITLE:Gee (J-Core Remix);
#SUBTITLE:;
#ARTIST:Girls' Generation;
#TITLETRANSLIT:;
#SUBTITLETRANSLIT:;
#ARTISTTRANSLIT:;
#GENRE:J-Core;
#CREDIT:Frozen_Heat/Azn_Punk_07/GuardianFrozen;
#MENUCOLOR:#ff904c;
#METERTYPE:DDR;
#BANNER:Gee (J-Core Remix)-bn.png;
#BACKGROUND:Gee (J-Core Remix)-bg.png;
#LYRICSPATH:Gee (J-Core Remix).lrc;
#CDTITLE:!cdtitle.png;
#MUSIC:Gee (J-Core Remix).mp3;
#OFFSET:-1.360;
#SAMPLESTART:19.580;
#SAMPLELENGTH:19.200;
#SELECTABLE:YES;
#LISTSORT:;
#BPMS:0.000=50.000,8.000=100.000,24.000=200.000,148.000=100.000,149.000=200.000,151.000=100.000,152.000=200.000,182.000=100.000,183.000=200.000,213.000=100.000,214.000=200.000,244.000=100.000,245.000=200.000;
#STOPS:;
#BGCHANGES:;
#ATTACKS:;

//---------------dance-single - ----------------
#NOTES:
     dance-single:
     :
     Hard:
     9:
     0.703,0.986,0.831,0.158,0.089: // measure 1
0020
0000
0000
0000
0000
0000
0000
0000
0130
0000
0000
0000
0000
0000
0000
0000
0002
0000
0000
0000
0000
0000
0000
0000
1003
0000
0000
0010
0000
0000
1000
0000
,  // measure 2
0200
0000
0000
0000
0000
0000
0000
0000
0310
0000
0000
0000
0000
0000
0001
0000
2000
0000
0000
3010
0000
0000
0100
0000
0002
0000
0000
0013
0000
0000
0100
0000
,  // measure 3
1000
0010
1000
0000
0100
0000
0110
0000
0010
0001
0010
0000
0001
0000
1001
0000
,  // measure 4
0100
0000
0001
0000
0100
0000
0010
0000
1000
0000
0000
0000
0001
0000
1000
0000
0100
0010
0100
0000
1000
0000
0001
0000
0100
0000
0000
0000
0101
0000
0000
0000
,  // measure 5
0010
0000
0000
0000
1010
0000
0000
0000
1001
0000
0000
0000
1100
0000
0000
0000
0010
0001
0010
0000
0100
0000
1000
0000
0001
0000
0000
0000
0110
0000
0000
0000
,  // measure 6
0001
0101
1000
1100
0001
0101
1001
1100
,  // measure 7
0001
0010
0200
0000
1300
0000
0020
0100
,  // measure 8
0030
0100
0001
0100
0010
1000
0010
0000
,  // measure 9
1000
0100
0020
0000
0031
0000
0010
0200
,  // measure 10
0000
1300
0010
0000
1000
0000
0001
0000
,  // measure 11
0110
1000
1001
0101
,  // measure 12
0010
0000
1000
0010
0100
0010
1000
0000
,  // measure 13
0110
1000
1001
0101
,  // measure 14
0010
0000
0001
0100
0000
0001
0010
0100
,  // measure 15
1000
0010
0100
0001
0020
0000
0230
1000
,  // measure 16
0300
1000
0010
0100
0001
0000
0100
0000
,  // measure 17
0010
1000
0200
0000
0310
0000
0001
0020
,  // measure 18
0000
0031
0100
0010
1000
0000
0001
0000
,  // measure 19
0110
1000
1001
0110
,  // measure 20
1000
0000
0001
0010
0100
1000
0001
0000
,  // measure 21
0110
1000
1001
0110
,  // measure 22
0001
0000
1000
0001
0000
1000
0001
1000
,  // measure 23
0001
0100
0010
0000
0010
0100
0001
0000
,  // measure 24
1000
0100
0001
0000
0001
0100
1000
0001
,  // measure 25
1000
0010
0100
0000
0100
0010
1000
0000
,  // measure 26
0001
0010
0100
0000
0100
0010
0001
1000
,  // measure 27
0002
0000
0100
0000
1000
0000
0013
0100
,  // measure 28
1000
0000
1010
0000
0101
0000
1000
0001
,  // measure 29
1001
0001
0011
1000
,  // measure 30
1001
0110
0001
1010
,  // measure 31
0100
0001
0100
0000
0010
1000
0010
0000
,  // measure 32
1000
0100
0010
0001
1000
0001
0100
0010
,  // measure 33
1000
0100
1000
0000
0001
0010
0001
0000
,  // measure 34
0100
0001
1000
0100
0010
0001
1000
0001
,  // measure 35
0100
0010
0100
0000
0001
1000
0001
0000
,  // measure 36
1000
0001
0010
0100
1000
0010
0100
0000
,  // measure 37
0101
0010
1010
0100
,  // measure 38
1001
0000
0001
0000
1000
0000
1001
0010
,  // measure 39
0110
0000
0010
0001
0010
0000
0100
1000
,  // measure 40
0001
1000
0110
1001
,  // measure 41
1001
0000
1001
0000
1001
0000
0010
0001
,  // measure 42
0100
0000
0010
1000
0010
0100
0001
0000
,  // measure 43
1000
0100
0010
0100
1000
0000
0001
1000
,  // measure 44
0001
0100
0110
1001
,  // measure 45
1001
0000
1001
0000
0110
0000
0001
0010
,  // measure 46
0100
0010
0001
0000
1000
0010
1001
0000
,  // measure 47
0100
0001
1000
0000
0100
0000
0010
0100
,  // measure 48
1000
0110
1001
0110
,  // measure 49
0001
0000
0110
0000
1000
0001
0100
0000
,  // measure 50
0101
0000
1010
0000
0001
1000
0100
0000
,  // measure 51
0011
0000
1100
0000
1000
0001
0010
0000
,  // measure 52
0011
0000
1100
0000
0001
1000
0010
0000
,  // measure 53
0101
1010
1001
0110
,  // measure 54
0001
0000
0010
0001
0100
0000
0100
0001
,  // measure 55
0000
0001
1000
0000
0001
0010
0100
0000
,  // measure 56
0110
1001
1001
1001
,  // measure 57
1001
0000
1000
0010
0100
0010
1000
0000
,  // measure 58
0001
0100
0010
0000
1000
0000
0001
0010
,  // measure 59
0000
0010
0001
0000
1000
0001
0100
0000
,  // measure 60
0110
1001
1001
1001
,  // measure 61
0110
0000
1000
0001
0010
0000
0100
0000
,  // measure 62
0110
0001
0110
0000
1000
0100
0000
0100
,  // measure 63
1000
0000
0001
1000
0010
0000
0110
0000
,  // measure 64
1001
0110
0001
0110
,  // measure 65
0001
1000
0100
0010
0001
0000
0110
0000
,  // measure 66
0010
0001
0010
1000
0010
0000
0110
0000
,  // measure 67
0001
0100
1000
0100
0010
0000
0110
0000
,  // measure 68
0100
0001
0100
1000
0100
0000
1001
0000
,  // measure 69
1001
0110
0220
0330
;

//---------------dance-single - ----------------
#NOTES:
     dance-single:
     :
     Medium:
     7:
     0.534,0.612,0.564,0.237,0.020: // measure 1
2000
0000
3002
0000
0203
0000
0320
1000
,  // measure 2
0230
0000
0000
0000
0000
0000
0000
0000
0300
0000
0000
0000
0000
0000
0000
0000
0010
0000
0000
0010
0000
0000
0010
0000
0100
0000
0000
0100
0000
0000
0100
0000
,  // measure 3
0001
1000
0100
1000
0000
0100
0010
0001
,  // measure 4
1000
0010
1000
0100
0000
0010
0100
1000
,  // measure 5
0001
0100
0010
1000
0000
0001
0010
0001
,  // measure 6
1000
1001
0000
1001
0000
0001
1001
0000
,  // measure 7
0001
0010
0011
0100
,  // measure 8
1000
0000
0001
1000
0001
0000
0100
0000
,  // measure 9
0010
0000
1000
0001
1000
0000
0100
0000
,  // measure 10
0010
0100
1000
0001
,  // measure 11
1001
1001
1100
1100
,  // measure 12
1010
0000
1000
0010
0000
1000
0001
0000
,  // measure 13
0011
0011
1001
1001
,  // measure 14
0101
0000
0001
0010
0000
0001
1000
0000
,  // measure 15
0001
0010
0001
0000
1000
0000
0000
0000
,  // measure 16
0010
0000
0100
0000
0010
1000
0010
0000
,  // measure 17
0100
0001
0100
0000
0010
0000
0000
0000
,  // measure 18
1000
0000
0001
0000
1000
0010
1000
0000
,  // measure 19
0001
0101
1000
1100
,  // measure 20
1001
0000
0001
1000
0000
1000
0001
0000
,  // measure 21
1000
1010
0001
0011
,  // measure 22
1000
0000
1000
0001
0000
0001
1000
0000
,  // measure 23
0001
0001
0100
0100
,  // measure 24
0010
1010
0100
0101
,  // measure 25
1000
1000
0100
0100
,  // measure 26
0010
0011
0100
1100
,  // measure 27
2002
0000
3003
0001
,  // measure 28
1000
0001
0100
0010
,  // measure 29
2000
3100
0020
0031
,  // measure 30
0002
0203
0320
2030
,  // measure 31
3001
0000
0200
0000
0310
0000
1000
0100
,  // measure 32
1000
0000
0001
0100
0001
0000
1000
0000
,  // measure 33
0001
0000
0000
0000
0000
0000
0001
0010
,  // measure 34
0001
0000
1000
0010
1000
0000
0001
0000
,  // measure 35
1001
0000
0100
0010
,  // measure 36
1001
0000
0010
0100
,  // measure 37
1001
0010
0100
0010
,  // measure 38
2002
3003
1000
0000
0001
0000
2002
3003
,  // measure 39
0010
0000
1000
0100
0000
0000
1000
0000
,  // measure 40
0001
0100
0010
0110
,  // measure 41
1001
1001
1001
0000
,  // measure 42
0001
0010
0001
1000
,  // measure 43
0010
0000
0100
0001
0000
0000
1000
0000
,  // measure 44
0001
0010
0110
1001
,  // measure 45
1001
0110
0100
0000
,  // measure 46
0001
0000
1000
0000
2002
3003
0010
0000
,  // measure 47
0001
0100
0000
0000
0010
0000
1000
0000
,  // measure 48
0100
0010
0110
1000
,  // measure 49
1001
0000
0101
0000
0000
0100
0010
0000
,  // measure 50
1000
0000
0100
0000
0000
0010
0100
0000
,  // measure 51
1000
0000
0001
0000
0000
0100
0001
0000
,  // measure 52
1000
0100
0010
0001
,  // measure 53
1000
0001
1000
0000
1001
0000
0110
0000
,  // measure 54
0001
0000
2002
3003
0010
0000
0001
1000
,  // measure 55
0000
0010
0100
0001
,  // measure 56
0100
0110
1001
1001
,  // measure 57
1000
0000
0001
0010
0001
0000
1000
0000
,  // measure 58
0100
1000
0100
0000
0010
0000
0001
1000
,  // measure 59
0000
0010
0100
0001
,  // measure 60
0010
0110
1001
1001
,  // measure 61
0110
0000
0100
0010
,  // measure 62
2002
3003
0010
0000
0100
1000
0000
0000
,  // measure 63
0001
1000
0010
0100
,  // measure 64
0110
1000
1001
0110
,  // measure 65
0000
0010
0001
0000
1000
0000
0001
0000
,  // measure 66
0000
0100
0001
0000
1000
0000
0010
0000
,  // measure 67
0000
1000
0100
0000
0010
0000
0001
0000
,  // measure 68
1000
0001
1000
0000
0010
0000
1000
0000
,  // measure 69
1001
0001
1001
0100
;

//---------------dance-single - ----------------
#NOTES:
     dance-single:
     :
     Beginner:
     2:
     0.114,0.203,0.020,0.000,0.000: // measure 1
0000
0000
0000
0000
,  // measure 2
0000
0000
0000
0000
,  // measure 3
0001
0000
0000
0000
,  // measure 4
1000
0000
0000
0000
,  // measure 5
0001
0000
0000
0000
,  // measure 6
1000
0000
0000
0000
,  // measure 7
0010
0000
0000
0000
,  // measure 8
0100
0000
0000
0000
,  // measure 9
0001
0000
0000
0000
,  // measure 10
0010
0000
0000
0000
,  // measure 11
0100
0000
0000
0000
,  // measure 12
0000
0000
0000
0000
,  // measure 13
0100
0000
0000
0000
,  // measure 14
0000
0000
0000
0000
,  // measure 15
1000
0000
0000
0000
,  // measure 16
0010
0000
0000
0000
,  // measure 17
0100
0000
0000
0000
,  // measure 18
0010
0000
0000
0000
,  // measure 19
1000
0000
0000
0000
,  // measure 20
0000
0000
0000
0000
,  // measure 21
1000
0000
0000
0000
,  // measure 22
0000
0000
0000
0000
,  // measure 23
0001
0000
0000
0000
,  // measure 24
1000
0000
0000
0000
,  // measure 25
0001
0000
0000
0000
,  // measure 26
1000
0000
0000
0000
,  // measure 27
1001
0000
0000
0000
,  // measure 28
0000
0000
0000
0000
,  // measure 29
0010
0000
0000
0000
,  // measure 30
0100
0000
0000
0000
,  // measure 31
1000
0000
0000
0000
,  // measure 32
0001
0000
0000
0000
,  // measure 33
1000
0000
0000
0000
,  // measure 34
0001
0000
0000
0000
,  // measure 35
1001
0000
0000
0000
,  // measure 36
0000
0000
0000
0000
,  // measure 37
0100
0000
0000
0000
,  // measure 38
0010
0000
0000
0000
,  // measure 39
0000
0000
0000
0000
,  // measure 40
1000
0000
0001
0001
,  // measure 41
0001
0001
0001
0000
,  // measure 42
0000
0000
0100
0000
,  // measure 43
0000
0000
0010
0000
,  // measure 44
0000
0000
1000
1000
,  // measure 45
1000
1000
1000
0000
,  // measure 46
0000
0000
0100
0000
,  // measure 47
0000
0000
0000
0000
,  // measure 48
0000
0010
0010
0010
,  // measure 49
0010
0010
0000
0000
,  // measure 50
0000
0100
0000
0000
,  // measure 51
0000
1000
0000
0000
,  // measure 52
0000
0001
0000
0000
,  // measure 53
0000
0100
0000
0000
,  // measure 54
0000
0010
0000
0000
,  // measure 55
0000
0000
0000
0000
,  // measure 56
0100
0100
0100
0100
,  // measure 57
0100
0000
0000
0000
,  // measure 58
0001
0000
0000
0000
,  // measure 59
1000
0000
0000
0000
,  // measure 60
0010
0010
0010
0010
,  // measure 61
0010
0000
0000
0000
,  // measure 62
1000
0000
0000
0001
,  // measure 63
0000
0000
0000
1000
,  // measure 64
1000
1000
1000
1000
,  // measure 65
0000
0000
0000
0100
,  // measure 66
0000
0000
0000
0010
,  // measure 67
0000
0000
0000
0001
,  // measure 68
0000
0000
0000
0001
,  // measure 69
0001
0001
0000
0000
;

//---------------dance-single - ----------------
#NOTES:
     dance-single:
     :
     Easy:
     4:
     0.348,0.340,0.069,0.109,0.000: // measure 1
0001
1000
0010
0100
,  // measure 2
0001
0010
0100
1000
,  // measure 3
0001
0100
0010
0100
,  // measure 4
0001
1000
0100
0010
,  // measure 5
0100
1000
0010
0100
,  // measure 6
0001
0001
1000
1000
,  // measure 7
0001
0100
0010
0000
,  // measure 8
1000
0001
0010
0001
,  // measure 9
1000
0100
0010
0000
,  // measure 10
0100
1000
0001
1000
,  // measure 11
0010
0010
0100
0100
,  // measure 12
0002
0000
0000
0003
,  // measure 13
1000
1000
0001
0001
,  // measure 14
0020
0000
0000
0030
,  // measure 15
0100
0000
1000
0000
,  // measure 16
0001
0100
0010
1000
,  // measure 17
0100
0000
0010
0000
,  // measure 18
0100
1000
0001
0100
,  // measure 19
0001
0001
1000
1000
,  // measure 20
0200
0000
0000
0300
,  // measure 21
0010
0010
0100
0100
,  // measure 22
2000
0000
0000
3000
,  // measure 23
0001
0100
0000
0010
,  // measure 24
0000
1000
0100
1000
,  // measure 25
0001
0100
0000
0010
,  // measure 26
0000
1000
0001
0010
,  // measure 27
0001
0000
0100
0010
,  // measure 28
1000
0000
0100
0010
,  // measure 29
0001
0001
1000
1000
,  // measure 30
0010
0100
0001
1000
,  // measure 31
0000
0100
0010
0000
,  // measure 32
0001
0010
0100
1000
,  // measure 33
0001
0000
0100
0010
,  // measure 34
1000
0010
0100
0001
,  // measure 35
1000
0000
0001
0010
,  // measure 36
0100
0000
1000
0010
,  // measure 37
0100
0100
0010
1000
,  // measure 38
0002
0003
0000
2000
,  // measure 39
3000
0000
0001
0100
,  // measure 40
0010
1000
0100
0100
,  // measure 41
0010
0010
0110
0000
,  // measure 42
0001
1000
0010
1000
,  // measure 43
0100
0010
0001
1000
,  // measure 44
0010
0100
0001
0001
,  // measure 45
1000
1000
1001
0000
,  // measure 46
1000
0001
2000
3000
,  // measure 47
0000
0001
0100
0010
,  // measure 48
1000
0001
0001
1000
,  // measure 49
1000
1001
0000
1000
,  // measure 50
0100
0010
0000
0001
,  // measure 51
0100
0010
0000
1000
,  // measure 52
0100
0010
0001
0001
,  // measure 53
0010
1000
1000
0001
,  // measure 54
0001
2000
3010
0100
,  // measure 55
0001
1000
0001
1000
,  // measure 56
0010
0010
0100
0100
,  // measure 57
0110
0000
1000
0001
,  // measure 58
0100
0010
1000
0001
,  // measure 59
0010
0100
0010
0001
,  // measure 60
1000
1000
0001
0001
,  // measure 61
1001
0000
0001
0100
,  // measure 62
0002
0003
0000
1000
,  // measure 63
0010
0100
0001
0010
,  // measure 64
0010
0100
0100
0110
,  // measure 65
0000
0010
0001
1000
,  // measure 66
0000
0010
1000
0001
,  // measure 67
0000
0010
0001
1000
,  // measure 68
0010
1000
0001
0100
,  // measure 69
0100
0010
0220
0330
;
