#TITLE:Feel So Close;
#SUBTITLE:;
#ARTIST:Calvin Harris;
#TITLETRANSLIT:;
#SUBTITLETRANSLIT:;
#ARTISTTRANSLIT:;
#GENRE:;
#CREDIT:;
#BANNER:Feel So Close-banner.png;
#BACKGROUND:Feel So Close-bg.png;
#LYRICSPATH:;
#CDTITLE:cdtitle.png;
#MUSIC:Feel So Close.mp3;
#OFFSET:0.000;
#SAMPLESTART:45.040;
#SAMPLELENGTH:12.000;
#SELECTABLE:YES;
#DISPLAYBPM:128.000;
#BPMS:0.000=127.980
,215.000=128.980
,216.000=127.980
;
#STOPS:79.500=0.029
;
#BGCHANGES:;
#KEYSOUNDS:;
#ATTACKS:;

//---------------dance-single - Rygon----------------
#NOTES:
     dance-single:
     :
     Hard:
     7:
     0.378,0.403,0.168,0.406,0.000,296.000,24.000,58.000,0.000,0.000,0.000,0.378,0.403,0.168,0.406,0.000,296.000,24.000,58.000,0.000,0.000,0.000:
0000
0000
0000
0000
,
0000
0000
0000
0000
,
0000
0000
0000
0000
,
0000
0000
0000
0000
,
0000
0000
0000
0000
,
0000
0000
0000
0000
,
0000
0000
0000
0000
,
0000
0000
0000
0000
,
0001
0100
2000
0000
0000
0000
3100
0000
,
0001
0010
0200
0000
0000
0000
1300
0000
,
1000
0010
0002
0000
0000
0000
0013
0000
,
1000
0100
0020
0000
0000
0000
0031
0000
,
0100
0010
2000
0000
3000
0000
1001
0000
,
0100
0010
0002
0000
0003
0000
1001
0000
,
1000
0100
0002
0000
0003
0000
1100
0000
,
0010
0001
0200
0000
0000
0000
0000
0000
,
0310
0100
0000
0100
0010
1000
0000
0001
,
1000
0001
0000
0001
1000
0010
0000
0100
,
0010
0100
0000
0100
0001
1000
0000
0001
,
0010
0100
0000
0100
1000
0100
0000
1000
,
0002
1000
2003
0001
,
3002
0010
0023
0100
,
0130
1000
0100
0000
1000
0001
1000
0000
,
0010
0100
0010
1000
0001
0010
0011
0000
,
0002
0000
0203
0000
0310
1000
0100
0000
,
0010
0001
0100
1000
,
0020
0000
0230
0000
1300
0001
1001
0000
,
1000
0100
0001
0010
,
2000
0000
3200
0000
0310
0001
0100
0000
,
0001
0010
1000
0100
,
0002
0000
0023
0000
0130
1000
1010
0000
,
0010
0001
0100
1000
,
0020
0000
0230
0000
0301
0010
0110
0100
,
1000
0010
0001
0100
,
2000
0000
3200
0000
0310
0001
0101
0100
,
0010
1000
0100
0001
,
0020
0000
2030
0000
3100
1000
1010
0010
,
0100
0001
0010
1000
,
0200
0000
0302
0000
0013
0100
1100
1000
,
0010
1000
0100
0001
,
0020
0000
1030
0001
,
1100
0000
1000
0100
0000
0010
0000
0012
,
0000
0000
1003
0001
2000
0000
0010
0000
,
0100
3002
0010
1000
,
0203
0000
0310
1000
,
1100
0000
0100
0001
0000
0101
0000
2100
,
0000
0000
3010
1000
0020
0000
0100
0000
,
0001
2030
0100
3001
,
0020
0000
0031
0100
,
0110
0000
0010
1000
0000
0001
0000
1002
,
0000
0000
0103
0001
0200
0000
0320
0000
,
1000
0230
0001
0320
,
0000
1030
0000
1000
,
0000
0001
0000
0001
,
1000
0100
1000
0100
0010
0001
0010
0001
,
0100
0010
0100
0010
1000
0010
1010
0000
,
2000
0000
3020
0000
0130
0001
0010
0000
,
0100
1000
0010
0001
,
0200
0000
0320
0000
0031
1000
1001
0000
,
0001
0010
1000
0100
,
0002
0000
0023
0000
0130
1000
0010
0000
,
1000
0100
0001
0010
,
2000
0000
3200
0000
0310
0001
0101
0000
,
0100
1000
0010
0001
,
0200
0000
0320
0000
1030
0100
0110
0010
,
0001
0100
1000
0010
,
0002
0000
0023
0000
0130
1000
1010
0010
,
0100
0001
0010
1000
,
0200
0000
0302
0000
0013
0001
0101
0100
,
0010
1000
0100
0001
,
0020
0000
2030
0000
3100
0010
0011
0001
,
0100
0001
0010
1000
,
0100
0000
0000
0000
;

//---------------dance-single - Rygon----------------
#NOTES:
     dance-single:
     :
     Medium:
     4:
     0.225,0.204,0.091,0.035,0.000,207.000,13.000,5.000,0.000,0.000,0.000,0.225,0.204,0.091,0.035,0.000,207.000,13.000,5.000,0.000,0.000,0.000:
0000
0000
0000
0000
,
0000
0000
0000
0000
,
0000
0000
0000
0000
,
0000
0000
0000
0000
,
0000
0000
0000
0000
,
0000
0000
0000
0000
,
0000
0000
0000
0000
,
0000
0000
0000
0000
,
0000
1000
0000
1000
,
0000
0001
0000
0001
,
0000
0010
0000
0010
,
0000
0100
0000
0100
,
1000
0001
0000
0001
,
0100
0010
0000
0010
,
1000
0100
0000
0100
,
0010
0001
0000
0001
,
1000
1000
0001
0001
,
0100
0010
0010
0000
,
0100
0100
0001
0001
,
1000
0100
0100
0000
,
0010
0001
0010
0001
,
1000
0001
1000
0001
,
1000
0010
1000
0010
,
0100
0000
0110
0000
,
0010
0010
1000
0000
,
0100
0000
0010
0100
0010
0000
0000
0000
,
0001
0001
0100
0000
,
0010
0000
1000
0001
1000
0000
0000
0000
,
0001
0001
1000
0000
,
0100
0000
0010
0001
0010
0000
0000
0000
,
0001
0001
1000
0000
,
0010
0000
0100
0010
0100
0000
0000
0000
,
0001
1000
1001
0000
,
1000
0000
0001
1000
0001
0000
0000
0000
,
1000
0010
0110
0000
,
0100
0000
0010
0100
0010
0000
0000
0000
,
0100
0001
0011
0000
,
0010
0000
0100
1000
0100
0000
0000
0000
,
1000
0010
1010
0000
,
0010
0000
0100
0001
1000
0000
0000
0000
,
0002
0000
1003
0000
,
1000
0100
0001
0000
,
0002
0000
1003
0000
,
0001
0100
1000
0000
,
0002
0000
1003
0000
,
1000
0010
0001
0000
,
0002
0000
1003
0000
,
0001
0010
1000
0000
,
0100
0010
0100
1000
,
0001
0001
1000
0000
,
0010
0100
0001
1000
,
0100
0100
1000
0000
,
0000
1001
0000
1001
,
0000
0110
0000
0110
,
0010
0010
1000
1000
,
0100
0100
0010
0010
,
0010
0010
0001
0000
,
0100
0000
0010
0100
0010
0000
0000
0000
,
1000
1000
0100
0000
,
0010
0000
0001
1000
0001
0000
0000
0000
,
1000
1000
0001
0000
,
0100
0000
0010
1000
0010
0000
0000
0000
,
1000
1000
0001
0000
,
0010
0000
0100
0010
0100
0000
0000
0000
,
1000
0001
1001
0000
,
0001
0000
1000
0001
1000
0000
0000
0000
,
0001
0010
0110
0000
,
0100
0000
0010
0100
0010
0000
0000
0000
,
0100
1000
1010
0000
,
0010
0000
0100
0001
0100
0000
0000
0000
,
0001
0010
0011
0000
,
0010
0000
0100
1000
0001
0000
0000
0000
,
2000
0000
0000
0000
,
3000
0000
0000
0000
;

//---------------dance-single - Rygon----------------
#NOTES:
     dance-single:
     :
     Easy:
     2:
     0.128,0.152,0.112,0.042,0.000,106.000,16.000,6.000,0.000,0.000,0.000,0.128,0.152,0.112,0.042,0.000,106.000,16.000,6.000,0.000,0.000,0.000:
0000
0000
0000
0000
,
0000
0000
0000
0000
,
0000
0000
0000
0000
,
0000
0000
0000
0000
,
0000
0000
0000
0000
,
0000
0000
0000
0000
,
0000
0000
0000
0000
,
0000
0000
0000
0000
,
1000
0000
0000
0000
,
0001
0000
0000
0000
,
0100
0000
0000
0000
,
0001
0000
0000
0000
,
0000
1000
0000
1000
,
0000
0001
0000
0001
,
0000
0010
0000
0010
,
0000
0100
0000
0100
,
0100
0000
0000
0000
,
0010
0000
0010
0000
,
0001
0000
0000
0000
,
1000
0000
1000
0000
,
0001
0001
0001
0000
,
1000
1000
1000
0000
,
0010
0010
0010
0000
,
0100
0100
0100
0000
,
0001
0000
0001
0000
,
1001
0000
0000
0000
,
1000
0000
1000
0000
,
1001
0000
0000
0000
,
0010
0000
0010
0000
,
0110
0000
0000
0000
,
0100
0000
0100
0000
,
0110
0000
0000
0000
,
0001
0000
0010
0000
,
1100
0000
0000
0000
,
1000
0000
0010
0000
,
0101
0000
0000
0000
,
1000
0000
0100
0000
,
0011
0000
0000
0000
,
0001
0000
0100
0000
,
1010
0000
0000
0000
,
2000
0000
3000
0000
,
0001
0000
0001
0000
,
0200
0000
0300
0000
,
0010
0000
0100
0000
,
0020
0000
0030
0000
,
0100
0000
0100
0000
,
0002
0000
0003
0000
,
0010
0000
0010
0000
,
0000
0100
0000
0100
,
0000
0010
0000
0010
,
0000
0001
0000
0001
,
0000
1000
0000
1000
,
0020
0000
0000
0000
,
0030
0000
0000
0000
,
1000
1000
1000
0000
,
0001
0001
0001
0000
,
1000
0000
1000
0000
,
1001
0000
0000
0000
,
0001
0000
0001
0000
,
1001
0000
0000
0000
,
0100
0000
0100
0000
,
0110
0000
0000
0000
,
0010
0000
0010
0000
,
0110
0000
0000
0000
,
1000
0000
0100
0000
,
0011
0000
0000
0000
,
0001
0000
0100
0000
,
1010
0000
0000
0000
,
0001
0000
0010
0000
,
1100
0000
0000
0000
,
1000
0000
0010
0000
,
0101
0000
0000
0000
,
2000
0000
3000
0000
;

//---------------dance-single - Rygon----------------
#NOTES:
     dance-single:
     :
     Beginner:
     1:
     0.098,0.101,0.000,0.007,0.000,97.000,0.000,1.000,0.000,0.000,0.000,0.098,0.101,0.000,0.007,0.000,97.000,0.000,1.000,0.000,0.000,0.000: // measure 0
0000
0000
0000
0000
,  // measure 1
0000
0000
0000
0000
,  // measure 2
0000
0000
0000
0000
,  // measure 3
0000
0000
0000
0000
,  // measure 4
0000
0000
0000
0000
,  // measure 5
0000
0000
0000
0000
,  // measure 6
0000
0000
0000
0000
,  // measure 7
0000
0000
0000
0000
,  // measure 8
0010
0000
0000
0000
,  // measure 9
1000
0000
0000
0000
,  // measure 10
0100
0000
0000
0000
,  // measure 11
0001
0000
0000
0000
,  // measure 12
0010
0000
0000
0000
,  // measure 13
1000
0000
0000
0000
,  // measure 14
0100
0000
0000
0000
,  // measure 15
0001
0000
0000
0000
,  // measure 16
1000
0000
0000
0000
,  // measure 17
0000
0000
0000
0000
,  // measure 18
0001
0000
0000
0000
,  // measure 19
0000
0000
0000
0000
,  // measure 20
0100
0000
0100
0000
,  // measure 21
0100
0000
0000
0000
,  // measure 22
0000
0000
0000
0000
,  // measure 23
0010
0000
0010
0000
,  // measure 24
1000
0000
0000
0000
,  // measure 25
0001
0001
0001
0000
,  // measure 26
0001
0000
0000
0000
,  // measure 27
1000
1000
1000
0000
,  // measure 28
0010
0000
0000
0000
,  // measure 29
0100
0100
0100
0000
,  // measure 30
0100
0000
0000
0000
,  // measure 31
0010
0010
0010
0000
,  // measure 32
1000
0000
0000
0000
,  // measure 33
0100
0100
0100
0000
,  // measure 34
0010
0000
0000
0000
,  // measure 35
0001
0001
0001
0000
,  // measure 36
0001
0000
0000
0000
,  // measure 37
0100
0100
0100
0000
,  // measure 38
0010
0000
0000
0000
,  // measure 39
1000
1000
1000
0000
,  // measure 40
0010
0000
0000
0000
,  // measure 41
1000
0000
0000
0000
,  // measure 42
0100
0000
0000
0000
,  // measure 43
0001
0000
0000
0000
,  // measure 44
0010
0000
0000
0000
,  // measure 45
1000
0000
0000
0000
,  // measure 46
0100
0000
0000
0000
,  // measure 47
0001
0000
0000
0000
,  // measure 48
1000
0000
0000
0000
,  // measure 49
1000
0000
0000
0000
,  // measure 50
0001
0000
0000
0000
,  // measure 51
0001
0000
0000
0000
,  // measure 52
0100
0000
0000
0000
,  // measure 53
0100
0000
0000
0000
,  // measure 54
0010
0000
0010
0000
,  // measure 55
0010
0000
0000
0000
,  // measure 56
1000
0000
0000
0000
,  // measure 57
0001
0001
0001
0000
,  // measure 58
0001
0000
0000
0000
,  // measure 59
1000
1000
1000
0000
,  // measure 60
0010
0000
0000
0000
,  // measure 61
0100
0100
0100
0000
,  // measure 62
0100
0000
0000
0000
,  // measure 63
0010
0010
0010
0000
,  // measure 64
1000
0000
0000
0000
,  // measure 65
0100
0100
0100
0000
,  // measure 66
0010
0000
0000
0000
,  // measure 67
0001
0001
0001
0000
,  // measure 68
0001
0000
0000
0000
,  // measure 69
0100
0100
0100
0000
,  // measure 70
0010
0000
0000
0000
,  // measure 71
1000
1000
1000
0000
,  // measure 72
0002
0000
0003
0000
;
