#TITLE:Feel So Close;
#SUBTITLE:(Nero Remix);
#ARTIST:Calvin Harris;
#TITLETRANSLIT:;
#SUBTITLETRANSLIT:;
#ARTISTTRANSLIT:;
#GENRE:;
#CREDIT:;
#BANNER:Feel So Close (Nero Remix)-banner.png;
#BACKGROUND:Feel So Close (Nero Remix)-bg.png;
#LYRICSPATH:;
#CDTITLE:cdtitle.png;
#MUSIC:Feel So Close (Nero Remix).mp3;
#OFFSET:-0.020;
#SAMPLESTART:54.860;
#SAMPLELENGTH:12.000;
#SELECTABLE:YES;
#BPMS:0.000=140.000
,64.000=70.000
,96.000=280.000
,352.000=140.019
;
#STOPS:
;
#BGCHANGES:;
#KEYSOUNDS:;
#ATTACKS:;

//---------------dance-single - Rygon----------------
#NOTES:
     dance-single:
     :
     Hard:
     9:
     0.563,0.859,0.382,0.539,0.124,364.000,46.000,65.000,0.000,0.000,0.000,0.563,0.859,0.382,0.539,0.124,364.000,46.000,65.000,0.000,0.000,0.000:
0000
0000
0000
0000
,
0000
0000
0000
0000
,
0000
0000
0000
0000
,
0000
0000
0000
0000
,
0000
0000
0000
0000
,
0000
0000
0000
0000
,
0000
0000
0000
0000
,
0000
0000
0000
0000
,
1000
0000
0000
0100
0000
0000
0010
0000
0002
0000
0000
0000
0000
0000
0000
0000
,
0103
0000
0000
0000
0000
0000
0100
0010
1000
0000
0000
0000
0000
0000
0000
0000
,
0001
0000
0000
0100
0000
0000
0010
0000
2000
0000
0000
0000
0000
0000
0000
0000
,
3100
0000
0000
0010
1001
0000
0000
0000
,
1000
0000
0000
0010
0000
0000
0100
0000
0002
0000
0000
0000
0000
0000
0000
0000
,
0013
0000
0000
0000
0000
0000
0010
0100
1000
0000
0000
0000
0000
0000
0000
0000
,
0001
0000
0000
0010
0000
0000
0100
0000
2000
0000
0000
0000
0000
0000
0000
0000
,
3010
0000
0000
0100
1001
0000
0000
0000
,
1000
0000
0000
0001
0000
0000
0201
0000
0000
0000
0000
0010
0000
0000
0310
0000
,
1000
0000
0000
0100
0000
0000
0011
0000
0002
0000
0000
0100
0000
0000
0103
0000
,
0010
0000
0000
1000
0000
0000
0100
0000
0021
0000
0000
0100
0000
0000
0130
0000
,
0010
0000
0000
0001
0000
0000
0100
0000
1020
0000
0000
0001
0000
0000
1030
0000
,
0100
0000
0010
0001
0010
0000
0100
0000
1100
0000
1000
0010
0000
0110
0000
1001
,
0000
1000
0100
0010
0001
0100
0020
0000
1000
0000
0000
0100
0000
0000
1030
0000
,
0010
0000
0100
0001
0100
0000
0010
0000
1010
0000
1000
0100
0000
0110
0000
1001
,
0000
1000
0010
0100
0001
0010
0200
0000
1000
0000
0000
0010
0000
0000
1300
0000
,
0001
0000
0000
0100
0000
0000
0010
0000
,
2001
0000
0001
3002
,
1000
0000
2003
0000
0100
0000
3100
0010
,
0002
0000
2003
0000
,
3001
0100
0010
1000
0200
0000
0000
0000
,
0310
0000
0000
0001
0010
0100
1000
0000
,
0001
0100
0010
1000
0002
0000
0000
0000
,
0013
0000
0100
1000
0010
0100
0001
0000
,
1000
0000
0000
0100
0000
0000
0010
0000
,
1002
0000
1000
2003
,
0001
0000
3002
0000
0100
0000
0103
0010
,
2000
0000
3002
0000
,
1003
0100
0010
0001
0200
0000
0000
0000
,
0310
0000
0000
1000
0010
0100
0001
0000
,
1000
0100
0010
0001
2000
0000
0000
0000
,
3010
0000
0100
0001
0010
0100
1000
0000
,
0100
0000
0000
0011
0000
0000
1010
0000
,
2001
0000
3002
1000
,
2003
0000
0100
0000
3200
0000
0310
0001
,
2000
0000
3002
0000
,
1003
0100
0010
0100
2000
0000
0000
0000
,
3001
0000
0000
0100
0001
0010
0100
0000
,
0010
0001
0100
0010
0200
0000
0000
0000
,
0301
0000
0010
0001
0010
0100
1000
0000
,
0010
0000
0000
0101
0000
0000
1100
0000
,
1002
0000
2003
0001
,
3002
0000
0100
0000
0203
0000
0310
1000
,
0002
0000
2003
0000
,
3001
0100
0010
0100
0002
0000
0000
0000
,
1003
0000
0000
0100
1000
0010
0100
0000
,
0010
1000
0100
0010
0200
0000
0000
0000
,
1300
0000
0010
1000
0010
0100
0001
0000
,
0011
0000
0000
1100
0000
0000
1010
0000
,
0102
0000
0023
0230
,
2300
0000
3002
0000
0203
0000
0310
0100
,
0010
0000
1001
0000
,
1000
0100
0001
0100
2000
0000
0000
0000
,
3002
0000
0000
0103
0001
0010
0100
0000
,
1000
0100
0010
0100
0002
0000
0000
0000
,
0203
0000
1300
0010
0100
0001
1000
0000
,
0101
0000
0000
1010
0000
0000
1100
0000
,
0012
0000
0203
0320
,
2030
0000
3002
0000
0023
0000
0130
0010
,
0100
0000
1001
0000
,
1000
0010
0001
0010
2000
0000
0000
0000
,
3002
0000
0000
0013
0001
0100
0010
0000
,
1000
0010
0100
0010
0002
0000
0000
0000
,
0023
0000
1030
0100
0010
0001
1000
0000
,
1100
0000
0000
0011
0000
0000
0101
0000
,
1010
0000
0110
0100
,
0101
0000
0001
0000
0011
0000
0010
0100
,
0010
0000
1001
0000
,
1000
0100
0010
0100
0002
0000
0000
0000
,
0103
0000
0000
1000
0010
0001
0010
0000
,
0100
0001
0010
1000
0020
0000
0000
0000
,
0031
0000
0100
0010
1000
0001
1000
0000
,
1010
0000
0000
0101
0000
0000
0011
0000
,
1100
0000
0110
0010
,
0011
0000
0001
0000
0101
0000
0100
0010
,
0100
0000
1001
0000
,
1000
0010
0100
0010
0002
0000
0000
0000
,
0013
0000
0000
1000
0100
0001
0100
0000
,
0010
0001
0100
1000
0200
0000
0000
0000
,
0301
0000
0010
0100
1000
0001
1000
0000
,
0002
0000
0000
0000
,
0000
0000
0000
0000
,
0003
0000
0000
0000
;

//---------------dance-single - Rygon----------------
#NOTES:
     dance-single:
     :
     Medium:
     7:
     0.319,0.591,0.174,0.274,0.029,215.000,21.000,33.000,0.000,0.000,0.000,0.319,0.591,0.174,0.274,0.029,215.000,21.000,33.000,0.000,0.000,0.000:
0000
0000
0000
0000
,
0000
0000
0000
0000
,
0000
0000
0000
0000
,
0000
0000
0000
0000
,
0000
0000
0000
0000
,
0000
0000
0000
0000
,
0000
0000
0000
0000
,
0000
0000
0000
0000
,
0010
0000
0000
0100
1000
0000
0000
0000
,
0001
1000
2001
0000
,
3010
0000
0000
0100
0001
0000
0000
0000
,
1000
0001
1001
0000
,
1000
0000
0000
0001
0100
0000
0000
0000
,
0010
0100
2001
0000
,
3001
0000
0000
1000
0100
0000
0000
0000
,
0010
0100
1002
0000
,
1003
0000
0000
0000
0000
0000
0000
0000
0010
0000
0000
0010
0000
0000
0010
0000
,
0100
0000
0000
0001
0000
0000
1000
0000
0100
0000
0000
0010
0000
0000
0001
0000
,
1000
0000
0000
0100
0000
0000
0010
0000
0100
0000
0000
1000
0000
0000
0001
0000
,
0100
0000
0000
0010
0000
0000
0100
0000
0001
0000
0000
1000
0000
0000
0100
0000
,
0010
0001
0101
0000
0100
0010
0110
0000
,
0010
1000
1010
0000
1000
0100
1100
0000
,
0100
0010
0011
0000
0100
0010
1010
0000
,
0010
0100
0101
0000
0010
0100
1100
0000
,
1000
0000
0000
2000
,
0002
0000
3000
0000
,
0103
0000
0010
0000
,
1001
0000
0000
0000
,
1000
0100
0020
0000
,
0030
0001
0010
0100
,
1000
0001
0200
0000
,
0000
0310
0100
0001
,
1000
0000
0000
2000
,
0002
0000
3000
0000
,
0013
0000
0100
0000
,
1001
0000
0000
0000
,
1000
0010
0200
0000
,
0300
0001
0100
0010
,
1000
0001
0020
0000
,
0000
0130
0010
0001
,
0100
0000
0000
0200
,
0020
0000
0300
0000
,
1030
0000
0001
0000
,
0110
0000
0000
0000
,
0100
0001
2000
0000
,
3000
0010
1000
0001
,
0100
0010
2000
0000
,
0000
3001
1000
0010
,
0100
0000
0000
0020
,
0200
0000
0030
0000
,
0301
0000
1000
0000
,
0110
0000
0000
0000
,
0100
0001
2000
0000
,
3000
0010
1000
0001
,
0100
0010
0002
0000
,
0000
1003
0001
0010
,
1000
0000
0000
0001
0000
0000
0010
0000
,
0200
0000
0000
0000
,
1300
0100
0010
0000
,
1001
0000
0000
0000
,
0001
0010
0000
0010
0200
0000
0000
0000
,
0000
0000
1300
0000
,
1000
0010
0000
0010
0200
0000
0000
0000
,
0000
0000
0301
0000
,
0001
0000
0000
1000
0000
0000
0010
0000
,
0200
0000
0000
0000
,
0301
0100
0010
0000
,
1001
0000
0000
0000
,
1000
0010
0000
0010
0200
0000
0000
0000
,
0000
0000
0301
0000
,
0001
0010
0000
0010
0200
0000
0000
0000
,
0000
0000
1300
0000
,
1000
0000
0000
0001
0000
0000
0100
0000
,
0020
0000
0000
0000
,
1030
0010
0100
0000
,
1001
0000
0000
0000
,
0001
0100
0000
0100
0020
0000
0000
0000
,
0000
0000
1030
0000
,
1000
0100
0000
0100
0020
0000
0000
0000
,
0000
0000
0031
0000
,
0001
0000
0000
1000
0000
0000
0100
0000
,
0020
0000
0000
0000
,
0031
0010
0100
0000
,
1001
0000
0000
0000
,
1000
0100
0000
0100
0020
0000
0000
0000
,
0000
0000
0031
0000
,
0001
0100
0000
0100
0020
0000
0000
0000
,
0000
0000
1030
0000
,
2002
0000
0000
0000
,
3003
0000
0000
0000
;

//---------------dance-single - Rygon----------------
#NOTES:
     dance-single:
     :
     Easy:
     5:
     0.239,0.294,0.075,0.249,0.000,163.000,9.000,30.000,0.000,0.000,0.000,0.239,0.294,0.075,0.249,0.000,163.000,9.000,30.000,0.000,0.000,0.000:
0000
0000
0000
0000
,
0000
0000
0000
0000
,
0000
0000
0000
0000
,
0000
0000
0000
0000
,
0000
0000
0000
0000
,
0000
0000
0000
0000
,
0000
0000
0000
0000
,
0000
0000
0000
0000
,
0001
0000
0000
1000
0001
0000
0000
0000
,
0200
0000
0310
0000
,
1000
0000
0000
1000
0001
0000
0000
0000
,
0200
0000
0310
0000
,
1000
0000
0000
0100
0010
0000
0000
0000
,
0002
1000
1003
0000
,
0001
0000
0000
0100
0010
0000
0000
0000
,
2000
0001
3001
0000
,
1000
0000
0100
0010
,
0001
0000
0100
0010
,
1000
0000
0010
0100
,
0001
0000
0010
0100
,
1000
0001
1000
0001
,
0100
0010
0100
0010
,
1000
0100
0010
0001
,
0010
0100
1000
0001
,
1000
0000
0000
0000
,
0002
0000
0000
0000
,
0103
0000
0100
0000
,
0110
0000
0000
0000
,
0010
1000
0020
0000
,
0000
0000
1030
0000
,
0001
1000
0002
0000
,
0000
0000
1003
0000
,
0001
0000
0000
0000
,
2000
0000
0000
0000
,
3100
0000
0100
0000
,
0110
0000
0000
0000
,
0010
0001
0020
0000
,
0000
0000
0031
0000
,
1000
0001
2000
0000
,
0000
0000
3001
0000
,
1000
0000
0000
0000
,
0002
0000
0000
0000
,
0013
0000
0010
0000
,
0110
0000
0000
0000
,
0100
1000
0200
0000
,
0000
0000
1300
0000
,
0001
1000
0002
0000
,
0000
0000
1003
0000
,
0001
0000
0000
0000
,
2000
0000
0000
0000
,
3010
0000
0010
0000
,
0110
0000
0000
0000
,
0100
0001
0200
0000
,
0000
0000
0301
0000
,
1000
0001
2000
0000
,
0000
0000
3001
0000
,
1000
0000
0000
0100
,
0020
0000
0000
0000
,
0031
0000
1000
0000
,
1001
0000
0000
0000
,
0001
1000
0002
0000
,
0000
0000
0013
0100
,
1000
0100
2000
0000
,
0000
0000
3001
0000
,
0001
0000
0000
0100
,
0020
0000
0000
0000
,
1030
0000
0001
0000
,
1001
0000
0000
0000
,
1000
0001
2000
0000
,
0000
0000
3010
0100
,
0001
0100
0002
0000
,
0000
0000
1003
0000
,
1000
0000
0000
0010
,
0200
0000
0000
0000
,
0301
0000
1000
0000
,
1001
0000
0000
0000
,
0001
1000
0002
0000
,
0000
0000
0103
0010
,
1000
0010
2000
0000
,
0000
0000
3001
0000
,
0001
0000
0000
0010
,
0200
0000
0000
0000
,
1300
0000
0001
0000
,
1001
0000
0000
0000
,
1000
0001
2000
0000
,
0000
0000
3100
0010
,
0001
0010
0002
0000
,
0000
0000
1003
0000
,
2002
0000
3003
0000
;

//---------------dance-single - Rygon----------------
#NOTES:
     dance-single:
     :
     Beginner:
     3:
     0.143,0.146,0.000,0.133,0.000,105.000,0.000,16.000,0.000,0.000,0.000,0.143,0.146,0.000,0.133,0.000,105.000,0.000,16.000,0.000,0.000,0.000: // measure 0
0000
0000
0000
0000
,  // measure 1
0000
0000
0000
0000
,  // measure 2
0000
0000
0000
0000
,  // measure 3
0000
0000
0000
0000
,  // measure 4
0000
0000
0000
0000
,  // measure 5
0000
0000
0000
0000
,  // measure 6
0000
0000
0000
0000
,  // measure 7
0000
0000
0000
0000
,  // measure 8
1000
0000
0000
0000
,  // measure 9
0001
0000
0001
0000
,  // measure 10
0100
0000
0000
0000
,  // measure 11
0001
0000
0001
0000
,  // measure 12
1000
0000
0000
0000
,  // measure 13
0001
0000
0001
0000
,  // measure 14
0010
0000
0000
0000
,  // measure 15
0001
0000
0001
0000
,  // measure 16
1000
0000
0000
0000
,  // measure 17
0100
0000
0000
0000
,  // measure 18
0010
0000
0000
0000
,  // measure 19
0001
0000
0000
0000
,  // measure 20
1000
0000
0010
0000
,  // measure 21
0100
0000
0001
0000
,  // measure 22
1000
0000
0010
0000
,  // measure 23
0100
0000
0001
0000
,  // measure 24
2000
0000
0000
0000
,  // measure 25
3000
0000
0000
0000
,  // measure 26
0010
0000
0000
0000
,  // measure 27
0010
0000
0000
0000
,  // measure 28
1000
0000
1000
0000
,  // measure 29
0000
0000
0100
0000
,  // measure 30
0010
0000
0010
0000
,  // measure 31
0000
0000
0001
0000
,  // measure 32
2000
0000
0000
0000
,  // measure 33
3000
0000
0000
0000
,  // measure 34
0100
0000
0000
0000
,  // measure 35
0100
0000
0000
0000
,  // measure 36
1000
0000
1000
0000
,  // measure 37
0000
0000
0010
0000
,  // measure 38
0100
0000
0100
0000
,  // measure 39
0000
0000
0001
0000
,  // measure 40
0002
0000
0000
0000
,  // measure 41
0003
0000
0000
0000
,  // measure 42
0010
0000
0000
0000
,  // measure 43
0010
0000
0000
0000
,  // measure 44
0001
0000
0001
0000
,  // measure 45
0000
0000
0100
0000
,  // measure 46
0010
0000
0010
0000
,  // measure 47
0000
0000
1000
0000
,  // measure 48
0002
0000
0000
0000
,  // measure 49
0003
0000
0000
0000
,  // measure 50
0100
0000
0000
0000
,  // measure 51
0100
0000
0000
0000
,  // measure 52
0001
0000
0001
0000
,  // measure 53
0000
0000
0010
0000
,  // measure 54
0100
0000
0100
0000
,  // measure 55
0000
0000
1000
0000
,  // measure 56
2000
0000
0000
0000
,  // measure 57
3001
0000
0000
0000
,  // measure 58
0010
0000
0100
0000
,  // measure 59
0010
0000
0000
0000
,  // measure 60
0001
0000
0002
0000
,  // measure 61
0000
0000
1003
0000
,  // measure 62
0010
0000
0020
0000
,  // measure 63
0000
0000
0130
0000
,  // measure 64
0002
0000
0000
0000
,  // measure 65
1003
0000
0000
0000
,  // measure 66
0010
0000
0100
0000
,  // measure 67
0010
0000
0000
0000
,  // measure 68
1000
0000
2000
0000
,  // measure 69
0000
0000
3001
0000
,  // measure 70
0010
0000
0020
0000
,  // measure 71
0000
0000
0130
0000
,  // measure 72
2000
0000
0000
0000
,  // measure 73
3001
0000
0000
0000
,  // measure 74
0100
0000
0010
0000
,  // measure 75
0100
0000
0000
0000
,  // measure 76
0001
0000
0002
0000
,  // measure 77
0000
0000
1003
0000
,  // measure 78
0100
0000
0200
0000
,  // measure 79
0000
0000
0310
0000
,  // measure 80
0002
0000
0000
0000
,  // measure 81
1003
0000
0000
0000
,  // measure 82
0100
0000
0010
0000
,  // measure 83
0100
0000
0000
0000
,  // measure 84
1000
0000
2000
0000
,  // measure 85
0000
0000
3001
0000
,  // measure 86
0100
0000
0200
0000
,  // measure 87
0000
0000
0310
0000
,  // measure 88
0001
0000
0000
0000
;
