#TITLE:Double♥♥ Loving Heart;
#SUBTITLE:;
#ARTIST:Tatsh feat. Junko Hirata and Sayaka Minami;
#TITLETRANSLIT:Double Loving Heart;
#SUBTITLETRANSLIT:;
#ARTISTTRANSLIT:;
#CREDIT:;
#BANNER:Double Loving Heart.png;
#BACKGROUND:Double Loving Heart-bg.png;
#LYRICSPATH:;
#CDTITLE:;
#MUSIC:Double Loving Heart.mp3;
#OFFSET:-0.252;
#SAMPLESTART:54.125;
#SAMPLELENGTH:13.820;
#SELECTABLE:YES;
#BPMS:0.000=138.000;
#STOPS:51.750=0.435
;
#BGCHANGES:;

//---------------dance-single - ----------------
#NOTES:
     dance-single:
     :
     Hard:
     7:
     0.489,0.457,0.349,0.310,0.067:
0000
0000
0000
0000
,
0000
0000
0000
0000
,
0000
0000
0000
0000
,
0000
0000
0000
0000
,
2002
0000
3003
0000
1000
0010
0100
0001
,
2000
0010
0100
3001
,
1000
0100
0001
0100
1000
0000
1001
0000
,
0002
0010
0100
1003
,
0001
0010
1000
0010
0001
0000
1001
0000
,
2000
0100
0010
3001
,
1000
0100
0001
0010
1000
0000
1001
0000
,
0002
0100
0010
1003
,
0001
0000
0100
0000
0010
0000
1000
0100
0000
1000
0001
0000
0010
0000
0001
0000
,
1001
0000
0000
1000
0000
0000
0010
0000
1000
0000
0100
0000
0010
0000
0001
0000
,
0000
0100
0000
0000
0001
0000
0000
0010
0000
0000
0000
0000
0100
0000
0000
0000
,
1000
0000
0000
0010
0000
0000
1000
0000
0100
0000
0020
0000
0000
0000
0032
0000
,
0000
2003
0000
0001
3001
0000
1001
0000
,
1000
0000
0000
0010
0000
0000
0100
0000
0010
0000
1000
0000
0100
0000
0000
0010
,
0000
0002
0000
1003
0000
0001
0200
0000
,
0010
0000
0000
0000
1300
0000
0100
0000
0010
0000
1000
0000
0100
0000
0000
0010
,
0000
0002
0000
1000
1003
0000
1001
0000
,
1000
0200
0000
0010
0310
0100
0020
0000
,
0032
0000
0103
0000
0010
1000
0100
0000
,
1000
0002
0000
0010
0013
0001
0200
0000
,
0320
0000
1030
0000
0001
0100
0010
0000
,
1000
0200
0000
1000
1300
0100
0020
0000
,
0032
0000
1003
0000
0001
0100
0020
0000
,
1000
0000
0000
0000
0130
0000
0010
0000
1000
0000
0100
0000
0010
0000
0000
0001
,
0000
0000
1000
0000
0100
0000
0000
0010
0000
0000
0001
0000
0101
0000
0000
0000
,
1000
1100
0000
0001
0011
0000
1000
1010
,
0000
0001
0010
0010
0100
0100
1100
0000
,
1010
0000
0110
0000
0100
0001
0000
0010
,
0100
1000
0002
0000
1003
0000
0001
0100
,
0010
1000
0100
0000
1000
0200
0000
0320
,
0000
0031
0000
1000
0010
0100
0010
0000
,
1010
0000
0000
0000
1000
0000
0100
0000
0010
0000
0001
0000
1000
0000
0000
0001
,
0000
0100
0000
0010
1000
0010
0110
0000
,
0100
0101
0000
0001
0011
0000
0010
0110
,
0000
0100
1000
1000
0001
0000
1001
0000
,
0101
0000
0110
0000
0010
1000
0000
0100
,
1000
0001
0020
0000
0031
0000
1000
0100
,
0001
0010
1000
0000
0001
2000
0000
3002
,
0000
0013
0000
0001
0100
0010
1000
0000
,
1100
0000
0000
0000
0100
0000
0010
0000
0001
0000
1000
0000
0010
0000
0000
0100
,
0000
0001
0000
0010
0100
1000
1100
0000
,
0001
0101
0000
1000
1010
0000
0001
0011
,
0000
1000
0001
0001
0100
0000
0020
0000
,
0100
1000
0130
0002
,
0010
0000
0000
0000
0103
0000
0001
0000
0000
0100
0000
0000
0020
0000
0000
0000
,
1000
0000
0001
0000
1030
0000
0010
1000
,
0100
0000
0000
0010
0000
0000
0001
0000
1000
0000
0010
0000
0011
0000
0000
0000
,
1010
0000
1100
0000
0100
0001
0000
0100
,
0010
0001
2000
0000
3001
0000
1000
0010
,
0100
0001
0010
0000
0001
0020
0000
0230
,
0000
1300
0000
0001
0100
0010
0100
0000
,
0101
0000
0000
0000
0001
0000
0010
0000
0100
0000
1000
0000
0001
0000
0000
1000
,
0000
0010
0000
0100
0001
0100
0110
0000
,
0010
1010
0000
1000
1100
0000
0100
0110
,
0000
0010
0001
0001
1000
0000
1001
0000
,
1010
0000
0110
0000
0100
0001
0000
0010
,
0001
1000
0200
0000
1300
0000
0100
1000
,
0010
0001
0100
0000
1000
0002
0000
2003
,
0000
3100
0000
1000
0010
0100
0001
0000
,
0011
0000
0000
0000
0010
0000
0100
0000
1000
0000
0001
0000
0100
0000
0000
0010
,
0000
1000
0000
0100
0010
0001
0011
0000
,
1000
1010
0000
0001
0101
0000
1000
1100
,
0000
0001
1000
1000
0010
0000
0220
0000
,
0000
0000
0000
0330
;

//---------------dance-single - ----------------
#NOTES:
     dance-single:
     :
     Beginner:
     1:
     0.095,0.106,0.000,0.000,0.000: // measure 1
0000
0000
0000
0000
,  // measure 2
0000
0000
0000
0000
,  // measure 3
0000
0000
0000
0000
,  // measure 4
0000
0000
0000
0000
,  // measure 5
0000
0000
0000
0000
,  // measure 6
1000
0000
0000
0000
,  // measure 7
0001
0000
0001
0000
,  // measure 8
0001
0000
0000
0000
,  // measure 9
0100
0000
0100
0000
,  // measure 10
0100
0000
0000
0000
,  // measure 11
0010
0000
0010
0000
,  // measure 12
0010
0000
0000
0000
,  // measure 13
1000
0000
1000
0000
,  // measure 14
0000
0000
0000
0001
,  // measure 15
0000
0000
0000
0100
,  // measure 16
0000
0000
0000
0010
,  // measure 17
0000
0010
0000
0010
,  // measure 18
0000
0000
0000
1000
,  // measure 19
0000
0000
0000
0100
,  // measure 20
0000
0000
0000
0010
,  // measure 21
0000
0010
0000
0010
,  // measure 22
0000
0000
0000
0001
,  // measure 23
0000
0001
0000
0001
,  // measure 24
0000
0000
0000
1000
,  // measure 25
0000
1000
0000
1000
,  // measure 26
0000
0000
0000
0010
,  // measure 27
0000
0010
0000
0010
,  // measure 28
0000
0000
0000
0100
,  // measure 29
0000
0100
0000
0100
,  // measure 30
0000
0000
0000
0000
,  // measure 31
0000
0000
0000
0010
,  // measure 32
0000
0000
0000
0001
,  // measure 33
0000
0000
0000
1000
,  // measure 34
0000
0000
0000
0010
,  // measure 35
0000
0010
0000
0010
,  // measure 36
0000
0000
0000
0100
,  // measure 37
0000
0000
0000
0001
,  // measure 38
0000
0001
0000
1000
,  // measure 39
0000
1000
0000
0010
,  // measure 40
0000
0000
0000
0100
,  // measure 41
0000
0000
0000
0001
,  // measure 42
0000
0000
0000
1000
,  // measure 43
0000
1000
0000
1000
,  // measure 44
0000
0000
0000
0001
,  // measure 45
0000
0000
0000
0010
,  // measure 46
0000
0010
0000
0100
,  // measure 47
0000
0100
0000
1000
,  // measure 48
0000
0000
0000
0001
,  // measure 49
0000
0000
0000
0100
,  // measure 50
0000
0000
0000
0010
,  // measure 51
0000
0010
0000
0010
,  // measure 52
0000
0000
0000
1000
,  // measure 53
0000
0000
0000
0001
,  // measure 54
0000
0000
0000
0100
,  // measure 55
0000
0100
0000
0100
,  // measure 56
0000
0000
0000
0010
,  // measure 57
0000
0000
0000
1000
,  // measure 58
0000
1000
0000
0001
,  // measure 59
0000
0001
0000
0100
,  // measure 60
0000
0000
0000
0010
,  // measure 61
0000
0000
0000
1000
,  // measure 62
0000
0000
0000
0100
,  // measure 63
0000
0100
0000
0100
,  // measure 64
0000
0000
0000
0010
,  // measure 65
0000
0000
0000
0001
,  // measure 66
0000
0001
0000
1000
,  // measure 67
0000
1000
0000
0010
;

//---------------dance-single - ----------------
#NOTES:
     dance-single:
     :
     Easy:
     3:
     0.261,0.238,0.040,0.016,0.000: // measure 1
0000
0000
0000
0000
,  // measure 2
0000
0000
0000
0000
,  // measure 3
0000
0000
0000
0000
,  // measure 4
0000
0000
0000
0000
,  // measure 5
0000
0000
0000
0000
,  // measure 6
1000
0100
0010
0001
,  // measure 7
1000
0010
0100
0000
,  // measure 8
0001
0010
0100
1000
,  // measure 9
0001
0100
0010
0000
,  // measure 10
1000
0100
0001
0100
,  // measure 11
1000
0010
0001
0000
,  // measure 12
0010
1000
0100
1000
,  // measure 13
0001
0001
1000
1000
,  // measure 14
0001
0100
0010
0100
,  // measure 15
0001
0010
0000
0100
,  // measure 16
1000
0010
0100
0001
,  // measure 17
0001
1000
1000
0001
,  // measure 18
0010
0100
0010
0001
,  // measure 19
0100
0010
1000
0002
,  // measure 20
0000
1003
0100
0020
,  // measure 21
0000
0130
0000
1000
,  // measure 22
0000
1001
0000
0001
,  // measure 23
0100
0010
0100
0001
,  // measure 24
0000
0101
0000
0001
,  // measure 25
0100
0010
1000
0100
,  // measure 26
0000
1100
0000
0100
,  // measure 27
1000
0010
0001
0010
,  // measure 28
0000
1010
0000
0010
,  // measure 29
1000
0100
1000
0001
,  // measure 30
0000
0100
0000
0000
0010
0000
0000
1000
,  // measure 31
0000
0001
0100
0010
,  // measure 32
1000
0100
1000
0010
,  // measure 33
0100
0001
0100
0010
,  // measure 34
1000
0001
0010
0001
,  // measure 35
0001
1000
1000
0100
,  // measure 36
1000
0010
1000
0100
,  // measure 37
0010
0001
0100
0010
,  // measure 38
0000
1000
0000
0000
0001
0000
0000
0100
,  // measure 39
0000
0010
1000
0100
,  // measure 40
1000
0001
0010
0001
,  // measure 41
0100
0010
1000
0100
,  // measure 42
0010
0001
0100
0001
,  // measure 43
0001
0010
0010
0001
,  // measure 44
0100
0010
1000
0100
,  // measure 45
1000
0001
0010
0001
,  // measure 46
0000
0100
0000
0000
0010
0000
0000
1000
,  // measure 47
0000
0001
0100
0010
,  // measure 48
1000
0100
1000
0010
,  // measure 49
0100
0001
0100
0010
,  // measure 50
1000
0001
0010
0001
,  // measure 51
0001
1000
1000
0100
,  // measure 52
1000
0010
0100
0010
,  // measure 53
1000
0100
0010
0001
,  // measure 54
0100
0010
1000
0001
,  // measure 55
0001
1000
1000
0001
,  // measure 56
0010
1000
0010
0001
,  // measure 57
0100
1000
0100
0001
,  // measure 58
0000
0001
0000
0000
1000
0000
0000
1000
,  // measure 59
0000
0010
0010
0100
,  // measure 60
0001
0010
0001
0100
,  // measure 61
0010
1000
0010
0100
,  // measure 62
0001
1000
0100
0010
,  // measure 63
0010
0100
0100
1000
,  // measure 64
0010
0100
0001
1000
,  // measure 65
0100
0010
0001
1000
,  // measure 66
0000
0010
0000
0000
0100
0000
0000
0001
,  // measure 67
0000
1000
0100
1001
;

//---------------dance-single - ----------------
#NOTES:
     dance-single:
     :
     Medium:
     5:
     0.420,0.397,0.365,0.302,0.016: // measure 1
0000
0000
0000
0000
,  // measure 2
0000
0000
0000
0000
,  // measure 3
0000
0000
0000
0000
,  // measure 4
0000
0000
0000
0000
,  // measure 5
0000
0000
0000
0000
,  // measure 6
2000
0001
0001
3001
,  // measure 7
0100
0010
0100
0010
0100
0000
1001
0000
,  // measure 8
0002
1000
1000
1003
,  // measure 9
0010
0100
0010
0100
0010
0000
1001
0000
,  // measure 10
0020
0100
0100
0130
,  // measure 11
0010
0100
1000
0001
0010
0000
1001
0000
,  // measure 12
0200
0010
0010
0310
,  // measure 13
0100
0010
0001
0100
0010
1000
0001
0100
,  // measure 14
0110
0000
0010
1000
0100
0000
1000
0000
,  // measure 15
0001
0000
0100
0010
1000
0000
0010
0000
,  // measure 16
0100
0000
0001
1000
0100
0000
0011
0000
,  // measure 17
0011
1100
1100
1000
,  // measure 18
0001
0000
0100
0010
0100
0000
0001
0000
,  // measure 19
0010
0000
0100
1000
0100
0000
0020
0000
,  // measure 20
0001
0001
0031
0200
,  // measure 21
0010
0010
0310
0110
,  // measure 22
0000
2010
0000
0000
3001
0000
1000
0000
,  // measure 23
0100
0010
0001
0101
,  // measure 24
0000
0120
0000
0000
1030
0000
0010
0000
,  // measure 25
1000
0100
0010
0011
,  // measure 26
0000
0102
0000
0000
1003
0000
0001
0000
,  // measure 27
0100
1000
0010
0012
,  // measure 28
0010
0100
1003
0001
,  // measure 29
1000
0100
0010
0000
0001
0100
0010
0000
,  // measure 30
0000
1001
0000
0000
0100
0000
0000
1001
,  // measure 31
0000
0000
1000
0100
0010
0000
0011
0000
,  // measure 32
0101
0000
0110
0000
0010
1000
0000
0100
,  // measure 33
1000
0001
2000
0000
3001
0000
1000
0000
,  // measure 34
0010
0100
0010
0000
1000
0002
0000
0023
,  // measure 35
0000
0230
0000
2300
0000
3001
0100
0000
,  // measure 36
0101
0000
0000
0000
0100
0000
0010
0000
1000
0000
0000
0000
0100
0000
0000
0100
,  // measure 37
0000
0200
0000
0010
0310
0000
0110
0000
,  // measure 38
0000
0011
0000
0000
1001
0000
0000
1010
,  // measure 39
0000
0000
0010
0100
0001
0000
0101
0000
,  // measure 40
0110
0000
1010
0000
0010
1000
0000
0100
,  // measure 41
1000
0001
0020
0000
0031
0000
0100
0000
,  // measure 42
0010
1000
0010
0000
0100
0002
0000
2003
,  // measure 43
0000
3200
0000
2300
0000
3001
0010
0000
,  // measure 44
0011
0000
0000
0000
0001
0000
0100
0000
0010
0000
0000
0000
1000
0000
0000
1000
,  // measure 45
0000
2000
0000
0001
3001
0000
0100
0000
,  // measure 46
0000
0110
0000
0000
0010
0000
0000
1010
,  // measure 47
0000
0000
1000
0100
0010
0001
2000
0000
,  // measure 48
0010
0100
3001
0002
,  // measure 49
0010
0100
1003
2000
,  // measure 50
0100
0000
0001
0000
3100
0000
1000
0100
,  // measure 51
0010
0001
1000
0010
0100
0000
1100
0000
,  // measure 52
1010
0000
0110
0000
0100
0001
0000
0010
,  // measure 53
0001
1000
0002
0000
1003
0000
0001
0000
,  // measure 54
0100
0010
0100
0000
0001
2000
0000
3200
,  // measure 55
0000
0320
0000
0032
0000
1003
0010
0000
,  // measure 56
1010
0000
0000
0000
0010
0000
0100
0000
0001
0000
0000
0000
0010
0000
0000
0010
,  // measure 57
0000
0020
0000
0100
0130
0000
0110
0000
,  // measure 58
0000
1100
0000
0000
1001
0000
0000
0101
,  // measure 59
0000
0000
0100
0010
1000
0000
1010
0000
,  // measure 60
0110
0000
0101
0000
0100
0001
0000
0010
,  // measure 61
0001
1000
0200
0000
1300
0000
0010
0000
,  // measure 62
0100
0001
0100
0000
0010
2000
0000
3002
,  // measure 63
0000
0023
0000
0032
0000
1003
0100
0000
,  // measure 64
1100
0000
0000
0000
1000
0000
0010
0000
0100
0000
0000
0000
0001
0000
0000
0001
,  // measure 65
0000
0002
0000
1000
1003
0000
0010
0000
,  // measure 66
0000
0110
0000
0000
0100
0000
0000
0101
,  // measure 67
0000
0000
0000
0000
0000
0000
0000
0000
0000
0000
0000
0000
0000
0000
0000
0000
0000
0000
0000
0000
0000
0000
0000
0000
0000
0000
0000
0000
0000
0000
0000
0000
0000
0000
0000
0000
0000
0000
0000
0000
0000
0000
0000
0000
0000
0000
0000
0000
0001
0000
0000
0000
0000
0000
0000
0000
0000
0000
0000
0000
0000
0000
0000
0000
0000
0000
0000
0000
0000
0000
0000
0000
0010
0000
0000
0000
0000
0000
0000
0000
0000
0000
0000
0000
0000
0000
0000
0000
0000
0000
0000
0000
0000
0000
0000
0000
0100
0000
0000
0000
0000
0000
0000
0000
0000
0000
0000
0000
0000
0000
0000
0000
0000
0000
0000
0000
0000
0000
0000
0000
1000
0000
0000
0000
0000
0000
0000
0000
0000
0000
0000
0000
0000
0000
0000
0000
0000
0000
0000
0000
0000
0000
0000
0000
1002
0003
0000
0000
0000
0000
0000
0000
0000
0000
0000
0000
0000
0000
0000
0000
0000
0000
0000
0000
0000
0000
0000
0000
0000
0000
0000
0000
0000
0000
0000
0000
0000
0000
0000
0000
0000
0000
0000
0000
0000
0000
0000
0000
0000
0000
0000
0000
;
