#TITLE:DJ Got Us Fallin' In Love;
#SUBTITLE:;
#ARTIST:Usher feat. Pitbull;
#TITLETRANSLIT:;
#SUBTITLETRANSLIT:;
#ARTISTTRANSLIT:;
#CREDIT:;
#BANNER:;
#BACKGROUND:;
#LYRICSPATH:;
#CDTITLE:;
#MUSIC:DJ Got Us Fallin' In Love.mp3;
#OFFSET:-8.060;
#SAMPLESTART:39.040;
#SAMPLELENGTH:12.000;
#SELECTABLE:YES;
#BPMS:0.000=120.040;
#STOPS:;
#BGCHANGES:;

//---------------dance-single - ----------------
#NOTES:
     dance-single:
     :
     Beginner:
     1:
     0.070,0.075,0.000,0.000,0.000:
1000
0000
0000
0000
,
0010
0000
0000
0000
,
0100
0000
0000
0000
,
0001
0000
0000
0000
,
0010
0000
0000
0000
,
0001
0000
0000
0000
,
0100
0000
0000
0000
,
1000
0000
0000
0000
,
0010
0000
0100
0000
,
0010
0000
0000
0000
,
0100
0000
0000
0000
,
0010
0000
0000
0000
,
1000
0000
0001
0000
,
1000
0000
0000
0000
,
0001
0000
0000
0000
,
1000
0000
0000
0000
,
1000
0000
1000
0000
,
1000
0000
0000
0000
,
0001
0000
0001
0000
,
0001
0000
0000
0000
,
0100
0000
0100
0000
,
0100
0000
0000
0000
,
0010
0000
0010
0000
,
0010
0000
0000
0000
,
1000
0000
0001
0000
,
1000
0000
0000
0000
,
0010
0000
0100
0000
,
0010
0000
0000
0000
,
1000
0000
0000
0000
,
0100
0000
0000
0000
,
0010
0000
0001
0000
,
0010
0000
0000
0000
,
0100
0000
0000
0000
;

//---------------dance-single - ----------------
#NOTES:
     dance-single:
     :
     Easy:
     3:
     0.164,0.169,0.000,0.000,0.000:
1000
0000
0100
0000
,
1000
0000
0100
0000
,
0010
0000
0001
0000
,
0010
0000
0001
0000
,
1000
0000
0010
0000
,
1000
0000
0010
0000
,
0100
0000
0001
0000
,
0100
0000
0001
0000
,
1000
0000
0100
0000
,
0010
0001
0010
0000
,
0100
0000
1000
0000
,
0001
1000
0001
0000
,
0010
0000
0100
0000
,
1000
0010
1000
0000
,
0100
0000
0010
0000
,
0100
0000
0000
0000
,
0010
0100
0010
0100
,
0001
1000
0001
1000
,
0001
0010
0100
1000
,
0100
0010
0001
1000
,
0010
1000
0010
1000
,
0001
0100
0001
0100
,
0001
0010
0100
1000
,
0010
0100
0001
0010
,
0100
1000
0100
0010
,
0001
0010
0001
1000
,
0010
1000
0010
0100
,
0001
0100
0001
0000
,
0010
0001
0100
0010
,
1000
0001
1000
0001
,
0010
0100
0010
0100
,
1000
0010
0100
0001
,
1000
0000
0000
0000
;

//---------------dance-single - ----------------
#NOTES:
     dance-single:
     :
     Medium:
     4:
     0.264,0.242,0.106,0.000,0.018:
0010
0000
1000
0000
0100
1000
0100
0000
,
0010
0000
0001
0000
0100
0001
0100
0000
,
0010
0000
1000
0000
0001
0000
0000
1000
,
0000
1000
0001
0000
0100
0000
0000
0000
,
0010
0000
1000
0000
0100
1000
0001
0000
,
0100
0000
0010
0000
0100
0001
0010
0000
,
0100
0000
1000
0000
0010
0000
0000
0100
,
0000
0100
0001
0000
0010
0000
0000
0000
,
0010
0001
0100
0010
,
1000
0000
0100
0000
1000
0000
0010
0100
,
0001
0100
0001
0010
,
0100
0000
1000
0000
0010
0000
0100
0001
,
1000
0010
0100
0001
,
0010
0000
0100
0000
1000
0100
0010
0000
,
0001
0000
0100
0000
0010
0000
0000
1000
,
0000
0001
1000
0000
0010
0000
0000
0000
,
0010
1001
0100
1001
,
0010
0000
1000
0000
0100
0010
0100
0000
,
1000
0000
0001
0100
0001
0000
0010
0001
,
0000
0001
0100
0000
0010
0000
1000
0000
,
0100
0110
0010
0110
,
0100
0000
0001
0000
0010
0100
0010
0000
,
0001
0000
1000
0000
0010
0100
0010
0100
,
0000
0100
0010
0000
1000
0100
0010
0001
,
1000
0000
0000
0000
1100
0000
0000
0000
0001
0000
0000
0010
0000
0000
0001
0000
,
0010
0000
0000
0000
1100
0000
0000
0000
1000
0000
0000
0010
0000
0000
0100
0000
,
0001
0000
0000
0000
0010
0000
0000
0000
0001
0000
0000
0010
0000
0000
0100
0000
,
1000
0000
0010
0000
0100
0000
0001
0010
,
0001
0011
1000
1100
,
1000
0000
0010
0000
0100
0001
0100
0001
,
0000
0001
0100
0000
0010
0000
1000
0100
,
0000
0010
0001
0100
0010
0000
1001
0000
;

//---------------dance-single - ----------------
#NOTES:
     dance-single:
     :
     Hard:
     6:
     0.319,0.301,0.094,0.000,0.018: // measure 1
0001
1000
0010
0100
0001
0100
0010
0000
,  // measure 2
0010
1000
0100
0010
0100
1000
0001
0000
,  // measure 3
0100
0000
0010
0000
1000
0000
0000
0010
,  // measure 4
0000
0100
0001
0000
0010
0000
0000
0000
,  // measure 5
0100
1000
0010
0100
0001
0010
0001
0000
,  // measure 6
0100
0010
1000
0001
0010
0100
1000
0000
,  // measure 7
0100
0000
0010
0000
0100
0000
0000
1000
,  // measure 8
0000
0001
1000
0000
0001
0000
0010
0000
,  // measure 9
0001
0000
0100
0001
0000
0001
0100
0000
,  // measure 10
0010
0000
1000
0000
0100
1000
0001
0100
,  // measure 11
0010
0000
1000
0100
0000
0100
1000
0010
,  // measure 12
0100
0001
0010
0100
1000
0010
1000
0100
,  // measure 13
0010
0001
0010
0100
1000
0100
0010
0000
,  // measure 14
0000
0010
0100
1000
0001
0100
0010
0000
,  // measure 15
1100
0000
0011
0000
1100
0000
0000
1010
,  // measure 16
0000
1000
0001
0010
0001
0100
0010
1000
,  // measure 17
0001
0000
0100
0000
0010
0000
1000
0100
,  // measure 18
0000
0100
1000
0010
0100
0001
0010
0100
,  // measure 19
0000
0100
0010
0000
0001
0000
1000
0010
,  // measure 20
0000
0010
1000
0100
0010
0001
1000
0010
,  // measure 21
0100
0000
0001
0000
0010
0000
0001
0100
,  // measure 22
0000
0100
0001
0010
0100
1000
0010
0100
,  // measure 23
0000
0100
0010
0000
1000
0000
0100
0010
,  // measure 24
0000
0010
0100
0000
1000
0000
0001
0000
,  // measure 25
1001
0000
0000
0000
1001
0000
0000
0000
0010
0000
0000
1000
0000
0000
0100
0000
,  // measure 26
1100
0000
0000
0000
1100
0000
0000
0000
1000
0000
0000
0010
0000
0000
0100
0000
,  // measure 27
0001
0000
0000
0000
0010
0000
0000
0000
0001
0000
0000
0100
0000
0000
0010
0000
,  // measure 28
1000
0000
0001
0010
0100
1000
0100
0010
,  // measure 29
0001
0000
0100
0000
0010
1000
0100
1000
,  // measure 30
0000
1000
0010
0100
0001
0010
0100
1000
,  // measure 31
0000
1000
0010
0000
0100
0000
0001
0010
,  // measure 32
0000
0010
0001
0000
1000
0000
0010
0000
,  // measure 33
0100
0000
0000
0000
;
