#TITLE:thosestairs;
#SUBTITLE:;
#ARTIST:Akira Yamaoka;
#TITLETRANSLIT:;
#SUBTITLETRANSLIT:;
#ARTISTTRANSLIT:;
#GENRE:;
#CREDIT:Taka;
#BANNER:thosestairs-bn.png;
#BACKGROUND:thosestairs-bg.png;
#LYRICSPATH:;
#CDTITLE:;
#MUSIC:thosestairs.ogg;
#OFFSET:3.017;
#SAMPLESTART:36.093;
#SAMPLELENGTH:12.000;
#SELECTABLE:YES;
#DISPLAYBPM:155.000;
#BPMS:0.000=155.000,20.000=310.000,25.000=155.000,37.000=310.000,42.000=155.000,48.000=310.000,50.500=155.000,56.500=310.000,59.000=155.000,65.000=310.000,67.500=155.000,70.000=310.000,78.000=155.000,90.000=310.000,95.000=155.000,107.000=310.000,112.000=155.000,118.000=310.000,120.500=155.000,126.500=310.000,129.000=155.000,135.000=310.000,137.500=155.000,140.000=310.000,148.000=77.500;
#STOPS:20.000=0.100
,20.500=0.100
,21.000=0.100
,21.500=0.100
,22.000=0.180
,37.000=0.100
,37.500=0.100
,38.000=0.100
,38.500=0.100
,39.000=0.180
,48.000=0.280
,56.500=0.300
,65.000=0.280
,73.000=0.100
,73.500=0.100
,74.000=0.100
,74.500=0.100
,75.000=0.180
,90.000=0.100
,90.500=0.100
,91.000=0.100
,91.500=0.100
,92.000=0.180
,107.000=0.100
,107.500=0.100
,108.000=0.100
,108.500=0.100
,109.000=0.180
,118.000=0.300
,126.500=0.300
,135.000=0.300
,143.000=0.100
,143.500=0.100
,144.000=0.100
,144.500=0.100
,145.000=0.180
;
#BGCHANGES:-5.000=thosestairs.avi=1.000=0=0=0=StretchNoLoop====,
22.000=thosestairs.avi=1.000=0=0=1=StretchPaused====,
22.001=thosestairs.avi=2.000=0=0=1=StretchNormal====,
25.000=thosestairs.avi=1.000=0=0=1=====,
39.000=thosestairs.avi=1.000=0=0=1=StretchPaused====,
39.001=thosestairs.avi=2.000=0=0=1=StretchNormal====,
42.000=thosestairs.avi=1.000=0=0=1=====,
48.000=thosestairs.avi=1.000=0=0=1=StretchPaused====,
48.001=thosestairs.avi=2.000=0=0=1=StretchNormal====,
50.500=thosestairs.avi=1.000=0=0=1=====,
56.500=thosestairs.avi=1.000=0=0=1=StretchPaused====,
56.501=thosestairs.avi=2.000=0=0=1=StretchNormal====,
59.000=thosestairs.avi=1.000=0=0=1=====,
65.000=thosestairs.avi=1.000=0=0=1=StretchPaused====,
65.001=thosestairs.avi=2.000=0=0=1=StretchNormal====,
67.500=thosestairs.avi=1.000=0=0=1=====,
70.000=thosestairs.avi=2.000=0=0=1=StretchNormal====,
73.000=thosestairs.avi=1.000=0=0=1=====,
75.000=thosestairs.avi=1.000=0=0=1=StretchPaused====,
75.001=thosestairs.avi=2.000=0=0=1=StretchNormal====,
78.000=thosestairs.avi=1.000=0=0=1=====,
92.000=thosestairs.avi=1.000=0=0=1=StretchPaused====,
92.001=thosestairs.avi=2.000=0=0=1=StretchNormal====,
95.000=thosestairs.avi=1.000=0=0=1=====,
109.000=thosestairs.avi=1.000=0=0=1=StretchPaused====,
109.001=thosestairs.avi=2.000=0=0=1=StretchNormal====,
112.000=thosestairs.avi=1.000=0=0=1=====,
118.000=thosestairs.avi=1.000=0=0=1=StretchPaused====,
118.001=thosestairs.avi=2.000=0=0=1=StretchNormal====,
120.500=thosestairs.avi=1.000=0=0=1=====,
126.500=thosestairs.avi=1.000=0=0=1=StretchPaused====,
126.501=thosestairs.avi=2.000=0=0=1=StretchNormal====,
129.000=thosestairs.avi=1.000=0=0=1=====,
135.000=thosestairs.avi=1.000=0=0=1=StretchPaused====,
135.001=thosestairs.avi=2.000=0=0=1=StretchNormal====,
137.500=thosestairs.avi=1.000=0=0=1=====,
140.000=thosestairs.avi=2.000=0=0=1=StretchNormal====,
143.000=thosestairs.avi=1.000=0=0=1=====,
145.000=thosestairs.avi=1.000=0=0=1=StretchPaused====,
145.001=thosestairs.avi=2.000=0=0=1=StretchNormal====,
148.000=thosestairs.avi=0.500=0=0=1=====,
99999=-nosongbg-=1.000=0=0=0 // don't automatically add -songbackground-
;
#KEYSOUNDS:;

//---------------dance-single - Taka----------------
#NOTES:
     dance-single:
     Taka:
     Hard:
     9:
     0.700,0.590,0.000,0.395,0.079:
0000
0000
0000
0000
,
0000
0000
0000
0000
,
0001
0100
0001
0100
0010
1000
0010
1000
,
0001
0100
0010
1000
0001
0010
0001
0010
,
0100
1000
0100
0010
0100
1000
0001
0100
,
0010
1000
0010
0100
0001
0000
0200
0000
,
0000
0000
0301
0100
0010
0100
0001
1000
,
0100
0010
0100
1000
0001
0100
0010
1000
,
0100
1000
0100
0010
0100
0010
0001
0010
,
0001
0100
0010
1000
0001
0100
0010
0000
,
0200
0000
0000
0000
0301
0100
0010
0100
,
0001
0010
0001
0100
0010
1000
0001
1000
,
0200
0300
0M00
0000
0020
0000
0000
0000
0000
0000
0000
0000
0000
0000
0000
0000
0000
0000
0000
0000
0031
0000
0000
0000
0010
0000
0000
0000
0001
0000
0000
0000
,
0100
0010
1000
0100
1000
0001
0100
0010
,
1000
0000
0000
0000
0002
0003
000M
0000
0200
0000
0000
0000
0000
0000
0000
0000
0000
0000
0000
0000
0000
0000
0000
0000
0310
0000
0000
0000
1000
0000
0000
0000
,
0010
0100
0001
0100
0010
1000
0010
0100
,
0001
0000
0000
0000
0010
0000
0000
0000
0200
0300
0M00
0000
2000
0000
0000
0000
0000
0000
0000
0000
0000
0000
0000
0000
0000
0000
0000
0000
3001
0000
0000
0000
,
0100
0010
0001
0010
2000
0000
0000
0000
,
0000
0000
3001
0100
0010
1000
0001
0000
,
2000
0000
0000
0000
3001
0100
0001
0100
,
0010
1000
0010
1000
0001
0100
0010
1000
,
0001
0010
0001
0010
0100
1000
0100
0010
,
0100
1000
0001
0100
0010
1000
0010
0100
,
0001
0000
0200
0000
0000
0000
0301
0100
,
0010
0100
0001
1000
0100
0010
0100
1000
,
0001
0100
0010
1000
0100
1000
0100
0010
,
0100
0010
0001
0010
0001
0100
0010
1000
,
0001
0100
0010
0000
0200
0000
0000
0000
,
0301
0100
0010
0100
0001
0010
0001
0100
,
0010
0000
0000
0000
1000
0000
0000
0000
0001
0000
0000
0000
1000
0000
0000
0000
0200
0300
0M00
0000
0020
0000
0000
0000
0000
0000
0000
0000
0000
0000
0000
0000
,
0000
0031
0010
0001
0100
0010
1000
0100
,
1000
0000
0000
0000
0001
0000
0000
0000
0100
0000
0000
0000
0010
0000
0000
0000
1000
0000
0000
0000
0002
0003
000M
0000
0200
0000
0000
0000
0000
0000
0000
0000
,
0000
0000
0310
1000
0010
0100
0001
0100
,
0010
0000
0000
0000
1000
0000
0000
0000
0010
0000
0000
0000
0100
0000
0000
0000
0001
0000
0000
0000
0010
0000
0000
0000
0200
0300
0M00
0000
2000
0000
0000
0000
,
0000
0000
0000
3001
0100
0010
0001
0010
,
2000
0000
0000
0000
0000
0000
3001
0100
,
0010
1000
0001
0000
2000
0000
0000
0000
,
3000
0000
0000
00M0
M00M
0M00
0000
0000
0000
0000
0000
0000
0000
0000
0000
0000
;

//---------------dance-single - Taka----------------
#NOTES:
     dance-single:
     Taka:
     Challenge:
     11:
     1.000,0.987,0.237,0.356,1.000:
0000
0000
0000
0000
,
0000
0000
0000
0000
,
0001
0000
1000
0100
1000
0000
0001
0100
0001
0000
0100
0010
0100
0000
0010
1000
,
0100
0000
0010
0000
0001
0000
0100
0000
0010
0000
0000
0000
1000
0000
0000
0000
0001
0010
0001
0010
0000
0000
0000
0000
0100
1000
0100
1000
0000
0000
0000
0000
,
0010
1000
0010
0100
0001
1000
0010
0100
,
0110
0101
1001
1010
1001
0000
0202
0000
,
0000
0000
0000
0000
0303
0000
1000
0100
1000
0000
0010
0100
0010
0000
1000
0001
,
1000
0000
0000
0000
0010
0000
0100
0000
0001
0000
0000
0000
1000
0000
0000
0000
0010
0000
0000
0000
0100
0000
0000
0000
0010
1000
0010
1000
0000
0000
0000
0000
,
0010
0100
0010
0100
0000
0000
0000
0000
0001
0000
0000
0000
0010
0000
0000
0000
0001
0000
0000
0000
1000
0000
0000
0000
0010
0000
0000
0000
0100
0000
0000
0000
,
0001
1000
MMM1
M1MM
1MMM
M1MM
MMM1
0000
,
2000
0000
0000
0000
0000
0000
0000
0000
3001
0100
0001
0100
0010
1000
0010
1000
,
0001
0100
0010
1000
0001
0010
0100
1000
0001
0010
0001
0100
0010
1000
0010
0100
,
0010
0000
2000
0000
0000
0000
0000
0000
0000
0000
3001
0100
0001
0100
0010
1000
,
0010
1000
0001
0100
0010
1000
0001
0010
0100
1000
0001
0010
0001
0100
0010
1000
,
0010
0100
0010
0000
2000
0000
0000
0000
0000
0000
0000
0000
3010
1000
0010
1000
,
0001
0100
0001
0100
0010
1000
0020
0000
0000
0000
1030
0001
1000
0001
1000
0010
,
1000
0010
1000
0100
0010
0000
0002
0000
0000
0000
0000
0000
0000
0000
1003
0010
,
0100
0001
0100
0010
1000
0010
0100
0010
2000
0000
0000
0000
0000
0000
0000
0000
,
3000
0000
MMM1
MM1M
MMM1
1MMM
MM1M
0000
,
0200
0000
0000
0000
0000
0000
0000
0000
0301
0000
1000
0100
1000
0000
0001
0100
,
0001
0000
0100
0010
0100
0000
0010
1000
0100
0010
0001
0100
0010
0000
1000
0000
,
0001
0010
0001
0010
0000
0000
0000
0000
0100
1000
0100
1000
0000
0000
0000
0000
0010
0000
0000
0000
1000
0000
0000
0000
0010
0000
0000
0000
0100
0000
0000
0000
,
0001
1000
0010
0100
0110
0101
1001
1010
,
1001
0000
0000
0000
0202
0000
0000
0000
0000
0000
0000
0000
0303
0000
1000
0100
,
1000
0000
0010
0100
0010
0000
1000
0001
1000
0000
0010
0100
0001
0000
1000
0000
,
0010
0000
0000
0000
0100
0000
0000
0000
0010
1000
0010
1000
0000
0000
0000
0000
0010
0100
0010
0100
0000
0000
0000
0000
0001
0000
0000
0000
0010
0000
0000
0000
,
0001
1000
0010
0100
0001
1000
MMM1
M1MM
,
1MMM
M1MM
MMM1
0000
2000
0000
0000
0000
,
3001
0100
0001
0100
0010
1000
0010
1000
0001
0100
0010
1000
0001
0010
0100
1000
,
0001
0010
0001
0100
0010
1000
0010
0100
0010
0000
2000
0000
0000
0000
0000
0000
,
0000
0000
3001
0100
0001
0100
0010
1000
0010
1000
0001
0100
0010
1000
0001
0010
,
0100
1000
0001
0010
0001
0100
0010
1000
0010
0100
0010
0000
2000
0000
0000
0000
,
0000
0000
0000
0000
3010
1000
0010
1000
0001
0100
0001
0100
0010
1000
0020
0000
,
0000
0000
1030
0001
1000
0001
1000
0010
1000
0010
1000
0100
0010
0000
0002
0000
,
0000
0000
0000
0000
0000
0000
1003
0010
0100
0001
0100
0010
1000
0010
0100
0010
,
2000
0000
0000
0000
3000
0000
MMM1
MM1M
,
MMM1
1MMM
MM1M
0000
0200
0000
0000
0000
,
0300
0000
0000
0000
;

//---------------dance-single - TaroNuke/Taka----------------
#NOTES:
     dance-single:
     TaroNuke/Taka:
     Medium:
     6:
     0.570,0.585,0.000,1.000,0.000:
0000
0000
0000
0000
,
0000
0000
0000
0000
,
2000
3000
0002
0003
2000
3000
0002
0003
,
2000
3000
0002
0003
2000
3000
0020
0030
,
0200
0300
0200
0300
0020
0030
0020
0030
,
1000
1000
1000
1000
0010
0000
0200
0000
,
0000
0000
0302
0003
2000
3000
0002
0003
,
2000
3000
0002
0003
2000
3000
0002
0003
,
0200
0300
0020
0030
0020
0030
0200
0300
,
0200
0300
0001
0001
0001
0001
0100
0000
,
0020
0000
1030
1000
,
1000
1000
0100
0010
,
0001
2000
0000
0000
0000
3001
0000
0001
,
0000
0001
0000
0001
0000
0010
0000
0100
,
0000
1000
0002
0000
0000
0000
1003
0000
,
1000
1000
1000
0100
,
0010
0000
0001
2000
0000
0000
0000
3001
,
0000
1000
0000
0001
2000
0000
0000
0000
,
0000
0000
3001
0001
1000
1000
0010
0000
,
0200
0000
0000
0000
0302
0003
2000
3000
,
0002
0003
2000
3000
0002
0003
2000
3000
,
0002
0003
0200
0300
0020
0030
0020
0030
,
0200
0300
0200
0300
0001
0001
0001
0001
,
0100
0000
0020
0000
0000
0000
2030
3000
,
0002
0003
2000
3000
0002
0003
2000
3000
,
0002
0003
2000
3000
0020
0030
0200
0300
,
0200
0300
0020
0030
0020
0030
1000
1000
,
1000
1000
0010
0000
0200
0000
0000
0000
,
0301
0001
0001
0001
,
0010
0000
0100
0000
1000
0002
0000
0000
,
0000
1003
0000
1000
0000
1000
0000
1000
,
0000
0100
0000
0010
0000
0001
2000
0000
,
0000
3001
0001
0001
,
0001
0000
0010
0000
0100
0000
1000
0002
,
0000
0000
0000
1003
0000
0001
0000
1000
,
0002
0000
0000
0000
0000
0000
1003
1000
,
0001
0001
0100
0000
0020
0000
0000
0000
,
0030
0000
0000
0000
;

//---------------dance-single - Taka----------------
#NOTES:
     dance-single:
     Taka:
     Easy:
     3:
     0.302,0.292,0.000,0.889,0.000:
0000
0000
0000
0000
,
0000
0000
0000
0000
,
2000
3000
0000
0000
2000
3000
0000
0000
,
0002
0003
0000
0000
0002
0003
0000
0000
,
0200
0300
0000
0000
0200
0300
0000
0000
,
0002
0000
0003
0000
,
0000
0000
0002
0003
0000
0000
0002
0003
,
0000
0000
0200
0300
0000
0000
0200
0300
,
0000
0000
0020
0030
0000
0000
0020
0030
,
0000
2000
0000
3000
,
0000
0000
0010
0000
,
0010
0000
0100
0000
,
0100
0000
0000
0000
0000
0001
0000
0000
,
0000
0001
0000
0000
0000
0001
0000
0000
,
0000
1000
0000
0000
0000
0000
0010
0000
,
0000
0010
0000
0100
,
0000
0000
0100
0000
0000
0000
0000
0001
,
0000
0000
0000
0001
0000
0000
0000
0000
,
0000
1000
0000
0010
,
0000
0000
0000
0000
0200
0300
0000
0000
,
0200
0300
0000
0000
0020
0030
0000
0000
,
0020
0030
0000
0000
2000
3000
0000
0000
,
0200
0300
0000
0000
2000
0000
0000
0000
,
3000
0000
0010
0000
0000
0000
2000
3000
,
0000
0000
2000
3000
0000
0000
0020
0030
,
0000
0000
0020
0030
0000
0000
0200
0300
,
0000
0000
0200
0300
0000
0000
0002
0000
,
0000
0003
0200
0000
,
0320
0030
0000
0000
0020
0030
0000
0000
,
0200
0300
0000
0000
0200
0300
0000
0000
,
0000
0002
0003
0000
0000
0002
0003
0000
,
0000
0200
0300
0000
0000
0200
0300
0000
,
0000
0000
0020
0030
0000
0000
0020
0030
,
0000
0000
2000
3000
0000
0000
2000
3000
,
0000
0000
0000
0002
0003
0000
0000
0002
,
0003
0000
0000
0020
,
0000
0030
0200
0000
,
0300
0000
0000
0000
;
