#VERSION:0.81;
#TITLE:Z -The New Legend-;
#SUBTITLE:Ver.A;
#ARTIST:DM Ashura;
#GENRE:Goa Trance;
#CREDIT:A. Michaelangelo;
#BANNER:[DDR Artists] - Z -The New Legend- Ver.A.png;
#BACKGROUND:[DDR Artists] - Z -The New Legend- Ver.A-bg.png;
#JACKET:[DDR Artists] - Z -The New Legend- Ver.A-jacket.png;
#CDTITLE:cdtitle.png;
#MUSIC:[DDR Artists] - Z -The New Legend- Ver.A.ogg;
#OFFSET:-6.402;
#SAMPLESTART:32.000;
#SAMPLELENGTH:15.000;
#BPMS:0.000=150.000;
#TIMESIGNATURES:0.000=4=4;
#TICKCOUNTS:0.000=4;
#COMBOS:0.000=1;
#SPEEDS:0.000=1.000=0.000=0;
#SCROLLS:0.000=1.000;
#NOTEDATA:;
#CHARTNAME:A. Michaelangelo;
#STEPSTYPE:dance-single;
#DESCRIPTION:A. Michaelangelo;
#CHARTSTYLE:Pad;
#DIFFICULTY:Beginner;
#METER:1;
#CREDIT:A. Michaelangelo;
#NOTES:
1000
0000
0000
0000
,
0000
0000
0000
0000
,
0001
0000
0000
0000
,
0000
0000
0000
0000
,
0010
0000
0000
0000
,
0000
0000
0000
0000
,
0100
0000
0000
0000
,
0000
0000
0000
0000
,
0010
0000
0000
0000
,
0010
0000
0000
0000
,
0100
0000
0000
0000
,
0100
0000
0000
0000
,
0010
0000
0000
0000
,
1000
0000
0000
0000
,
0001
0000
0000
0000
,
0100
0000
0000
0000
,
0010
0000
0000
0000
,
0000
0000
0000
0000
,
1000
0000
0000
0000
,
0000
0000
0000
0000
,
0100
0000
0000
0000
,
0000
0000
0000
0000
,
0001
0000
0000
0000
,
0000
0000
0000
0000
,
0100
0000
0000
0000
,
0000
0000
0000
0000
,
0010
0000
0000
0000
,
0000
0000
0000
0000
,
1000
0000
0000
0000
,
0000
0000
0000
0000
,
0010
0000
0000
0000
,
0000
0000
0000
0000
,
0001
0000
0000
0000
,
0000
0000
0000
0000
,
0000
0000
0000
0000
,
0000
0000
0000
0000
,
0000
0000
0000
0000
,
0000
0000
0000
0000
,
0000
0000
0000
0000
,
0000
0000
0000
0000
,
1000
0000
0000
0000
,
0000
0000
0000
0000
,
1000
0000
0000
0000
,
0000
0000
0000
0000
,
0100
0000
0000
0000
,
0000
0000
0000
0000
,
0100
0000
0000
0000
,
0000
0000
0000
0000
,
0010
0000
0000
0000
,
0100
0000
0000
0000
,
0010
0000
0000
0000
,
1000
0000
0000
0000
,
0010
0000
0000
0000
,
0100
0000
0000
0000
,
0010
0000
0000
0000
,
0001
0000
0000
0000
,
0001
0000
0000
0000
,
0001
0000
0000
0000
,
1000
0000
0000
0000
,
0100
0000
0000
0000
,
0010
0000
0000
0000
,
0100
0000
0000
0000
,
0010
0000
0000
0000
,
0001
0000
0000
0000
,
0001
0001
0000
0000
,
0000
0000
0000
0000
,
0100
0100
0000
0000
,
0000
0000
0000
0000
,
0010
0010
0000
0000
,
0000
0000
0000
0000
,
1000
1000
0000
0000
,
0000
0000
0000
0000
,
0001
0001
0000
0000
,
0000
0000
0000
0000
,
1000
1000
0000
0000
,
0000
0000
0000
0000
,
0100
0100
0000
0000
,
0000
0000
0000
0000
,
0010
0010
0000
0000
,
0010
0000
0010
0000
,
1001
0000
0000
0000
;
#NOTEDATA:;
#CHARTNAME:A. Michaelangelo;
#STEPSTYPE:dance-single;
#DESCRIPTION:A. Michaelangelo;
#CHARTSTYLE:Pad;
#DIFFICULTY:Easy;
#METER:4;
#CREDIT:A. Michaelangelo;
#NOTES:
1000
1000
0000
0000
,
0010
0010
0000
0000
,
0100
0100
0000
0000
,
0001
0001
0000
0000
,
0001
0001
0100
0100
,
0010
0010
1000
1000
,
1000
0000
0000
0000
,
0000
0000
0000
0000
,
1000
0010
0100
0000
,
1000
0001
0100
0000
,
0010
1000
0010
1000
,
0100
0010
0001
0000
,
0010
0001
0100
0000
,
0100
0010
1000
0000
,
1000
0100
0010
0001
,
1000
0010
0100
0000
,
0001
0010
0001
0000
1000
0000
0010
0000
,
0100
0100
0001
0010
,
0100
0001
0100
1000
,
0100
0001
0010
0000
,
1000
0010
1000
0000
0001
0000
1000
0000
,
0100
1000
0001
0010
,
0100
1000
0010
0100
,
0001
1000
1000
0000
,
0010
0100
0010
0000
0001
0000
1000
0000
,
0100
0010
1000
0100
,
0010
0001
0100
1000
,
0100
0001
0010
0000
,
0100
0001
0100
0000
0010
0000
1000
0000
,
0100
0010
0100
1000
,
0001
0100
0010
1000
,
0100
0100
0100
0100
,
0200
0000
0000
0300
,
0000
0000
0000
0000
,
0002
0000
0000
0003
,
0000
0000
0000
0000
,
0200
0000
0000
0300
,
0000
0000
0000
0000
,
0020
0000
0000
0030
,
0000
0000
0000
0000
,
2000
0000
0000
3000
,
0000
0000
0000
0000
,
0020
0000
0000
0030
,
0000
0000
0000
0000
,
2000
0000
0000
3000
,
0000
0000
0000
0000
,
0020
0000
0000
0030
,
0000
0000
0000
0000
,
1000
0010
0100
0000
0001
0000
0010
0000
,
0100
1000
0010
0100
,
0001
1000
0001
1000
,
0010
1000
0001
1000
,
0010
0100
0001
0000
1000
0000
0100
0000
,
1000
0010
0001
0100
,
0010
1000
0100
1000
,
0001
0100
0010
1000
,
0100
0010
0001
0000
0100
0000
0010
0000
,
1000
0001
0100
0001
,
1000
1000
0010
0100
,
0001
0010
0010
0010
,
0001
0100
0010
0000
1000
0000
0100
0000
,
0010
1000
0001
0100
,
0010
0001
0100
0010
,
0100
0010
0100
0000
,
1000
0100
1000
0000
0010
0000
0100
0000
,
0001
1000
0001
0010
,
0100
0010
0001
0100
,
1000
0100
0001
0000
,
0001
0100
0001
0000
1000
0000
1000
0000
,
0100
0100
0010
0010
,
1000
1000
0010
0010
,
0001
0001
0100
0000
,
0100
0010
0100
0000
0010
0000
1000
0000
,
0001
1000
0100
0010
,
0001
0010
0100
1000
,
0010
0100
1000
0000
,
1000
0001
1000
0000
0010
0000
0000
0000
,
0001
1000
0001
0000
0100
0000
0000
0000
,
1000
0100
1000
0000
1000
0100
1000
0000
,
0100
0010
0001
0100
0010
1000
0100
0010
,
0002
0000
0000
0000
,
0000
0000
0003
0000
;
#NOTEDATA:;
#CHARTNAME:A. Michaelangelo;
#STEPSTYPE:dance-single;
#DESCRIPTION:A. Michaelangelo;
#CHARTSTYLE:Pad;
#DIFFICULTY:Medium;
#METER:6;
#CREDIT:A. Michaelangelo;
#NOTES:
0001
1000
0001
1000
,
0010
0100
0010
0100
,
0001
1000
0001
1000
,
0010
0100
0010
0100
,
0001
1000
0001
1000
0001
1000
0001
1000
,
0001
1000
0001
1000
0001
1000
0001
1000
,
0001
0000
0000
0000
,
0000
0000
0000
0000
,
1000
0000
0010
0000
0100
0001
0100
0000
,
0001
0000
0010
0000
0100
1000
0100
0000
,
0010
0001
1000
0010
,
1000
0100
0001
0100
,
0010
0000
0100
0000
0010
0001
0010
0000
,
0001
0000
1000
0000
0100
0010
0100
0000
,
0001
0100
1000
0010
,
0100
1000
0100
0000
0100
1000
0100
0000
,
0100
0001
1000
0000
1010
0000
0110
0000
,
0010
1000
0100
0000
0110
0000
0011
0000
,
0001
0010
0100
0000
1100
0000
0101
0000
,
0010
0100
1000
0010
,
1000
0001
0100
0000
0101
0000
0011
0000
,
0010
0001
0100
0000
1010
0000
1001
0000
,
0010
1000
0100
0000
0110
0000
0011
0000
,
0001
0010
0100
1000
,
1000
0001
0100
0000
0101
0000
1010
0000
,
1000
0010
0100
0000
0110
0000
0101
0000
,
0010
0100
1000
0000
1010
0000
1001
0000
,
1000
0010
0100
0010
,
0010
0100
1000
0000
1100
0000
0110
0000
,
0001
0100
1000
0000
1100
0000
0110
0000
,
1000
0100
0010
0000
0011
0000
1100
0000
,
0010
0001
0010
0000
0010
0001
0010
0000
,
0002
0000
0000
0003
,
0001
0000
0000
0000
,
2000
0000
0000
3000
,
1000
0000
0000
0000
,
0020
0000
0000
0030
,
0010
0000
0000
0000
,
0200
0000
0000
0300
,
0100
0000
0000
0000
,
0010
0000
0000
0000
0010
1000
0000
0000
,
0000
0000
0001
0000
,
0100
0000
0000
0000
0010
0001
0000
0000
,
0000
0000
1000
0000
,
0100
0000
0000
0000
0010
0100
0000
0000
,
0000
0000
0001
0000
,
1000
0000
0000
0000
0010
1000
0000
0000
,
0000
0000
0100
0000
,
1000
0000
0001
0000
0100
0001
0010
0000
,
0100
0000
1000
0000
0010
1000
0100
0000
,
0010
0000
0001
0000
1000
0010
0100
0000
,
1000
0100
1000
0100
,
1000
0000
0100
0000
0001
0010
0001
0000
,
0100
0000
0001
0000
1000
0010
1000
0000
,
0001
0000
0100
0000
0001
0100
0010
0000
,
1000
0100
0010
0001
,
0100
0000
0010
0000
0100
0010
0001
0000
,
1000
0000
0100
0000
0010
1000
0001
0000
,
1000
0000
0100
0000
0010
0100
1000
0000
,
0100
0001
0100
0010
,
0001
0000
1000
0000
0001
1000
0100
0000
,
0010
0000
0001
0000
1000
0001
0100
0000
,
1000
0000
0100
0000
0010
1000
0001
0000
,
0100
0100
0010
0010
1000
1000
0001
0001
,
1000
0001
1000
0000
0101
0000
1010
0000
,
0010
0100
0001
0000
0101
0000
1100
0000
,
0010
0100
1000
0000
0011
0000
0101
0000
,
0001
0100
0001
1000
,
0010
0001
0100
0000
0110
0000
1010
0000
,
1000
0010
1000
0000
0110
0000
0101
0000
,
0001
1000
0001
0000
1001
0000
1100
0000
,
1000
0001
1000
0100
,
0010
0100
1000
0000
1010
0000
0011
0000
,
0001
0010
0100
0000
1100
0000
0101
0000
,
1000
0010
0001
0000
1100
0000
0110
0000
,
1000
0010
0100
0001
,
1000
0010
1000
0000
1000
0100
1000
0000
,
0100
0010
0100
0000
0010
0001
0010
0000
,
0001
0100
0001
0000
0010
1000
0010
0000
,
0100
0001
0100
0001
0100
0001
0100
0001
,
0100
0000
0000
0000
;
#NOTEDATA:;
#CHARTNAME:A. Michaelangelo;
#STEPSTYPE:dance-single;
#DESCRIPTION:A. Michaelangelo;
#CHARTSTYLE:Pad;
#DIFFICULTY:Hard;
#METER:8;
#CREDIT:A. Michaelangelo;
#NOTES:
1000
0100
1000
0100
,
0010
0100
0010
0100
,
0010
0100
1000
0001
,
0100
0010
1000
0100
,
0010
0001
0010
0000
0010
0001
1000
0000
,
1000
0100
1000
0000
0100
0001
0100
0010
,
1001
0000
0000
0000
,
0000
0000
0000
0000
,
1000
0001
1000
0000
0001
0100
0001
0000
,
1000
0100
1000
0000
0010
0001
0010
0000
,
0100
0001
0010
0000
0001
0010
0100
0000
,
1000
0100
1000
0001
1000
0100
0001
0000
,
0010
1000
0010
0000
0010
0100
0001
0000
,
1000
0100
0001
0000
1000
0010
0001
0000
,
1000
0100
0001
0010
1000
0010
0001
0100
,
0010
1000
0100
0010
0001
1000
0100
0010
,
0001
1000
0000
1000
0001
0000
0010
0000
0100
0000
1000
0000
0100
0000
0000
0000
,
0001
0100
0010
1000
0010
0100
0001
0000
,
0100
1000
0100
0001
0010
0100
0010
1000
,
0010
0001
0100
1000
0100
0001
0100
0010
,
1000
0010
0000
0010
0100
0000
0001
0000
1000
0000
0100
0000
0010
0000
0000
0000
,
0001
0010
0001
0100
0010
1000
0100
0000
,
0001
1000
0100
0010
0001
0100
1000
0100
,
0001
0010
1000
0010
0001
0100
1000
0100
,
0010
0100
0000
0100
0001
0000
1000
0000
0001
0000
0100
0000
0010
0000
0000
0000
,
1000
0010
0100
0001
0010
0100
0001
0000
,
0100
1000
0010
0100
0001
0010
0100
0010
,
1000
0001
0100
0010
0001
0100
0010
1000
,
1000
0010
0000
0010
0100
0000
0001
0000
1000
0000
0100
0000
0010
0000
0000
0000
,
1000
0100
0010
0001
1000
0100
0010
0000
,
0001
0010
0100
0001
0100
1000
0010
0001
,
1000
0100
0010
1000
0100
0010
0001
0100
,
1001
0000
0000
0000
,
0000
0000
0000
0000
,
2000
0000
0000
0000
,
0000
0000
0000
3000
,
0020
0000
0000
0000
,
0000
0000
0000
0030
,
0002
0000
0000
0000
,
0000
0000
0000
0003
,
1000
1000
0000
0100
0100
0000
0000
0000
,
0000
0100
0010
0000
,
0010
0010
0000
1000
1000
0000
0000
0000
,
0000
0100
0010
0000
,
1000
1000
0000
0010
0010
0000
0000
0000
,
0000
0001
0100
0000
,
0010
0010
0000
1000
1000
0000
0000
0000
,
1000
0000
0000
0000
0001
0000
0000
0000
1000
0000
0001
0000
1000
0000
0000
0001
,
0010
0100
1000
0001
1000
0010
0100
0001
,
1000
0100
0010
0001
0010
1000
0010
0100
,
1000
0010
0100
0001
1000
0010
0100
0001
,
0100
0000
1000
0000
0100
0000
0010
0000
0001
0000
0010
0000
1000
0000
0000
0100
,
0010
0001
0100
1000
0100
0001
0010
0100
,
0001
0100
1000
0100
0010
0001
1000
0100
,
0001
1000
0010
0001
1000
0010
0100
0001
,
0010
0000
0100
0000
1000
0000
0100
0000
0001
0000
0100
0000
1000
0000
0000
0001
,
0010
1000
0010
0001
1000
0100
0010
0001
,
0100
0010
1000
0001
0100
0010
1000
0010
,
0001
0010
1000
0100
0010
0001
0010
1000
,
0010
0000
0001
0000
1000
0000
0001
0000
1000
0000
0100
0000
0010
0000
0000
0001
,
1000
0100
0010
0001
0010
1000
0001
0100
,
1000
0010
0100
0001
0100
0010
1000
0010
,
0001
0010
1000
0100
0001
0100
1000
0001
,
0100
0100
0010
0010
1000
1000
0001
0001
,
1000
0100
0000
0100
1000
0000
0010
0000
0100
0000
0001
0000
0010
0000
0000
0000
,
0001
0100
0010
1000
0100
0010
0001
0000
,
0010
0001
0100
1000
0100
0010
1000
0100
,
0010
0001
0100
0010
0001
0100
0010
0000
,
0001
0010
0000
0010
0100
0000
1000
0000
0010
0000
1000
0000
0100
0000
0000
0000
,
0001
0010
1000
0010
0001
0100
0010
0000
,
1000
0001
0100
1000
0100
0010
0001
0010
,
1000
0100
0010
0001
1000
0010
1000
0000
,
0001
0100
0000
0010
1000
0000
0001
0000
0010
0000
0100
0000
0001
0000
0000
0000
,
0100
0010
0001
1000
0100
0001
0100
0000
,
0100
1000
0100
0010
0100
0001
0010
0100
,
0010
1000
0010
0100
0010
0001
0010
0000
,
0010
0100
0000
0100
0001
0000
0010
0000
0001
0000
0010
0000
0001
0000
0010
0000
,
1001
0000
0000
0000
1000
0100
1000
0100
,
1001
0000
0001
0010
1001
0000
1000
0100
,
1001
0000
0010
0100
0010
0100
0010
0100
,
2002
0000
0000
0000
,
0000
0000
3003
0000
;
