#TITLE:Yerbatero;
#SUBTITLE:;
#ARTIST:Juanes;
#TITLETRANSLIT:;
#SUBTITLETRANSLIT:;
#ARTISTTRANSLIT:;
#GENRE:;
#CREDIT:;
#MENUCOLOR:;
#METERTYPE:DDR X;
#BANNER:[DDR Artists] - Yerbatero.png;
#BACKGROUND:[DDR Artists] - Yerbatero-bg.png;
#LYRICSPATH:;
#CDTITLE:;
#MUSIC:[DDR Artists] - Yerbatero.mp3;
#OFFSET:-0.300;
#SAMPLESTART:57.740;
#SAMPLELENGTH:15.000;
#SELECTABLE:YES;
#LISTSORT:;
#BPMS:0.000=96.020;
#STOPS:;
#BGCHANGES:0.000=[DDR Artists] - Yerbatero.avi=1.000=0=0=1,
99999=-nosongbg-=1.000=0=0=0 // don't automatically add -songbackground-
;
#ATTACKS:;

//---------------dance-single - ----------------
#NOTES:
     dance-single:
     :
     Hard:
     9:
     0.649,0.575,0.177,0.242,0.907:
1000
0000
0000
0000
0000
0000
0100
0000
1000
0000
0100
0000
1000
0000
0000
0000
0000
0000
1000
0000
0010
0000
1000
0000
0020
0000
0000
0000
0000
0000
0000
0000
0000
0130
0000
0000
0000
0000
0000
0000
0000
0000
0100
0000
0000
0001
0000
0000
,
0100
0000
0000
0000
0000
0000
0001
0000
0010
0000
0001
0000
0010
0000
0000
0000
0000
0000
0010
0000
0100
0000
0010
0000
0200
0000
0000
0000
0000
0000
0000
0000
0000
1300
0000
0000
0000
0000
0000
1000
0000
0000
0100
0000
0000
0010
0000
0000
,
0001
0000
0000
0000
0000
0000
1000
0000
0000
0000
0000
0000
0001
0000
0100
0000
0001
0000
0100
0000
0000
0000
0000
0000
0020
0000
0000
0000
0000
0000
0000
0000
0000
1030
0000
0000
0000
0000
0000
0000
0000
0000
0000
0000
0000
0000
0000
0000
,
1000
0000
0000
0000
0000
0000
0001
0000
0000
0000
0000
0000
1000
0000
0100
0000
1000
0000
0100
0000
0000
0000
0000
0000
0020
0000
0000
0000
0000
0000
0000
0000
0000
0031
0000
0000
0000
0000
0000
0000
0000
0000
0010
0000
0000
0001
0000
0000
,
0010
0000
0000
0000
0000
0000
0001
0000
0100
0000
0010
0000
0100
0000
0000
0000
0000
0000
0100
0000
0010
0000
0100
0000
0002
0000
0000
0000
0000
0000
0000
0000
0000
1003
0000
0000
0000
0000
0000
0000
0000
0000
0010
0000
0000
1000
0000
0000
,
0010
0000
0000
0000
0000
0000
1000
0000
0100
0000
0010
0000
0100
0000
0000
0000
0000
0000
0100
0000
0010
0000
0100
0000
2000
0000
0000
0000
0000
0000
0000
0000
0000
3001
0000
0000
0000
0000
0000
0001
0000
0000
1000
0000
0000
0100
0000
0000
,
0010
0000
0010
0100
0000
0001
1000
0100
0010
0000
0010
0100
0000
0001
1000
0100
,
0010
0100
0010
0100
0010
0100
0010
0100
0110
0000
0000
0000
0000
0000
0000
1000
,
0001
0100
0001
0010
0100
1000
0100
1000
0010
1000
0010
0100
0001
0100
0010
1000
,
0100
0000
1100
0000
0000
1000
0001
0100
0001
0000
0101
0000
0000
0000
0010
0000
,
1100
0000
0000
0000
0000
0000
0000
0000
0000
0000
0000
0000
0000
0000
0000
0000
0000
0000
0000
0000
0000
1000
0000
0000
0001
0000
0000
0000
0100
0000
0000
0000
0010
0000
0000
0000
1000
0000
0000
0000
0100
0000
0000
0000
0010
0000
0000
0000
,
0001
0000
1000
0001
0000
0000
0000
0000
0000
0010
0000
1000
0000
0001
0100
0000
,
0001
0000
1000
0000
0100
1000
0100
0000
1000
0000
0010
0000
1000
0010
1000
0000
0001
0000
0000
0000
0000
0000
0001
0000
1000
0000
0100
0000
0010
0000
0100
0000
,
1000
0000
0001
0000
0000
0001
1000
0100
1000
0000
0010
0000
1000
0000
0100
0000
,
0010
0000
0000
0100
0000
1000
0001
0000
0010
0000
0000
0001
0000
0001
0000
1000
,
0000
2000
0000
0000
0000
0000
0000
0000
0000
0000
0001
0000
0001
0000
3001
0000
,
1001
0000
0000
1001
0000
1000
0100
0010
0001
0000
0000
1000
0001
0000
0100
0000
,
0110
0000
0101
0000
0000
0001
0100
0010
1000
0000
0000
0100
0000
0100
0000
0100
,
0110
0000
1100
0000
0000
1000
0100
0010
0001
0000
1000
0000
0100
0000
0010
0000
,
0001
0000
1001
0000
0000
0001
0100
0010
1000
0000
0100
0000
1000
0000
0100
0000
,
1100
0000
0000
0000
0000
0000
0000
0000
0000
0000
1000
0000
0100
0000
1000
0000
0002
0000
0000
0000
0000
0000
0013
0000
0000
0000
0100
0000
0000
0000
1000
0100
,
1000
0000
0001
0000
0000
1000
0001
0010
0100
0000
1000
0000
0100
0000
0010
0000
,
0002
2003
3200
0320
,
0130
1000
0100
0010
0001
0000
0101
0000
0100
0001
0100
0010
1000
0000
1010
0000
,
1000
0100
0010
0001
0010
0100
1000
0001
1000
0001
0010
0100
1000
0000
0000
0000
,
0010
1000
0010
0100
0001
0000
0011
0000
0010
0001
0010
0100
1000
0000
1010
0000
,
1000
0100
0010
0001
0010
0100
0010
0100
1000
0001
0010
0100
1000
0000
0000
0001
,
0001
1000
1000
0100
0100
0000
0010
0001
0100
0001
0100
0001
0100
0000
0000
0000
,
0010
1000
0100
0001
0100
1000
0100
0010
0001
0100
0010
1000
0100
0000
0000
1000
,
1000
0001
0100
0001
0010
0100
1000
1000
0001
0100
0001
0010
0100
0000
0000
0000
,
1000
0001
1000
0001
0010
0100
0010
0100
1000
0100
0010
0001
1000
0000
0000
0000
,
1001
0000
0000
0000
0000
0000
0000
0000
0000
0001
0000
0000
0000
0000
0000
0000
0000
0000
1000
0000
0000
0100
0000
0000
1000
0000
0000
0000
0000
0000
0010
0000
1000
0000
0010
0000
1000
0000
0000
0000
0000
0000
1000
0000
0001
0000
1000
0000
,
0001
0000
0000
0000
0000
0000
0000
0000
0000
1000
0000
0000
0000
0000
0000
1000
0000
0000
0100
0000
0000
0010
0000
0000
0001
0000
0000
0000
0000
0000
0100
0000
0000
0000
0000
0000
0010
0000
1000
0000
0010
0000
1000
0000
0000
0000
0000
0000
,
0002
0000
0000
0000
0000
0000
0000
0000
0000
0103
0000
0000
0000
0000
0000
0000
0000
0000
0000
0000
0000
0000
0000
0000
1000
0000
0000
0000
0000
0000
0001
0000
0000
0000
0000
0000
0100
0000
0001
0000
0100
0000
0001
0000
0000
0010
0000
0000
,
0100
0000
0000
0000
0000
0000
0000
0000
0000
0000
0000
0000
0000
0000
0000
0000
0000
0000
0100
0000
0000
0000
0000
0000
0000
0000
0000
0000
0000
0000
0000
0000
0000
0000
0000
0000
0100
0000
0000
0000
0000
0000
0000
0000
0000
0000
0000
0000
0010
0000
0000
0000
0000
0000
0000
0000
0000
0000
0000
0000
0001
0000
0000
0000
0000
0000
0000
0000
0000
0000
0000
0000
0010
0000
0000
0000
0000
0000
0000
0000
0000
0000
0000
0000
0001
0000
0000
0000
0000
0000
0000
0000
0000
0000
0000
0000
0010
0000
0000
0000
0000
0000
0000
0000
0000
0000
0000
0000
0000
0000
0000
0000
0000
0000
0000
0000
0000
0000
0000
0000
0001
0000
0000
0000
0000
0000
0000
0000
0010
0000
0000
0000
0000
0000
0000
0000
0100
0000
0000
0000
0000
0000
0000
0000
1000
0000
0000
0000
0000
0000
0000
0000
0000
0000
0000
0000
0000
0000
0000
0000
0000
0000
0000
0000
0000
0000
0000
0000
1000
0000
0000
0000
0000
0000
0000
0000
0100
0000
0000
0000
0000
0000
0000
0000
0010
0000
0000
0000
0000
0000
0000
0000
,
0002
0000
0000
0000
0000
0000
0000
0000
0000
1003
0000
0000
0000
0000
0000
0000
0000
0000
1000
0000
0000
0001
0000
0000
0100
0000
0000
0000
0000
0000
0100
0000
0001
0000
0010
0000
0001
0000
0000
0000
0000
0000
0001
0000
0010
0000
0100
0000
,
2000
0000
0000
3001
0000
1000
0001
0010
0100
0000
1000
0100
0000
1000
0001
0010
,
0100
0000
1000
0100
0000
1000
0001
0010
0100
1000
0100
1000
0100
1000
0100
1000
,
0200
0320
0032
2003
3002
1003
0000
0000
,
0000
0000
0000
0000
0000
0000
1000
0001
0100
0001
0100
0001
0000
0000
0000
0000
,
0000
0200
0320
2030
3002
1003
0000
0000
,
0000
0000
0000
0000
0000
1000
0100
0000
0010
0001
0100
0010
1000
0000
1000
0001
,
0100
0020
2030
3100
0011
0011
0000
0000
;

//---------------dance-single - ----------------
#NOTES:
     dance-single:
     :
     Medium:
     6:
     0.338,0.357,0.242,0.037,0.102:
0000
0000
0000
0000
0000
0010
0000
0010
,
0000
0100
0000
0100
0000
0010
0000
0010
,
0000
0100
0000
0100
0000
0010
0000
0010
,
0000
0100
0000
0001
0000
1000
0000
0010
,
1000
0001
1001
1100
,
0001
1000
1001
0101
,
1000
0000
0000
1000
0000
0000
0000
0000
0001
0000
0000
0001
0000
0000
0000
0000
,
0100
0010
0100
0010
0100
0000
0000
0000
,
1000
0010
0100
0010
1000
0100
0010
0100
,
1000
1000
0000
0001
0001
0001
0000
1000
,
1000
0000
0000
0000
0000
0000
0010
0001
0100
0001
0010
0001
,
0100
0000
0000
0000
0000
0000
0000
0000
0000
1000
0000
0001
0000
0000
1000
0000
,
0100
0010
0001
0001
1000
0000
1000
1000
,
0001
0001
0000
0010
0100
0010
0001
1000
,
0001
0000
0000
0100
0000
0000
0000
0000
0010
0000
0000
1000
0000
0000
0000
0100
,
0000
0100
0000
0000
0000
0000
0000
0000
0000
0000
0010
0000
0001
0000
0010
0000
,
0110
0110
0000
0000
1100
0000
0101
0000
,
0110
0110
0000
0000
0011
0000
1010
0000
,
0110
0110
0000
0000
0101
0000
1100
0000
,
0110
0110
0000
0000
1010
0000
0011
0000
,
1001
0000
0000
0000
0000
0000
0000
0000
1000
0000
0000
0100
0000
0010
0000
0000
,
0001
1000
0000
1000
0100
0010
0100
1000
,
0002
2003
3200
0320
,
0031
0100
1000
0000
1000
0010
0001
0000
,
0001
0100
1000
0010
0001
0100
1000
0000
,
1000
0100
0001
0000
0001
0010
1000
0000
,
1000
0100
0001
0010
1000
0100
0001
0000
,
0001
0100
0001
0100
1000
0100
1000
0000
,
1000
0010
1000
0010
0001
0010
0001
0000
,
1000
0100
1000
0100
0001
0100
0001
0100
,
0001
0010
0001
0010
1000
0010
1000
0000
,
0001
0000
0000
0001
0000
0000
1000
0000
1000
0000
0100
0000
0100
0000
0000
0000
,
1000
0000
0000
1000
0000
0000
0001
0000
0001
0000
0100
0000
0100
0000
0000
0000
,
0010
0000
0000
1000
0000
0000
0000
0000
1000
0000
1000
0000
0100
0000
0100
0000
,
0010
0000
0000
0001
0000
0000
1000
0000
1000
0000
0001
0000
0100
0000
0001
0000
,
1000
0000
0000
1000
0000
0000
0001
0000
0001
0000
1000
0000
0100
0000
1000
0000
,
0001
0000
0000
0001
0000
0000
1000
0000
0010
0000
0000
0010
0000
0000
1000
0000
,
0100
0000
0000
0100
0000
0000
1000
0000
0010
0000
0100
0000
0010
0000
0100
0000
,
0110
0000
1001
0000
,
0000
0000
0000
0000
1000
0001
1000
0000
,
0000
0100
0010
0100
0110
0000
0000
0000
,
0000
0000
0000
0000
,
0000
0010
0100
0010
0110
0110
0000
0000
;

//---------------dance-single - ----------------
#NOTES:
     dance-single:
     :
     Easy:
     5:
     0.242,0.260,0.233,0.093,0.000: // measure 1
0000
0000
0000
0000
0000
1000
0000
1000
,  // measure 2
0000
0001
0000
0001
0000
0010
0000
0010
,  // measure 3
0000
0100
0000
0100
0000
1000
0000
0001
,  // measure 4
0000
0010
0000
0100
0000
0010
0000
0100
,  // measure 5
0100
1000
0001
0100
,  // measure 6
0010
1000
0001
0010
,  // measure 7
0200
1300
2000
3001
,  // measure 8
0002
0100
0103
0000
,  // measure 9
0010
1000
0001
0100
,  // measure 10
0010
0000
1010
0000
,  // measure 11
0011
0000
0001
0010
,  // measure 12
0100
1000
0100
0010
,  // measure 13
0001
0001
1000
1000
,  // measure 14
0010
1000
0001
0010
,  // measure 15
0100
0110
0010
0110
,  // measure 16
1000
1000
0001
0001
,  // measure 17
0101
0000
0000
0101
0000
0000
0000
0000
,  // measure 18
1100
0000
0000
1100
0000
0000
0000
0000
,  // measure 19
1010
0000
0000
1010
0000
0000
0000
0000
,  // measure 20
0011
0000
0000
0011
0000
0000
0000
0000
,  // measure 21
1001
0000
0000
1001
0000
0000
0000
0000
,  // measure 22
0110
0000
0000
0110
0000
0000
0000
0000
,  // measure 23
2000
3200
0320
0032
,  // measure 24
1003
1000
0001
0001
,  // measure 25
0010
0100
1000
0001
,  // measure 26
1000
0010
1000
0010
,  // measure 27
0100
0001
0100
0001
,  // measure 28
1000
1000
0010
0010
,  // measure 29
0100
0001
1000
0100
,  // measure 30
0010
0010
0001
0001
,  // measure 31
1000
0100
0010
0001
,  // measure 32
1001
1000
0010
1000
,  // measure 33
1001
0001
0010
0001
,  // measure 34
0110
0100
1000
0100
,  // measure 35
0110
0010
0001
0010
,  // measure 36
1001
1000
0100
1000
,  // measure 37
1001
0001
0100
0001
,  // measure 38
2000
3100
2000
3010
,  // measure 39
0002
1000
1003
0000
,  // measure 40
1001
0000
0000
0000
,  // measure 41
0010
0010
0000
0100
,  // measure 42
0110
0000
0000
0000
,  // measure 43
1000
0100
0001
0100
,  // measure 44
1100
0000
0000
0000
;
