#TITLE:Underground;
#SUBTITLE:;
#ARTIST:Sanxion7;
#TITLETRANSLIT:;
#SUBTITLETRANSLIT:;
#ARTISTTRANSLIT:;
#CREDIT:;
#BANNER:undergroundbanner.png;
#BACKGROUND:;
#LYRICSPATH:;
#CDTITLE:;
#MUSIC:Underground.mp3;
#OFFSET:-7.460;
#SAMPLESTART:59.130;
#SAMPLELENGTH:12.000;
#SELECTABLE:YES;
#BPMS:0.000=130.000;
#STOPS:;
#BGCHANGES:;

//---------------dance-single - ----------------
#NOTES:
     dance-single:
     :
     Beginner:
     1:
     0.108,0.117,0.011,0.000,0.000: // measure 1
0000
1000
0000
1000
,  // measure 2
0000
0001
0000
0001
,  // measure 3
0000
0100
0000
0100
,  // measure 4
0000
0000
0000
0000
,  // measure 5
0000
1000
0000
1000
,  // measure 6
0000
0001
0000
0001
,  // measure 7
0000
0100
0000
0100
,  // measure 8
0000
0010
0000
0010
,  // measure 9
0000
1000
0000
1000
,  // measure 10
0000
0010
0000
0010
,  // measure 11
0000
0100
0000
0100
,  // measure 12
0000
0001
0000
0001
,  // measure 13
0001
0000
0100
0000
,  // measure 14
0001
0000
0100
0000
,  // measure 15
0010
0000
1000
0000
,  // measure 16
0010
0000
1000
0000
,  // measure 17
0001
0000
0010
0000
,  // measure 18
0001
0000
0010
0000
,  // measure 19
0100
0000
1000
0000
,  // measure 20
0100
0000
0000
0000
,  // measure 21
0100
0000
0000
0000
,  // measure 22
0010
0000
0000
0000
,  // measure 23
0100
0000
0000
0000
,  // measure 24
0010
0000
0000
0000
,  // measure 25
1000
0000
0000
0000
,  // measure 26
0001
0000
0000
0000
,  // measure 27
1000
0000
0000
0000
,  // measure 28
0001
0000
0000
0000
,  // measure 29
1000
0000
1000
0000
,  // measure 30
1000
0000
0000
0000
,  // measure 31
0010
0000
0010
0000
,  // measure 32
0010
0000
0000
0000
,  // measure 33
0100
0000
0100
0000
,  // measure 34
0100
0000
0000
0000
,  // measure 35
0001
0000
0001
0000
,  // measure 36
0001
0000
0000
0000
,  // measure 37
0010
0000
0010
0000
,  // measure 38
0010
0000
0000
0000
,  // measure 39
0100
0000
0100
0000
,  // measure 40
0100
0000
0000
0000
,  // measure 41
1000
0000
1000
0000
,  // measure 42
1000
0000
0000
0000
,  // measure 43
0001
0000
0001
0000
,  // measure 44
0001
0000
0000
0000
,  // measure 45
1001
0000
0000
0000
;

//---------------dance-single - ----------------
#NOTES:
     dance-single:
     :
     Easy:
     4:
     0.247,0.280,0.053,0.138,0.000:
1000
0001
0000
0001
,
1000
0001
0000
0100
,
0010
0100
0000
0010
,
0100
0000
0000
0000
,
0001
0100
0010
1000
,
0010
0100
0001
0000
,
0010
0001
0100
1000
,
0100
0001
0010
0000
,
0001
0100
0010
1000
,
0010
0100
0001
0000
,
0010
1000
0100
1000
,
0010
0100
0001
0000
,
0010
0001
0100
0010
,
1000
0001
0010
0000
,
0010
0001
0100
0010
,
1000
0001
0100
0000
,
0100
0001
0010
0100
,
1000
0010
0100
0000
,
0100
0010
1000
0001
,
0010
0000
0000
0010
,
0020
0000
0032
0000
,
0203
0000
0320
0000
,
2030
0000
3200
0000
,
2300
0000
3020
0000
,
0230
0000
0302
0000
,
0023
0000
0230
0000
,
2300
0000
3001
0000
,
1001
1001
1001
1001
,
1000
0010
0100
0001
,
0010
0001
0100
0100
,
0010
1000
0100
1000
,
0010
0100
0001
0001
,
0010
0001
0100
0010
,
1000
0100
0010
0010
,
0100
1000
0010
0100
,
0001
0010
1000
1000
,
0100
1000
0010
0100
,
0001
0010
0001
0100
,
0001
0010
0100
1000
,
0010
0100
0001
0000
,
0001
0010
0001
0100
,
0010
0100
1000
0100
,
1000
0010
0100
0001
,
0010
0000
0100
0000
,
1001
0000
0000
0000
;

//---------------dance-single - ----------------
#NOTES:
     dance-single:
     :
     Medium:
     6:
     0.377,0.373,0.255,0.000,0.000:
1000
1100
0001
0100
,
0001
0011
0010
0100
,
1000
1100
1000
0010
,
0110
0000
0000
0010
,
1000
0000
0100
0000
0001
0100
0010
0000
,
1000
0000
0001
0000
0010
0100
1000
0000
,
0100
0000
0010
0000
0001
0100
1000
0000
,
0100
0000
0010
0000
0001
0100
0010
0000
,
1000
0000
0100
0000
0001
0100
1000
0000
,
0010
0000
0001
0000
0010
1000
0010
0000
,
0100
0000
0001
0000
0010
0100
0010
0000
,
0001
0000
0100
0000
0010
1000
0001
0000
,
0010
0000
1100
0000
0010
0001
0100
0000
,
0010
0000
0101
0000
0010
1000
0100
0000
,
0100
0000
0110
0000
0010
0001
0100
0000
,
0010
0000
1010
0000
1000
0100
0010
0001
,
0100
0000
0110
0000
0010
1000
0001
0000
,
0010
0000
0011
0000
0001
0100
0010
0000
,
1000
0000
1100
0000
0100
0010
0001
0000
,
0100
0000
0000
0010
,
1000
0000
0100
0000
0001
0100
1000
0000
,
0010
0000
0001
0000
0010
1000
0100
0000
,
0001
0000
0010
0000
0001
0100
1000
0000
,
0010
0000
0100
0000
0001
0010
0100
0000
,
1000
0000
0001
0000
0100
0010
1000
0000
,
0010
0000
0001
0000
0100
1000
0100
0000
,
0001
0000
0010
0000
1000
0100
0001
0000
,
0101
0101
1010
1010
,
0010
0000
1000
0001
0100
0010
0100
0000
,
0001
0000
0010
0100
1000
0100
0010
0000
,
0001
0000
0100
1000
0100
0001
0010
0000
,
0100
0000
1000
0010
0001
0010
1000
0000
,
0010
0000
0100
0001
0010
0100
1000
0000
,
0100
0000
0010
0001
0100
0010
1000
0000
,
0001
0000
0010
0100
0010
0001
0100
0000
,
0010
0000
1000
0000
0100
0010
0100
0000
,
1001
0000
0110
0000
0010
1000
0100
0001
,
0100
0000
0110
0000
0010
1000
0100
0010
,
0100
0000
1100
0000
1000
0010
0100
0001
,
0010
0000
0011
0000
0001
0100
0010
1000
,
0001
0000
0101
0000
0001
0010
0100
1000
,
0010
0000
1010
0000
0010
0001
0100
0010
,
1000
0000
1100
0000
0100
0010
0001
0100
,
0010
0100
0001
1000
,
1001
0000
0000
0000
;

//---------------dance-single - ----------------
#NOTES:
     dance-single:
     :
     Hard:
     8:
     0.508,0.443,0.138,0.053,0.154:
0010
0000
1100
0000
0010
0001
0100
0000
,
0010
0000
0101
0000
0010
1000
0100
0000
,
0011
0000
0101
0000
0010
1000
0100
0000
,
0002
0000
0000
1003
,
0010
1000
0100
0010
0100
1000
0001
0000
,
0100
0010
1000
0001
0010
0100
1000
0000
,
0010
0100
0001
0010
0001
0100
0010
0000
,
1000
0100
0001
0010
0100
1000
0010
0000
,
0100
0010
1000
0001
0010
0100
1000
0000
,
0010
0001
0100
0010
1000
0001
0010
0000
,
0001
0100
1000
0100
0001
0010
1000
0010
,
0001
0100
0010
1000
0001
0010
0100
0000
,
1000
0100
0010
0001
0100
0010
1000
0000
,
0010
0100
0001
0010
0100
1000
0100
0000
,
0010
0001
0100
1000
0010
0100
0001
0000
,
0010
0100
1000
0001
0100
0010
0100
0000
,
0001
0010
0100
1000
0100
0010
0001
0000
,
1000
0010
0100
0001
0010
0100
1000
0000
,
0010
1000
0100
0001
0010
0100
1000
0000
,
0001
0100
0010
1010
,
1001
0000
0001
0100
1000
0100
0001
0000
,
0010
0100
1000
0001
0100
0000
0110
0000
,
0010
1000
0100
0000
0020
0000
0032
0000
,
0103
0010
1000
0001
0010
0100
1000
0000
,
1010
0000
1000
0100
0010
0100
1000
0000
,
0001
0100
0010
0100
0001
0000
0011
0000
,
0010
0100
1000
0001
0200
0000
0320
0000
,
0130
1100
0011
1001
,
0001
0000
0100
0000
0010
0000
1000
0100
0000
0100
1000
0000
0010
0000
0100
0000
,
0001
0000
0010
0000
0100
0000
0010
0001
0000
0001
0010
0000
0100
0000
1000
0000
,
0001
0000
0100
0000
0010
0000
1000
0100
0000
0100
1000
0000
0010
0000
0100
0000
,
0001
0000
0010
0000
0100
0000
1000
0010
0000
0010
1000
0000
0001
0000
0010
0000
,
0100
0000
1000
0000
0010
0000
0100
0001
0000
0001
0100
0000
0010
0000
1000
0000
,
0001
0000
0010
0000
0001
0000
0100
0010
0000
0010
0100
0000
0001
0000
0010
0000
,
0100
0000
1000
0000
0100
0000
0010
0001
0000
0001
0010
0000
0100
0000
1000
0000
,
0001
0000
0100
0000
0010
0000
1000
0100
0000
0100
1000
0000
0010
0000
0100
0000
,
0001
0000
0010
0000
0100
0000
1000
0010
0000
1000
0010
0000
0100
0000
0001
0000
,
0010
0000
0100
0000
1000
0000
0100
0010
0100
0000
1000
0000
0001
0000
0100
0000
,
0010
0000
1000
0000
0001
0000
0010
0100
0000
1000
0001
0000
0100
0000
0010
0000
,
1000
0000
0001
0000
0010
0000
0100
1000
0100
0000
0010
0000
0001
0000
0100
0000
,
0010
0000
1000
0000
0001
0000
0010
0001
0000
0100
0010
0000
1000
0000
0001
0000
,
0010
0000
0100
0000
1000
0000
0010
1000
0010
0000
0100
0000
0001
0000
0010
0000
,
0100
0000
1000
0000
0100
0000
0010
0001
0000
0100
0001
0000
0010
0000
0100
0000
,
1000
0000
0001
0000
0100
0000
0010
0100
0000
0100
0010
0000
1000
0000
0000
0000
,
1001
0000
0000
0000
;
