#TITLE:Tryhard;
#SUBTITLE:;
#ARTIST:NOISIA;
#TITLETRANSLIT:;
#SUBTITLETRANSLIT:;
#ARTISTTRANSLIT:;
#GENRE:;
#CREDIT:;
#BANNER:Tryhard-banner.png;
#BACKGROUND:Tryhard-bg.png;
#LYRICSPATH:;
#CDTITLE:cdtitle.png;
#MUSIC:Tryhard.mp3;
#OFFSET:-0.020;
#SAMPLESTART:44.660;
#SAMPLELENGTH:12.000;
#SELECTABLE:YES;
#BPMS:0.000=172.000
;
#STOPS:
;
#BGCHANGES:;
#KEYSOUNDS:;
#ATTACKS:;

//---------------dance-single - Rygon----------------
#NOTES:
     dance-single:
     :
     Hard:
     9:
     0.599,0.662,0.590,0.697,0.281,300.000,61.000,72.000,0.000,0.000,0.000,0.599,0.662,0.590,0.697,0.281,300.000,61.000,72.000,0.000,0.000,0.000:
0000
0000
0000
0000
,
0000
0000
0000
0000
,
0000
0000
0000
0000
,
0000
0000
0000
0000
,
0020
1000
0000
1000
,
0000
0100
0000
0230
,
0010
0001
0000
0001
,
0000
0010
0000
0310
,
1000
0000
0000
0101
0000
0000
0011
0000
,
0100
0000
0000
1100
0000
0000
0101
0000
,
1000
0000
0000
0011
0000
0000
1100
0000
,
0010
0000
0000
0101
0000
0000
1001
0000
,
1000
0100
0010
0001
,
0010
0100
1000
0001
0100
1000
0100
0001
,
0102
1000
0000
1000
,
0000
1000
0000
1000
,
1003
0000
0000
0000
0210
0000
0000
0302
0000
0000
0013
0000
0100
0000
0000
0000
,
0010
0000
0000
0000
0012
0000
0000
1003
0000
0001
0000
0000
1000
0000
0000
0000
,
0001
0000
0000
0000
0210
0000
0000
2300
0000
0000
3010
0000
0100
0000
0000
0000
,
0010
0000
0000
0000
2010
0000
0000
3001
0000
1000
0000
0000
0002
0000
0000
0000
,
1003
0000
0000
0000
0120
0000
0000
0032
0000
0000
0103
0000
0010
0000
0000
0000
,
0100
0000
0000
0000
0102
0000
0000
1003
0000
0001
0000
0000
1000
0000
0000
0000
,
0001
0000
0000
0000
0120
0000
0000
2030
0000
0000
3100
0000
0010
0000
0000
0000
,
0100
0000
0000
0000
2100
0000
0000
3001
0000
1000
0000
0000
0002
0000
0000
0000
,
1003
0000
0100
0000
0020
0000
0000
0032
0000
0000
0103
0000
0010
0000
0000
0000
,
0100
0000
0001
0000
0020
0000
0000
0130
0000
1000
0000
0000
1001
0000
0000
0000
,
0001
0000
0100
0000
0020
0000
0000
2030
0000
0000
3100
0000
0010
0000
0000
0000
,
0100
0000
1000
0000
0020
0000
0000
0130
0000
0001
0000
0000
1001
0000
0000
0000
,
1000
0000
0100
0000
0002
0000
0000
0203
0000
0000
1300
0000
0010
0000
0000
0000
,
0100
0000
0001
0000
0020
0000
0000
0130
0000
1000
0000
0000
1001
0000
0000
0000
,
0200
0000
0310
0000
1000
0100
0000
0001
,
0100
0000
1000
0001
0010
0100
1100
0000
,
0010
0000
0000
0000
0012
0000
0000
2003
0000
0000
3010
0000
0101
0000
0000
0000
,
0001
0000
0000
0000
1200
0000
0000
0310
0000
0001
0000
0000
1100
0000
0000
0000
,
0010
0000
0000
0000
0012
0000
0000
2003
0000
0000
3100
0000
0011
0000
0000
0000
,
0001
0000
0000
0000
1020
0000
0000
0130
0000
0001
0000
0000
2100
0000
0000
0000
,
3001
0000
0000
0000
0102
0000
0000
2003
0000
0000
3100
0000
0011
0000
0000
0000
,
0001
0000
0000
0000
1020
0000
0000
0130
0000
0001
0000
0000
1010
0000
0000
0000
,
0100
0000
0000
0000
0102
0000
0000
0023
0000
0000
2030
0000
0000
3002
0000
0000
,
0203
0000
0000
2300
0000
0000
3020
0000
0000
0130
0000
0000
1001
0000
0000
0000
,
0010
0000
0000
0000
2010
0000
0000
3002
0000
0000
0013
0000
1100
0000
0000
0000
,
1000
0000
0000
0000
0201
0000
0000
0310
0000
1000
0000
0000
0101
0000
0000
0000
,
0010
0000
0000
0000
2010
0000
0000
3002
0000
0000
0103
0000
1010
0000
0000
0000
,
1000
0000
0000
0000
0021
0000
0000
0130
0000
1000
0000
0000
0102
0000
0000
0000
,
1003
0000
0000
0000
2100
0000
0000
3002
0000
0000
0103
0000
1010
0000
0000
0000
,
1000
0000
0000
0000
0021
0000
0000
0130
0000
1000
0000
0000
0011
0000
0000
0000
,
1200
0020
0000
0000
,
0000
0000
0000
0300
,
0031
0000
0000
0000
0001
0000
0000
0000
0001
0010
0000
0000
0001
0000
0000
0000
,
1000
0000
0000
0000
1000
0000
0000
0010
1000
0010
0000
0000
1000
0000
0000
0000
,
0001
0000
0000
0000
0001
0000
0000
0000
0001
0100
0000
0000
0001
0000
0000
0000
,
1000
0000
0000
0000
1000
0000
0000
0100
1000
0100
0000
0000
1000
0000
0000
0000
,
0001
0010
0100
1000
0001
0010
0100
1000
,
0010
0100
0001
1000
0100
0010
0001
0100
,
0020
2000
0000
0000
,
0000
0000
0000
0030
,
3001
0000
0000
0000
0021
0000
0000
0230
0000
0000
1300
0000
1010
0000
0000
0000
,
0010
0000
0000
0000
0102
0000
0000
1003
0000
0100
0000
0000
0110
0000
0000
0000
,
0001
0000
0000
0000
1020
0000
0000
0230
0000
0000
0301
0000
0011
0000
0000
0000
,
0100
0000
0000
0000
2100
0000
0000
3001
0000
1000
0000
0000
1001
0000
0000
0000
,
1000
0000
0000
0000
1020
0000
0000
0230
0000
0000
0301
0000
0011
0000
0000
0000
,
0010
0000
0000
0000
2100
0000
0000
3001
0000
0100
0000
0000
0110
0000
0000
0000
,
0020
0000
0130
0000
0001
0010
0000
1000
,
0010
0000
0001
0100
0010
1000
1001
0000
,
0002
1000
0000
1000
,
0000
0010
0000
0023
,
0100
1000
0000
1000
,
0000
0001
0000
0032
,
0010
0100
0000
1000
,
0000
0010
0000
2003
,
0010
0100
0000
0010
,
0000
0001
0000
0100
,
3100
0000
0000
0000
;

//---------------dance-single - Rygon----------------
#NOTES:
     dance-single:
     :
     Medium:
     7:
     0.366,0.488,0.271,0.136,0.087,223.000,28.000,14.000,0.000,0.000,0.000,0.366,0.488,0.271,0.136,0.087,223.000,28.000,14.000,0.000,0.000,0.000:
0000
0000
0000
0000
,
0000
0000
0000
0000
,
0000
0000
0000
0000
,
0000
0000
0000
0000
,
0000
1000
0000
1000
,
0000
0010
0000
0010
,
0000
0100
0000
0100
,
0000
0001
0000
0001
,
1000
0000
0000
0001
0000
0000
0011
0000
,
0010
0000
0000
0100
0000
0000
1100
0000
,
1000
0000
0000
0010
0000
0000
0110
0000
,
0100
0000
0000
0001
0000
0000
1001
0000
,
1000
1000
0001
0001
,
0100
0010
0100
0010
1000
0001
1000
0000
,
0001
0020
0030
0020
,
0030
0020
0030
0020
,
0130
0000
1000
0000
0000
1000
0001
0000
,
0100
0000
0001
0000
0000
0001
1000
0000
,
0010
0000
0100
0000
0000
0100
0001
0000
,
0001
0000
1000
0000
0000
1000
0100
0000
,
0010
0000
0001
0000
0000
0001
1000
0000
,
0010
0000
1000
0000
0000
1000
0001
0000
,
1000
0000
0100
0000
0000
0010
0100
0000
,
1000
0000
0001
0000
0000
0100
0001
0000
,
0000
0000
1100
0000
0000
1000
0001
0000
,
0000
0000
0101
0000
0000
0001
1000
0000
,
0000
0000
1010
0000
0000
0010
0100
0000
,
0000
0000
0101
0000
0000
0001
0010
0000
,
0000
0000
1100
0000
0000
0010
0001
0000
,
0000
0000
0101
0000
0000
0010
1000
0000
,
0001
2000
0000
0000
,
0000
0000
0000
3001
,
1000
0000
0000
0000
0001
0000
0000
0100
0000
0000
0000
0000
0110
0000
0000
0000
,
0010
0000
0000
0000
1000
0000
0000
0001
0000
0000
0000
0000
1001
0000
0000
0000
,
0001
0000
0000
0000
1000
0000
0000
0100
0000
0000
0000
0000
0110
0000
0000
0000
,
0010
0000
0000
0000
0001
0000
0000
1000
0000
0000
0000
0000
1001
0000
0000
0000
,
1000
0000
0000
0000
0001
0000
0000
0010
0000
0000
0000
0000
0110
0000
0000
0000
,
0100
0000
0000
0000
1000
0000
0000
0001
0000
0000
0000
0000
1001
0000
0000
0000
,
0001
2000
0000
0001
,
0000
0001
0000
3001
,
1000
0000
0000
0000
0010
0000
0000
0100
0000
0000
0000
0000
0101
0000
0000
0000
,
0001
0000
0000
0000
0010
0000
0000
0100
0000
0000
0000
0000
1100
0000
0000
0000
,
1000
0000
0000
0000
0100
0000
0000
0010
0000
0000
0000
0000
0011
0000
0000
0000
,
0001
0000
0000
0000
0100
0000
0000
0010
0000
0000
0000
0000
1010
0000
0000
0000
,
1000
0000
0000
0000
0001
0000
0000
0010
0000
0000
0000
0000
0110
0000
0000
0000
,
1000
0000
0000
0000
0001
0000
0000
0100
0000
0000
0000
0000
0110
0000
0000
0000
,
2000
0002
0000
0000
,
0000
0000
0000
3000
,
1003
1000
1000
1000
,
0001
0001
0001
0001
,
1000
1000
1000
1000
,
0001
0001
0001
0001
,
0100
0010
0100
0000
0001
0100
0001
0000
,
1000
0100
1000
0100
0010
0001
0010
0001
,
2000
0200
0000
0000
,
0000
0000
0000
3000
,
1300
0000
0000
0000
0001
0000
0000
0010
0000
0000
0000
0000
0110
0000
0000
0000
,
0100
0000
0000
0000
1000
0000
0000
0001
0000
0000
0000
0000
1001
0000
0000
0000
,
0001
0000
0000
0000
1000
0000
0000
0010
0000
0000
0000
0000
0110
0000
0000
0000
,
0100
0000
0000
0000
0001
0000
0000
1000
0000
0000
0000
0000
1001
0000
0000
0000
,
1000
0000
0000
0000
0001
0000
0000
0100
0000
0000
0000
0000
0110
0000
0000
0000
,
0010
0000
0000
0000
1000
0000
0000
0001
0000
0000
0000
0000
1001
0000
0000
0000
,
0001
0000
1000
0000
1000
0100
0000
0100
,
0010
0000
0010
0001
0000
0001
1000
0000
,
0020
0000
0000
0100
,
0000
0100
0000
0200
,
0030
0000
0000
0001
,
0000
0001
0000
0302
,
0000
0000
0000
1000
,
0000
1000
0000
2003
,
0000
0000
0000
0100
,
0000
0100
0000
0100
,
3000
0000
0000
0000
;

//---------------dance-single - Rygon----------------
#NOTES:
     dance-single:
     :
     Easy:
     6:
     0.335,0.412,0.097,0.329,0.000,198.000,10.000,34.000,0.000,0.000,0.000,0.335,0.412,0.097,0.329,0.000,198.000,10.000,34.000,0.000,0.000,0.000:
0000
0000
0000
0000
,
0000
0000
0000
0000
,
0000
0000
0000
0000
,
0000
0000
0000
0000
,
0020
0000
0000
0000
,
0030
0000
0000
0000
,
2000
0000
0000
0000
,
3000
0000
0000
0000
,
0100
0000
0000
0100
0000
0000
1000
0000
,
0010
0000
0000
0010
0000
0000
1000
0000
,
0001
0000
0000
0001
0000
0000
0100
0000
,
1000
0000
0000
1000
0000
0000
0100
0000
,
0010
0010
0100
0100
,
0001
1000
0001
0000
1000
0001
1000
0000
,
0002
1000
0000
1000
,
0000
1000
0000
2003
,
3001
0000
1000
0000
0000
0010
0100
0000
,
0001
1000
0000
1001
,
1000
0000
0001
0000
0000
0010
0100
0000
,
1000
0001
0000
1001
,
0001
0000
1000
0000
0000
0100
0010
0000
,
0001
1000
0000
1001
,
1000
0000
0001
0000
0000
0100
0010
0000
,
1000
0001
0000
1001
,
1000
0000
0100
0000
0000
0010
0001
0000
,
1000
0001
0100
0110
,
0010
0000
1000
0000
0000
0001
0010
0000
,
0100
1000
0001
1001
,
1000
0000
0010
0000
0000
0100
0001
0000
,
0010
0100
1000
1001
,
0001
0200
0000
0000
,
0000
0000
0000
0300
,
0010
0000
0100
0000
0000
0100
0001
0000
,
2000
3200
0320
0032
,
0013
0000
0100
0000
0000
0100
1000
0000
,
0002
0203
0320
2030
,
3100
0000
0010
0000
0000
0010
0001
0000
,
2000
3020
0230
0302
,
0013
0200
0000
0000
,
0000
1000
0000
2300
,
3010
0000
0100
0000
0000
0100
0001
0000
,
2000
3200
0320
0032
,
0013
0000
0100
0000
0000
0100
1000
0000
,
0002
0203
0320
2030
,
3100
0000
0010
0000
0000
0010
0001
0000
,
2000
3020
0230
0302
,
0013
0200
0000
0000
,
0000
0000
0000
0000
,
1300
1000
1000
0000
,
0001
0001
0001
0000
,
1000
1000
1000
0000
,
0001
0001
0001
0000
,
1000
1000
0001
0001
,
0100
0010
0100
0000
0001
1000
0001
0000
,
0010
0200
0000
0000
,
0000
0000
0000
0000
,
1300
0000
0100
0000
0000
0010
0001
0000
,
1000
0001
0100
0110
,
0010
0000
1000
0000
0000
0001
0010
0000
,
0100
1000
0001
1001
,
1000
0000
0010
0000
0000
0100
0001
0000
,
0010
0100
1000
1001
,
0001
0200
0000
0010
,
0000
0010
0000
0310
,
1000
0000
0000
0000
,
1000
0000
0000
0000
,
0001
0000
0000
0000
,
0001
0000
0000
0000
,
0100
0000
0000
0000
,
0100
0000
0000
0000
,
0010
0000
0000
0000
,
0010
0000
0000
0000
;

//---------------dance-single - Rygon----------------
#NOTES:
     dance-single:
     :
     Beginner:
     1:
     0.133,0.136,0.106,0.000,0.000,85.000,11.000,0.000,0.000,0.000,0.000,0.133,0.136,0.106,0.000,0.000,85.000,11.000,0.000,0.000,0.000,0.000: // measure 0
0000
0000
0000
0000
,  // measure 1
0000
0000
0000
0000
,  // measure 2
0000
0000
0000
0000
,  // measure 3
0000
0000
0000
0000
,  // measure 4
1000
0000
0000
0000
,  // measure 5
0000
0000
0000
0000
,  // measure 6
0001
0000
0000
0000
,  // measure 7
0000
0000
0000
0000
,  // measure 8
0100
0000
0000
0000
,  // measure 9
0010
0000
0000
0000
,  // measure 10
1000
0000
0000
0000
,  // measure 11
0001
0000
0000
0000
,  // measure 12
1000
0000
1000
0000
,  // measure 13
0001
0000
0001
0000
,  // measure 14
1001
0000
0000
0000
,  // measure 15
0000
0000
0000
0000
,  // measure 16
0100
0000
0010
0000
,  // measure 17
0100
0000
0000
0000
,  // measure 18
0010
0000
0100
0000
,  // measure 19
0010
0000
0000
0000
,  // measure 20
1000
0000
0001
0000
,  // measure 21
1000
0000
0000
0000
,  // measure 22
0001
0000
1000
0000
,  // measure 23
0001
0000
0000
0000
,  // measure 24
1000
0000
0100
0000
,  // measure 25
0010
0000
0000
0000
,  // measure 26
0001
0000
0100
0000
,  // measure 27
0010
0000
0000
0000
,  // measure 28
1000
0000
0010
0000
,  // measure 29
0100
0000
0000
0000
,  // measure 30
0001
0000
0000
0000
,  // measure 31
0010
0000
0100
0000
,  // measure 32
1000
0000
1001
0000
,  // measure 33
0001
0000
0000
0000
,  // measure 34
0001
0000
1001
0000
,  // measure 35
1000
0000
0000
0000
,  // measure 36
0010
0000
0110
0000
,  // measure 37
0100
0000
0000
0000
,  // measure 38
0100
0000
0110
0000
,  // measure 39
0010
0000
0000
0000
,  // measure 40
1000
0000
1001
0000
,  // measure 41
0001
0000
0000
0000
,  // measure 42
0001
0000
1001
0000
,  // measure 43
1000
0000
0000
0000
,  // measure 44
0010
0000
0110
0000
,  // measure 45
0100
0000
0000
0000
,  // measure 46
0000
1001
0000
0000
,  // measure 47
0000
0000
0000
0000
,  // measure 48
1000
1000
1000
0000
,  // measure 49
0000
0000
0000
0000
,  // measure 50
0001
0001
0001
0000
,  // measure 51
0000
0000
0000
0000
,  // measure 52
0100
0000
0100
0000
,  // measure 53
0010
0000
0010
0000
,  // measure 54
1001
0000
0000
0000
,  // measure 55
0000
0000
0000
0000
,  // measure 56
1000
0000
0100
0000
,  // measure 57
0010
0000
0001
0000
,  // measure 58
0010
0000
0100
0000
,  // measure 59
1000
0000
0001
0000
,  // measure 60
1000
0000
0010
0000
,  // measure 61
0100
0000
0001
0000
,  // measure 62
1001
0000
0000
0000
,  // measure 63
0000
0000
0000
0000
,  // measure 64
0100
0000
0000
0000
,  // measure 65
0000
0000
0000
0000
,  // measure 66
0010
0000
0000
0000
,  // measure 67
0000
0000
0000
0000
,  // measure 68
1000
0000
0000
0000
,  // measure 69
0000
0000
0000
0000
,  // measure 70
0001
0000
0000
0000
;
