#TITLE:Tropical April;
#SUBTITLE:;
#ARTIST:Risk Junk;
#TITLETRANSLIT:;
#SUBTITLETRANSLIT:;
#ARTISTTRANSLIT:;
#CREDIT:;
#BANNER:Tropical April.png;
#BACKGROUND:Tropical April-bg.png;
#LYRICSPATH:;
#CDTITLE:;
#MUSIC:Tropical April.mp3;
#OFFSET:-2.080;
#SAMPLESTART:32.385;
#SAMPLELENGTH:15.240;
#SELECTABLE:YES;
#BPMS:0.000=91.000,28.000=182.000,56.000=91.000,60.000=182.000;
#STOPS:;
#BGCHANGES:;

//---------------dance-single - ----------------
#NOTES:
     dance-single:
     :
     Hard:
     8:
     0.603,0.557,0.106,0.359,0.061:
0000
0000
0000
0000
,
0000
0000
0000
0000
,
0000
0000
0000
0000
,
0000
0000
0000
0000
,
1000
0000
0001
0000
0000
0000
0001
0000
0100
0000
0000
0000
0010
0000
0000
0010
,
1000
0000
0000
0100
0010
0000
0010
0100
0000
0000
1000
0000
0001
0000
0100
0000
,
0010
1000
0000
1000
0002
0000
0100
0103
,
0001
1000
0000
0001
1000
0000
0010
0100
,
0000
0000
0010
0000
0100
0000
0000
0000
1001
0000
0000
0010
0100
0000
1000
0000
,
0001
0100
0000
0010
1000
0000
0100
1000
,
0000
0000
0000
0001
0000
0000
0010
0000
0000
0000
0000
0000
0100
0000
0000
0000
0100
0000
1000
0000
0000
0000
1000
0000
,
0010
0100
0000
0001
0010
0000
0100
1000
,
0000
0010
0100
0000
0001
0100
0010
1000
,
0100
0000
0100
0010
0000
0010
0001
0000
0001
1000
0000
1000
,
0020
0000
0000
0030
0200
0001
0001
0301
,
1001
0000
1000
0010
0200
0000
0010
0000
,
0301
0000
0100
0010
1000
0000
0100
1000
,
0002
0000
0100
0000
1003
0000
0001
1000
,
0000
0010
0100
0010
1000
0100
0010
0000
,
0002
0203
0310
2000
,
3200
0310
0002
1003
,
0001
0100
0000
0010
1000
0000
0100
1000
,
0000
1100
0000
0011
0000
0001
1000
0000
,
0001
0100
0010
0100
0001
0010
0100
0000
,
1000
0010
0100
0010
1000
0100
0010
0100
,
2000
0000
0001
0001
3001
1000
0010
0100
,
0000
0001
0010
0100
0010
0001
0100
0010
,
1000
0100
0000
1000
0001
0010
0001
1000
,
0000
0010
0100
0001
1000
0010
1000
0001
,
0200
0000
0010
0000
1300
0100
0010
0001
,
1000
0000
0000
0000
1010
0000
0000
0000
0010
0000
0100
0000
0001
1000
0001
0000
,
1001
0000
0001
0100
0020
0000
1000
0000
,
0130
0000
0010
1000
0100
0000
0010
0001
,
0200
0000
0010
0000
1300
0000
0100
0010
,
0000
0001
0100
0001
0010
0100
1000
0000
,
0020
0230
0301
2000
,
3200
0000
0310
0000
0002
0000
1003
0001
,
0100
0010
0000
1000
0100
0000
0010
0001
,
0000
0011
0000
0001
0100
0010
1000
0000
,
0001
0010
0100
0010
0001
0100
0010
0000
,
1000
0100
0010
0100
1000
0001
0010
0001
,
0200
0000
0010
0010
0310
0100
0001
0010
,
0000
0100
1000
0100
0010
0001
1000
0010
,
0200
0302
1003
0200
,
2300
3010
0200
0301
,
1000
0010
0000
0100
0001
0000
1000
0100
,
0000
0010
0002
0000
0000
0000
0003
0000
,
1000
0010
0100
0010
0000
1000
0100
0010
,
0002
0100
1003
1001
,
1000
0010
0100
0001
1000
0100
0010
0001
,
1000
0010
0000
0100
0001
0001
1000
1000
,
0001
0010
0100
0010
0000
0001
0100
0010
,
2000
0100
3001
1001
,
1000
0010
0100
0010
1000
0100
0010
0100
,
1000
0001
0010
0001
0100
0010
1000
0010
,
0100
0000
0001
0000
0010
0000
0001
0000
0100
0000
0010
0000
1000
0000
0000
1000
,
0010
0000
0100
0000
0001
0000
1000
0000
0100
0000
0010
0000
0001
0000
0000
0001
,
1000
1000
0010
0010
0100
0100
0001
0001
,
1000
0100
0010
0001
2000
0000
3001
0000
,
1000
0100
0001
1000
0100
0001
1000
0000
,
0001
0010
1000
0001
0010
1000
0001
1000
,
0001
0100
0000
0010
1000
0000
0100
2000
,
0000
0010
0001
3100
,
1001
0000
1000
0010
0200
0000
0010
0000
,
0301
0000
0100
0010
1000
0000
0100
1000
,
0002
0000
0100
0000
1003
0000
0001
1000
,
0000
0010
0100
0010
1000
0100
0010
0000
,
0002
0203
0310
2000
,
3200
0310
0002
1003
,
0001
0100
0000
0010
1000
0000
0100
1000
,
0000
1100
0000
0011
0000
0001
1000
0000
,
0001
0100
0010
0100
0001
0010
0100
0000
,
1000
0010
0100
0010
1000
0100
0010
0100
,
2000
0000
0001
0001
3001
1000
0010
0100
,
0000
0001
0010
0100
0010
0001
0100
0010
,
2000
3020
0130
0002
,
0023
0130
2000
3001
,
1000
0001
0000
0100
0010
0000
1000
0100
,
0000
0000
0010
0000
0001
0000
0000
0000
1001
0000
0000
0100
0010
0000
0001
0000
,
1000
0000
0100
0000
0010
0000
0001
0000
1000
0000
0010
0000
0100
0010
0100
0000
,
0002
1000
1003
0000
0000
0000
0000
0000
;

//---------------dance-single - ----------------
#NOTES:
     dance-single:
     :
     Beginner:
     2:
     0.119,0.197,0.008,0.016,0.000: // measure 1
0000
0000
0000
0000
,  // measure 2
0000
0000
0000
0000
,  // measure 3
0000
0000
0000
0000
,  // measure 4
0000
0000
0000
0000
,  // measure 5
0000
0000
0000
0000
,  // measure 6
0000
0000
0000
0000
,  // measure 7
0000
0000
0000
0000
,  // measure 8
1000
0000
1000
0000
,  // measure 9
1000
0000
0000
0000
,  // measure 10
0001
0000
0001
0000
,  // measure 11
0001
0000
0000
0000
,  // measure 12
0100
0000
0000
0000
,  // measure 13
0010
0000
0000
0000
,  // measure 14
1000
0000
0001
0000
,  // measure 15
2002
0000
3003
0000
,  // measure 16
1000
0000
0000
0000
,  // measure 17
0010
0000
0000
0000
,  // measure 18
0100
0000
0000
0000
,  // measure 19
0001
0000
0000
0000
,  // measure 20
1000
0000
0000
0000
,  // measure 21
0100
0000
0000
0000
,  // measure 22
0010
0000
0010
0000
,  // measure 23
0100
0000
0100
0000
,  // measure 24
1000
0000
0000
0000
,  // measure 25
0001
0000
0000
0000
,  // measure 26
0100
0000
0000
0000
,  // measure 27
0010
0000
0000
0000
,  // measure 28
1000
0000
0000
0000
,  // measure 29
0001
0000
0000
0000
,  // measure 30
0100
0000
0000
0000
,  // measure 31
0010
0000
0010
0000
,  // measure 32
0010
0000
0000
0000
,  // measure 33
1000
0000
0000
0000
,  // measure 34
0100
0000
0000
0000
,  // measure 35
0010
0000
0000
0000
,  // measure 36
0001
0000
0000
0000
,  // measure 37
1000
0000
0000
0000
,  // measure 38
0010
0000
0000
0000
,  // measure 39
0100
0000
0100
0000
,  // measure 40
0100
0000
0000
0000
,  // measure 41
0001
0000
0000
0000
,  // measure 42
1000
0000
0000
0000
,  // measure 43
0100
0000
0000
0000
,  // measure 44
0010
0000
0010
0000
,  // measure 45
0100
0000
0100
0000
,  // measure 46
1000
0000
1000
0000
,  // measure 47
0001
0000
0000
0000
,  // measure 48
1000
0000
0000
0000
,  // measure 49
0010
0000
0000
0000
,  // measure 50
0100
0000
0100
0000
,  // measure 51
0001
0000
0001
0000
,  // measure 52
1000
0000
0000
0000
,  // measure 53
0100
0000
0000
0000
,  // measure 54
0010
0000
0010
0000
,  // measure 55
0001
0000
0001
0000
,  // measure 56
1000
0000
0000
0000
,  // measure 57
0010
0000
0000
0000
,  // measure 58
0100
0000
0100
0000
,  // measure 59
0001
0000
0001
0000
,  // measure 60
1000
0000
0000
0000
,  // measure 61
0001
0000
0000
0000
,  // measure 62
0010
0000
0010
0000
,  // measure 63
0010
0000
0000
0000
,  // measure 64
0100
0000
0000
0000
,  // measure 65
1000
0000
0000
0000
,  // measure 66
0001
0000
0000
0000
,  // measure 67
0100
0000
0000
0000
,  // measure 68
0010
0000
0000
0000
,  // measure 69
1000
0000
0000
0000
,  // measure 70
0001
0000
0001
0000
,  // measure 71
1000
0000
1000
0000
,  // measure 72
0010
0000
0000
0000
,  // measure 73
0100
0000
0000
0000
,  // measure 74
0001
0000
0000
0000
,  // measure 75
1000
0000
0000
0000
,  // measure 76
0100
0000
0100
0000
,  // measure 77
0010
0000
0010
0000
,  // measure 78
0001
0000
0001
0000
,  // measure 79
1000
0000
1000
0000
,  // measure 80
0010
0000
0010
0000
,  // measure 81
0100
0100
0000
0000
;

//---------------dance-single - ----------------
#NOTES:
     dance-single:
     :
     Easy:
     4:
     0.320,0.328,0.016,0.049,0.000: // measure 1
0000
0000
0000
0000
,  // measure 2
0000
0000
0000
0000
,  // measure 3
0000
0000
0000
0000
,  // measure 4
0000
0000
0000
0000
,  // measure 5
0000
0000
0000
0000
,  // measure 6
0000
0000
0000
0000
,  // measure 7
0000
0000
0000
0000
,  // measure 8
1000
0000
0000
0001
0000
0000
0100
0000
,  // measure 9
0000
0010
0000
0000
0000
0000
0000
0000
,  // measure 10
1000
0000
0000
0100
0000
0000
0010
0000
,  // measure 11
0000
0001
0000
0000
0000
0000
0000
0000
,  // measure 12
1000
0010
0100
0010
,  // measure 13
1000
0100
0010
0100
,  // measure 14
1000
0001
0100
0010
,  // measure 15
2002
0000
3003
0000
,  // measure 16
1000
0001
0010
0001
,  // measure 17
1000
0010
1000
0001
,  // measure 18
0100
0001
1000
0100
,  // measure 19
1000
0001
0100
0001
,  // measure 20
1000
0010
0001
0010
,  // measure 21
1000
0100
0001
0100
,  // measure 22
1000
0000
0000
0001
0000
0000
0100
0000
,  // measure 23
0000
0010
0000
0000
1000
0000
0001
0000
,  // measure 24
1000
0100
0010
0001
,  // measure 25
1000
0010
0100
0001
,  // measure 26
1000
0100
0001
0100
,  // measure 27
1000
0010
0001
0010
,  // measure 28
1000
1000
0001
0001
,  // measure 29
0100
0100
0010
0010
,  // measure 30
1000
0010
0100
0001
,  // measure 31
1000
0100
0010
0001
,  // measure 32
1001
0001
0010
0001
,  // measure 33
0100
0001
0010
0001
,  // measure 34
0100
0010
1000
0010
,  // measure 35
0100
0010
1000
0010
,  // measure 36
0100
0010
1000
0100
,  // measure 37
0010
0001
1000
0010
,  // measure 38
0100
0000
0000
0001
0000
0000
0010
0000
,  // measure 39
0000
0100
0000
0000
1000
0000
0001
0000
,  // measure 40
1000
0010
0001
0100
,  // measure 41
0001
0010
1000
0100
,  // measure 42
1000
0010
0001
0100
,  // measure 43
1000
0010
0001
0100
,  // measure 44
0010
0010
0100
0100
,  // measure 45
0001
0001
1000
1000
,  // measure 46
0001
0000
0000
0100
0000
0000
0010
0000
,  // measure 47
0000
1000
0000
0000
0000
0000
0000
0000
,  // measure 48
0001
0100
1000
0100
,  // measure 49
0002
0000
1003
0000
,  // measure 50
0001
0010
0100
1000
,  // measure 51
0001
0100
0010
1000
,  // measure 52
0001
0010
1000
0010
,  // measure 53
0002
0000
0013
1000
,  // measure 54
0010
0010
0100
0100
,  // measure 55
0001
0001
1000
1000
,  // measure 56
0100
1000
0010
1000
,  // measure 57
0100
1000
0001
1000
,  // measure 58
0010
0010
0100
0100
,  // measure 59
0001
0001
2000
3000
,  // measure 60
0001
0010
0100
0010
,  // measure 61
0001
0100
0010
0100
,  // measure 62
0001
0000
0000
1000
0000
0000
0020
0000
,  // measure 63
0000
0100
0100
0130
,  // measure 64
0010
1000
0100
1000
,  // measure 65
0010
0100
0001
0100
,  // measure 66
0010
1000
0001
0010
,  // measure 67
0001
0100
0001
1000
,  // measure 68
0100
1000
0010
1000
,  // measure 69
0001
0100
0001
0010
,  // measure 70
0100
0000
0000
1000
0000
0000
0010
0000
,  // measure 71
0000
0100
0000
0000
0001
0000
1000
0000
,  // measure 72
0001
0010
1000
0100
,  // measure 73
1000
0010
0001
0100
,  // measure 74
0001
0010
1000
0100
,  // measure 75
1000
0010
0001
0100
,  // measure 76
0001
0010
0100
1000
,  // measure 77
0001
0100
0010
1000
,  // measure 78
0001
0000
0000
0100
0000
0000
0010
0000
,  // measure 79
0000
1000
0000
0000
0001
0000
1000
0000
,  // measure 80
0100
1000
0010
0100
,  // measure 81
0001
1000
0001
0000
0000
0000
0000
0000
;

//---------------dance-single - ----------------
#NOTES:
     dance-single:
     :
     Medium:
     6:
     0.453,0.491,0.073,0.106,0.000: // measure 1
0000
0000
0000
0000
,  // measure 2
0000
0000
0000
0000
,  // measure 3
0000
0000
0000
0000
,  // measure 4
0000
0000
0000
0000
,  // measure 5
0000
0000
0000
0000
,  // measure 6
0000
0000
0000
0000
,  // measure 7
0000
0000
0000
0000
,  // measure 8
1000
0001
0000
0001
1000
0000
1000
0001
,  // measure 9
0000
0001
1000
0000
0000
0000
0000
0000
,  // measure 10
0010
0100
0000
0100
0010
0000
0010
0100
,  // measure 11
0000
0100
0010
0000
0000
0000
0000
0000
,  // measure 12
1000
0100
0010
0011
,  // measure 13
0001
0100
0010
1010
,  // measure 14
0010
1000
0100
1000
0010
0100
0001
0100
,  // measure 15
0020
0000
0000
0030
0000
1000
0001
0100
,  // measure 16
0110
0000
0010
0000
1000
0001
1000
0000
,  // measure 17
0001
0000
0100
0000
0001
0010
0001
0000
,  // measure 18
0100
0000
0010
0000
1000
0100
1000
0000
,  // measure 19
0001
0000
1000
0000
0001
0100
0001
0000
,  // measure 20
0010
0000
0100
0000
1000
0010
0100
0000
,  // measure 21
0001
0000
0010
0000
0100
1000
0001
0000
,  // measure 22
1000
0010
0000
1000
0010
0000
0100
0001
,  // measure 23
0000
0100
0001
0000
1000
0001
1000
0000
,  // measure 24
0001
0000
0010
0000
0100
1000
0010
0000
,  // measure 25
1000
0000
0100
0000
0010
0001
0100
0000
,  // measure 26
0010
0000
1000
0000
0100
1000
0001
0000
,  // measure 27
0010
0000
0001
0000
0100
0010
1000
0000
,  // measure 28
0010
0100
0000
0000
0001
0000
1000
0100
,  // measure 29
0000
0000
1000
0000
0001
0010
0001
0000
,  // measure 30
0200
0010
0010
0310
,  // measure 31
2000
0001
0001
3001
,  // measure 32
1001
0000
1000
0000
0010
0100
0010
0000
,  // measure 33
0100
0000
0001
0000
0010
0100
0010
0000
,  // measure 34
0100
0000
1000
0000
0001
0100
0001
0000
,  // measure 35
0100
0000
0010
0000
1000
0010
1000
0000
,  // measure 36
0100
0000
1000
0000
0001
0010
0100
0000
,  // measure 37
1000
0000
0010
0000
0100
0001
1000
0000
,  // measure 38
0010
0100
0000
0010
0100
0000
0001
1000
,  // measure 39
0000
0001
1000
0000
0010
0100
0010
0000
,  // measure 40
1000
0000
0100
0000
0010
0001
0010
0000
,  // measure 41
0100
0000
1000
0000
0001
0100
0001
0000
,  // measure 42
1000
0000
0010
0000
0100
0001
1000
0000
,  // measure 43
0010
0000
1000
0000
0100
0010
0001
0000
,  // measure 44
2000
0010
3010
0200
,  // measure 45
0001
0301
0200
0310
,  // measure 46
1000
0001
0000
1000
0001
0000
0100
0010
,  // measure 47
0000
0100
0010
0000
0000
0000
0000
0000
,  // measure 48
1000
0000
0100
0010
0000
0010
0100
0000
,  // measure 49
2000
0010
3001
1001
,  // measure 50
0001
0000
0100
0000
0010
1000
0010
0000
,  // measure 51
1000
0000
0100
0000
0010
0001
0010
0000
,  // measure 52
0001
0000
0100
0010
0000
0100
0010
0000
,  // measure 53
2000
0001
3001
1001
,  // measure 54
0001
0100
0010
0000
0010
1000
0100
0000
,  // measure 55
0100
1000
0001
0000
0001
0010
0100
0000
,  // measure 56
1000
0000
0010
0000
0100
0001
0100
0001
,  // measure 57
0100
0000
0010
0000
1000
0001
1000
0001
,  // measure 58
1000
0000
0100
0000
0010
0001
0010
0001
,  // measure 59
0100
0001
0100
0001
0020
0000
0130
0000
,  // measure 60
1000
0100
1000
0100
1000
0100
1000
0000
,  // measure 61
0001
0100
0001
0100
0001
0100
0001
0000
,  // measure 62
1000
0001
0000
0100
0010
0000
1000
0002
,  // measure 63
0000
0010
1000
0103
,  // measure 64
0110
0000
0100
0000
0001
1000
0001
0000
,  // measure 65
1000
0000
0010
0000
1000
0100
1000
0000
,  // measure 66
0010
0000
0100
0000
0001
0010
0001
0000
,  // measure 67
1000
0000
0001
0000
1000
0010
1000
0000
,  // measure 68
0100
0000
0010
0000
0001
0100
0010
0000
,  // measure 69
1000
0000
0100
0000
0010
0001
1000
0000
,  // measure 70
0001
0100
0000
0001
0100
0000
0010
1000
,  // measure 71
0000
0010
1000
0000
0001
1000
0001
0000
,  // measure 72
1000
0000
0100
0000
0010
0001
0100
0000
,  // measure 73
0001
0000
0010
0000
0100
1000
0010
0000
,  // measure 74
0100
0000
0001
0000
0010
0001
1000
0000
,  // measure 75
0100
0000
1000
0000
0010
0100
0001
0000
,  // measure 76
2000
0100
3100
0020
,  // measure 77
0001
0031
0200
0310
,  // measure 78
1000
0001
0000
0100
0010
0000
1000
0001
,  // measure 79
0000
0100
0010
0000
1000
0000
1001
0000
,  // measure 80
0001
0100
0001
0000
1000
0100
1000
0000
,  // measure 81
0010
0100
1001
0000
0000
0000
0000
0000
;
