#TITLE:Tomoe;
#SUBTITLE:;
#ARTIST:SMiLE.dk;
#TITLETRANSLIT:;
#SUBTITLETRANSLIT:;
#ARTISTTRANSLIT:;
#GENRE:;
#CREDIT:;
#BANNER:Tomoe-bn.png;
#BACKGROUND:Tomoe-bg.png;
#LYRICSPATH:;
#CDTITLE:DJ OMiY-cdtitle.png;
#MUSIC:Tomoe.mp3;
#OFFSET:-0.200;
#SAMPLESTART:34.466;
#SAMPLELENGTH:13.734;
#SELECTABLE:YES;
#BPMS:0.000=140.000
;
#STOPS:
;
#BGCHANGES:;
#KEYSOUNDS:;
#ATTACKS:;

//---------------dance-single - Blank----------------
#NOTES:
     dance-single:
     :
     Hard:
     8:
     0.573,0.517,0.304,0.334,0.067,455.000,41.000,45.000,0.000,0.000,0.000,0.573,0.517,0.304,0.334,0.067,455.000,41.000,45.000,0.000,0.000,0.000: // measure 0
0000
0000
0000
0000
,  // measure 1
0000
0000
0000
0000
,  // measure 2
0000
0000
0000
0000
,  // measure 3
0000
0000
0000
0000
,  // measure 4
0000
0000
0000
0000
,  // measure 5
0000
0000
0000
0000
,  // measure 6
1001
0000
0001
0100
0001
0000
1000
0000
0100
0000
0010
0000
0001
0000
0100
0000
,  // measure 7
0000
0000
0010
1000
0010
0000
0100
0000
0010
0000
1000
0000
0100
0000
0000
0000
,  // measure 8
1000
0000
0001
0010
0001
0000
1000
0000
0100
0000
0001
0000
0100
0000
1000
0000
,  // measure 9
0010
0100
0001
0100
0010
1000
1010
0000
,  // measure 10
0001
0010
0100
0010
0001
1000
0010
0100
,  // measure 11
0010
0000
0000
0010
1000
0000
0001
0000
1000
0000
0100
0000
0010
0000
0000
0000
,  // measure 12
0100
0010
0001
0010
0100
1000
0010
0100
,  // measure 13
0002
0000
1003
0001
0100
0020
0000
1030
,  // measure 14
0100
1000
0100
0010
0001
0010
0001
1000
,  // measure 15
0001
0000
0000
0001
0100
0000
0010
0000
0100
0000
0001
0000
1000
0000
0000
0000
,  // measure 16
0100
1000
0100
0010
0100
1000
0100
0001
,  // measure 17
0200
0000
1300
0001
0100
0020
0000
1030
,  // measure 18
0002
0000
0000
2003
0000
0000
0000
3100
,  // measure 19
0110
0000
0000
0000
0010
0000
0001
0000
0000
1000
0000
0000
0010
0000
1000
0000
,  // measure 20
0001
0010
0011
0000
1000
0010
0100
0020
,  // measure 21
1000
0000
0130
0010
1000
0100
0010
0100
,  // measure 22
1000
0001
0101
0000
0001
0010
0100
2000
,  // measure 23
0000
3100
1000
0001
0000
0010
0001
1000
,  // measure 24
0010
0100
0110
0000
0010
1000
0001
0100
,  // measure 25
0001
0000
1000
0200
0000
0310
0100
1000
,  // measure 26
0001
1000
1010
0000
0001
0010
0001
1000
,  // measure 27
0001
0011
0000
1000
0010
0000
1001
0000
,  // measure 28
0110
0000
0010
1000
0010
0000
0100
0000
0001
0000
0010
0000
0100
0000
1000
0000
,  // measure 29
0000
0000
0001
0100
0001
0000
1000
0000
0001
0000
1000
0000
0100
0000
0000
0000
,  // measure 30
0100
0000
1000
0010
1000
0000
0001
0000
0010
0000
1000
0000
0010
0000
0001
0000
,  // measure 31
1000
0100
0010
0001
1000
0100
1200
0000
,  // measure 32
1300
0000
0001
0010
0001
0000
1000
0000
0010
0000
0100
0000
0010
0000
1000
0000
,  // measure 33
0000
0000
0001
0100
0001
0000
0010
0000
0001
0000
1000
0000
0010
0000
0000
0000
,  // measure 34
0010
0000
1000
0001
1000
0000
0100
0000
0010
0000
0100
0000
1000
0000
0001
0000
,  // measure 35
0100
0010
0100
0001
1000
0001
1001
0000
,  // measure 36
0110
0000
1001
0000
0220
0000
0330
0001
,  // measure 37
0100
0100
0020
0000
1030
0000
0100
0000
,  // measure 38
0110
1001
2200
3300
,  // measure 39
0001
0000
0010
0000
0200
0000
0000
0000
1300
0000
0000
0000
0001
0000
0100
0010
,  // measure 40
0100
0110
2002
3003
,  // measure 41
1000
0100
0020
0000
0130
0000
0010
0001
,  // measure 42
1000
0100
1000
0001
0100
0001
0010
0100
,  // measure 43
2000
3200
0320
0032
,  // measure 44
0103
0000
0000
0000
0010
0000
0000
0100
0001
0000
1000
0000
0001
0000
1000
0100
,  // measure 45
1000
0000
1010
0000
0000
0101
0000
0011
,  // measure 46
0000
0000
0000
0100
0000
0100
0001
1001
,  // measure 47
1001
0000
0010
0000
0000
0101
0000
1100
,  // measure 48
0000
0000
1000
0000
0000
0000
0001
0000
0000
0000
0100
0000
0010
1000
0001
0000
,  // measure 49
1001
0000
0110
0000
1000
0010
0001
0010
,  // measure 50
1000
0000
0010
0200
0000
0301
1000
0000
,  // measure 51
1100
0000
0011
0000
0001
0010
0001
1000
,  // measure 52
0010
0000
0000
0100
0000
0000
0001
0000
0000
1000
0000
0000
0100
0000
0010
0000
,  // measure 53
0001
0010
0110
0000
1000
0010
0100
0001
,  // measure 54
1000
0100
1000
0002
0000
0013
0001
0100
,  // measure 55
0010
1000
1010
0000
0001
0010
0100
0020
,  // measure 56
0000
0130
1000
0001
1000
0001
0010
0000
,  // measure 57
0100
0010
0011
0000
0001
1000
0100
2000
,  // measure 58
0000
3100
0010
0002
0000
0013
0001
0100
,  // measure 59
0010
1000
0100
0000
1000
0001
0100
0001
,  // measure 60
1000
1001
0000
0010
0100
0000
1001
0000
,  // measure 61
0100
0001
0011
0000
0001
1000
0010
0001
,  // measure 62
0010
2000
0100
3200
0000
0310
0001
1000
,  // measure 63
0010
0100
0001
0000
1000
0002
0010
0023
,  // measure 64
0000
0230
0000
0310
0001
1000
0010
0000
,  // measure 65
0100
0001
1001
0000
0010
1000
0001
1000
,  // measure 66
0010
0000
0100
0001
0010
0100
1000
0010
,  // measure 67
1000
0100
1100
0000
1000
0100
0010
0002
,  // measure 68
1000
0203
0000
0320
1000
0000
0130
0000
,  // measure 69
1001
1000
0100
1000
0010
0100
0020
0000
,  // measure 70
1030
0001
0010
0002
1000
0000
0013
0000
,  // measure 71
0001
0100
0010
2000
0000
3100
0010
0002
,  // measure 72
0000
0023
0000
0031
1000
0100
1000
0001
,  // measure 73
0100
1000
0100
0001
0100
0001
0020
0000
,  // measure 74
0130
1000
0010
2000
0100
0000
3001
0000
,  // measure 75
0100
0010
1000
0001
1000
0100
0010
0022
,  // measure 76
0000
0000
0000
0000
,  // measure 77
0000
0000
0033
0000
;

//---------------dance-single - Blank----------------
#NOTES:
     dance-single:
     :
     Medium:
     6:
     0.447,0.460,0.208,0.296,0.000,354.000,28.000,40.000,0.000,0.000,0.000,0.447,0.460,0.208,0.296,0.000,354.000,28.000,40.000,0.000,0.000,0.000:
0000
0000
0000
0000
,
0000
0000
0000
0000
,
0000
0000
0000
0000
,
0000
0000
0000
0000
,
0000
0000
0000
0000
,
0000
0000
0000
0000
,
1000
0001
1000
0000
0010
0000
0100
0001
,
0000
0001
1000
0000
0010
0100
0010
0000
,
1000
0000
0001
0000
0010
0000
0100
1000
,
0001
0000
0100
0010
0200
0010
0310
0000
,
1001
0000
0001
0000
1000
0100
0010
0000
,
0001
0000
1000
0001
0200
0000
0310
0000
,
1000
0001
0010
0100
1000
0000
0010
0000
,
2000
0000
3001
0200
0000
0320
0000
1030
,
0001
0010
0001
1000
,
0010
0000
0100
0010
1000
0000
0001
0000
,
1000
0100
1000
0000
0001
0000
0010
0000
,
0002
0000
0013
0002
0000
2003
0000
3010
,
0200
0000
0000
0002
0000
0300
0000
1003
,
0002
1000
1000
1003
,
0110
0000
1001
0000
1000
0001
0010
0001
,
0000
0000
0100
0010
0000
0010
0100
0000
,
0011
0000
1100
0000
0001
1000
0001
0100
,
0000
0010
0000
1000
0000
1000
0100
0000
,
1001
0000
1001
0000
0010
0100
0010
1000
,
0000
0000
0001
0010
0000
0010
0100
0000
,
1010
0000
0101
0000
0001
1000
0010
0100
,
0001
0010
0000
0100
1000
0000
1001
0000
,
1000
0010
0100
0000
0010
0000
1000
0001
,
0000
1000
0100
0000
1000
0000
1001
0000
,
0010
0001
0100
0000
0010
0000
0100
0000
,
0010
1000
0100
0010
0002
1000
2003
0000
,
3001
0100
0001
0000
1000
0000
0010
0100
,
0000
0100
0001
0000
1000
0100
0010
0000
,
0100
0000
1000
0000
0001
0100
0001
0000
,
0010
0001
0010
0100
2000
0001
3001
0000
,
1001
0010
1001
0000
,
0010
0001
0200
0000
0000
0000
0310
0000
,
1100
0001
0101
0000
,
1000
0001
0020
0000
0000
0000
0130
0000
,
0110
0001
0110
0000
,
1000
0001
2000
0000
0000
0000
3001
0100
,
0001
0000
1000
0100
0000
0100
1000
0000
,
0002
0203
0310
1000
,
2002
0000
0000
3003
,
0010
1000
0001
0000
0000
0010
0001
1000
,
0000
0000
0000
0010
0000
0010
0100
0001
,
0001
1000
0001
0000
0000
1000
0001
2000
,
0000
0000
3001
0000
0100
0000
0001
1000
,
0010
0100
0001
0000
0000
0010
0100
1000
,
0000
0000
0000
0001
0000
0001
1000
0000
,
0100
1000
0001
0000
0000
0100
0001
2000
,
0000
0001
0100
3001
,
1001
0000
0110
0000
0010
1000
0001
0100
,
0001
0000
0010
0001
0000
0001
0100
0000
,
0101
0000
1010
0000
1000
0100
0010
0001
,
0000
0100
0000
0002
0000
1003
0100
0000
,
0110
0000
0011
0000
1000
0100
0001
0100
,
1000
0000
0010
0200
0000
0301
0100
0000
,
0110
0000
1001
0000
0001
0100
0001
1000
,
0100
0010
0000
0010
0001
0000
1001
0000
,
1000
0100
1000
0000
0001
0100
0001
0010
,
0001
2000
0000
0002
3000
0103
0001
1000
,
0100
0010
0001
0000
1000
0200
0000
2300
,
0000
3002
0000
0203
0000
0310
0100
0000
,
0001
1000
0001
0000
1000
0001
1000
0010
,
1000
0000
0100
1000
0000
1000
0001
0000
,
0010
0001
0100
0000
0010
0100
0010
2000
,
0000
3200
0000
0320
0000
0031
0100
0001
,
1000
0000
0100
0000
0010
0001
1000
0000
,
0010
1000
0001
1000
0100
0000
1000
0000
,
0010
0200
0000
0302
0000
1003
0001
2000
,
0000
3200
0000
0310
0000
0010
0001
0000
,
1001
0000
0001
0000
0100
0010
1000
0000
,
0100
1000
0001
1000
0010
0000
0100
0000
,
0010
1000
0000
1000
0000
0001
0100
0002
,
0000
2000
0000
0000
0000
0000
0000
0000
,
0000
0000
3003
0000
;

//---------------dance-single - Blank----------------
#NOTES:
     dance-single:
     :
     Easy:
     3:
     0.303,0.309,0.215,0.230,0.000,226.000,29.000,31.000,0.000,0.000,0.000,0.303,0.309,0.215,0.230,0.000,226.000,29.000,31.000,0.000,0.000,0.000:
0000
0000
0000
0000
,
0000
0000
0000
0000
,
0000
0000
0000
0000
,
0000
0000
0000
0000
,
0000
0000
0000
0000
,
0000
0000
0000
0000
,
1000
0100
0001
0100
,
0000
1000
0001
0100
,
0000
0010
0100
0001
,
0010
0001
2000
3010
,
0110
0000
0100
0010
,
2000
0001
3001
0100
,
0010
0100
0001
0010
,
0200
0000
2300
0000
,
3001
0100
0010
1000
,
0200
1000
1300
0100
,
0010
0001
0100
0010
,
0200
0000
0302
0000
,
0013
0000
0000
0000
,
1001
0000
0000
0100
,
1001
0001
0000
1000
,
0100
1000
0200
0000
,
0310
1001
0000
0010
,
0001
1000
0002
0000
,
1003
0110
0000
0001
,
1000
0100
2000
0000
,
3001
0110
0000
1000
,
0200
0000
0020
0330
,
0001
1000
0100
1000
,
0000
0010
0100
0001
,
0010
0001
0010
0100
,
1000
0001
0100
1001
,
0010
0001
1000
0010
,
0000
0100
0010
1000
,
0001
1000
0100
1000
,
0020
0230
0302
1003
,
0110
0000
1001
0000
,
0010
0010
0000
1000
,
1100
0000
0011
0000
,
1000
0001
0000
0010
,
1001
0000
0110
0000
,
0001
1000
0000
0010
,
1000
0100
1000
0001
,
0100
0010
0100
0001
,
2000
0000
0000
0000
,
3010
1001
0000
0100
,
1001
0000
0001
0001
,
1000
0110
0000
0000
,
0001
0110
0000
0001
,
1000
0100
0010
0001
,
0100
0010
0100
0001
,
0010
0100
1000
0001
,
0200
0000
0010
0310
,
0100
1001
0000
0010
,
0001
1000
0100
1000
,
0010
0110
0000
1000
,
0001
0100
0020
1030
,
0001
1010
0000
0001
,
0010
0001
1000
0100
,
0010
1100
0000
0010
,
0002
0000
2000
3003
,
0010
1001
0000
0010
,
1001
0100
1000
0001
,
0010
0011
0000
1000
,
1100
1000
0001
0100
,
0010
1001
0000
0100
,
1001
1000
0010
0100
,
0001
0110
0000
1000
,
0120
0000
2000
3030
,
0001
0010
0200
2300
,
0000
3020
0230
0001
,
0301
1000
0100
0010
,
0002
0010
1000
0103
,
1000
0010
0200
0302
,
0000
0023
0230
1000
,
1300
0000
0100
0000
1000
0000
0001
0010
;

//---------------dance-single - Blank----------------
#NOTES:
     dance-single:
     :
     Beginner:
     1:
     0.110,0.112,0.000,0.089,0.000,92.000,0.000,12.000,0.000,0.000,0.000,0.110,0.112,0.000,0.089,0.000,92.000,0.000,12.000,0.000,0.000,0.000:
0000
0000
0000
0000
,
0000
0000
0000
0000
,
0000
0000
0000
0000
,
0000
0000
0000
0000
,
0000
0000
0000
0000
,
0000
0000
0000
0000
,
0001
0000
0000
0000
,
1000
0000
0000
0000
,
0100
0000
0000
0000
,
1000
0000
0000
0000
,
0010
0000
0000
0000
,
0100
0000
0100
0000
,
0001
0000
0000
0000
,
1000
0000
1000
0000
,
0010
0000
0000
0000
,
0100
0000
0001
0000
,
0100
0000
0000
0000
,
0001
0000
1000
0000
,
0002
0000
0000
0000
,
0000
0000
0003
0000
,
0001
0001
0000
0000
,
1000
0000
0000
0000
,
0100
0100
0000
0000
,
1000
0000
0000
0000
,
0010
0010
0000
0000
,
0100
0000
0000
0000
,
1000
1000
0000
0000
,
0200
0000
0300
0000
,
0010
0000
0000
0000
,
0001
0000
0000
0000
,
1000
0000
0000
0000
,
0010
0000
0000
0000
,
0100
0000
0000
0000
,
0001
0000
0000
0000
,
0010
0000
0000
0000
,
0100
0000
0000
0000
,
1000
0000
1000
0000
,
2000
3000
0000
0000
,
0001
0000
0001
0000
,
0002
0003
0000
0000
,
0100
0000
0100
0000
,
0200
0300
0000
0000
,
0010
0000
0001
0000
,
2000
0000
0000
0000
,
3000
0000
0000
0000
,
0001
0002
0000
0000
,
0003
0000
0000
0000
,
1000
2000
0000
0000
,
3000
0000
0000
0000
,
0010
0020
0000
0000
,
0030
0000
0000
0000
,
0100
0200
0000
0000
,
0300
0000
0000
0000
,
0010
0010
0000
0000
,
1000
0000
0000
0000
,
0001
0001
0000
0000
,
0010
0000
0000
0000
,
0100
0100
0000
0000
,
0010
0000
0000
0000
,
1000
1000
0000
0000
,
0002
0000
0003
0000
,
1000
1000
0000
0000
,
0100
0000
0000
0000
,
0010
0010
0000
0000
,
0100
0000
0000
0000
,
0001
0001
0000
0000
,
1000
0000
0000
0000
,
0100
0100
0000
0000
,
0020
0000
0030
0000
,
0001
0000
1000
0000
,
0000
0001
0000
0000
,
0100
0000
0010
0000
,
0100
0000
0000
0000
,
0001
0000
0001
0000
,
0000
0010
0000
0000
,
0100
0000
0000
1000
;
