#TITLE:サンシャイン☆ダンス;
#SUBTITLE:;
#ARTIST:Togo Project feat. Megu;
#TITLETRANSLIT:Sunshine Dance;
#SUBTITLETRANSLIT:;
#ARTISTTRANSLIT:Togo Project feat. Megu;
#GENRE:;
#CREDIT:;
#MENUCOLOR:;
#METERTYPE:DDR;
#BANNER:[DDR Artists] - Sunshine Dance.png;
#BACKGROUND:[DDR Artists] - Sunshine Dance-bg.png;
#LYRICSPATH:;
#CDTITLE:;
#MUSIC:[DDR Artists] - Sunshine Dance.mp3;
#OFFSET:-0.037;
#SAMPLESTART:77.534;
#SAMPLELENGTH:12.000;
#SELECTABLE:YES;
#LISTSORT:;
#BPMS:0.000=130.000;
#STOPS:;
#BGCHANGES:;
#ATTACKS:;

//---------------dance-single - ----------------
#NOTES:
     dance-single:
     :
     Hard:
     7:
     0.438,0.431,0.155,0.193,0.131: // measure 1
0000
0000
0000
0000
,  // measure 2
0000
0000
0000
0000
,  // measure 3
0000
0000
0000
0000
,  // measure 4
0000
0000
0000
0000
,  // measure 5
0000
0000
0000
0000
,  // measure 6
0001
0000
0100
0000
0010
0000
0000
0100
0000
0000
0001
0000
0010
0000
0000
0000
,  // measure 7
0100
0000
1000
0000
0001
0000
0000
0100
0000
0000
0010
0000
1001
0000
0000
0000
,  // measure 8
1000
0000
0100
0000
0010
0000
0000
0100
0000
0000
1000
0000
0010
0000
0000
0000
,  // measure 9
0100
0000
0010
0100
0010
0000
0110
0000
,  // measure 10
1001
0000
0000
0000
0000
1000
0001
1000
0001
1000
0000
0000
,  // measure 11
0010
0000
0000
0010
0000
0000
0010
0000
0000
0000
0100
0000
0001
0000
1000
0000
,  // measure 12
0100
0000
0000
0100
0000
0000
0100
0000
0000
0000
0010
0000
0001
0000
1000
0000
,  // measure 13
0001
0000
0000
0001
0000
0000
0001
0000
0000
0000
0100
0000
0001
0000
0010
0000
,  // measure 14
0100
0000
0000
0100
0000
0000
0100
0000
1000
0000
0001
0000
0100
0000
0010
0000
,  // measure 15
0100
0000
0000
0100
0000
0000
0100
0000
0000
0000
0001
0000
0010
0000
0100
0000
,  // measure 16
1000
0000
0000
1000
0000
0000
1000
0000
0000
0000
0010
0000
0100
0000
0001
0000
,  // measure 17
0010
0000
0000
0010
0000
0000
0010
0000
0000
0000
0001
0000
1000
0000
0100
0000
,  // measure 18
2000
3020
0230
0302
,  // measure 19
1003
0000
0000
1000
0000
0000
0000
0000
0001
0000
0000
0001
0000
0000
0000
0000
,  // measure 20
0100
0010
0100
0000
0110
0000
1001
0000
,  // measure 21
0001
0010
0100
0000
1000
0010
0100
0000
,  // measure 22
0001
1000
0100
0010
0001
0100
0010
0000
,  // measure 23
0100
0000
0000
0100
0000
0000
0001
0000
1000
0000
0000
1000
0000
0000
0100
0000
,  // measure 24
0010
0010
0001
0001
0100
0001
0010
0100
,  // measure 25
1000
0000
0001
0100
0010
0000
0100
0000
,  // measure 26
1010
0000
0101
0000
0001
0100
1000
0000
,  // measure 27
0100
0001
0010
0000
0100
1000
0010
0000
,  // measure 28
0100
0001
0010
0100
1000
0010
0100
0000
,  // measure 29
0001
0100
0010
0000
0001
0100
1000
0000
,  // measure 30
0100
0001
1000
0100
0010
0001
0100
0000
,  // measure 31
0010
1000
0100
0000
0010
0001
0100
0000
,  // measure 32
0001
1000
0100
0010
0001
0000
0100
0000
,  // measure 33
0010
0000
1000
0001
1000
0000
0010
0000
,  // measure 34
0100
0000
0110
0000
0100
0001
1000
0001
,  // measure 35
0002
0000
0013
0100
1000
0000
0010
0100
,  // measure 36
0002
0000
0013
0100
2000
0000
3100
1000
,  // measure 37
0010
1000
0100
1000
0000
1000
0010
0110
,  // measure 38
0000
0001
1000
0110
0000
0100
0001
0010
,  // measure 39
0200
1000
0001
1300
,  // measure 40
0001
0000
1000
0001
0100
0000
0010
0000
,  // measure 41
0110
0000
0000
0100
0000
0000
0100
0000
0001
0000
0000
0001
0000
0000
0001
0000
,  // measure 42
1001
0000
0000
0000
1001
0000
0000
0000
0010
0000
0000
0100
0000
0000
0010
0000
,  // measure 43
0110
0000
0000
0000
0010
0000
0000
0100
0000
0000
0010
0000
1000
0000
0001
0000
,  // measure 44
0020
1000
0001
1030
,  // measure 45
0001
0000
0000
0000
0100
0000
0000
0010
0000
0000
1000
0000
0100
0000
0010
0000
,  // measure 46
0200
2300
3002
0203
,  // measure 47
0310
0000
0000
0000
0100
0000
0000
0001
0000
0000
1000
0000
0100
0000
0010
0000
,  // measure 48
0002
0100
0010
0103
,  // measure 49
0010
0000
0000
0000
1000
0000
0000
0100
0000
0000
0010
0000
0001
0000
0100
0000
,  // measure 50
0020
2030
3002
0023
,  // measure 51
0130
1000
0100
1000
0100
0000
0100
0000
,  // measure 52
0010
0001
0010
0001
0010
0000
0010
0000
,  // measure 53
0100
1000
0001
1000
0100
0000
0100
0000
,  // measure 54
1001
0000
0000
0000
0000
0001
1000
0001
1000
0001
0000
0000
,  // measure 55
2002
0000
0000
0000
,  // measure 56
0000
0000
0000
3003
;

//---------------dance-single - ----------------
#NOTES:
     dance-single:
     :
     Medium:
     5:
     0.327,0.377,0.203,0.300,0.010: // measure 1
0000
0000
0000
0000
,  // measure 2
0000
0000
0000
0000
,  // measure 3
0000
0000
0000
0000
,  // measure 4
0000
0000
0000
0000
,  // measure 5
0000
0000
0000
0000
,  // measure 6
1000
0101
0001
0010
,  // measure 7
0200
2300
3020
0032
,  // measure 8
0103
0011
0100
1000
,  // measure 9
0020
2030
3002
0023
,  // measure 10
0130
0000
0110
1001
,  // measure 11
0010
0010
0100
0001
,  // measure 12
0010
0010
0100
1000
,  // measure 13
0010
0010
0100
0001
,  // measure 14
0100
0010
1000
0100
,  // measure 15
0010
0010
0100
1000
,  // measure 16
0010
0010
0100
0001
,  // measure 17
0010
0100
1000
0100
,  // measure 18
0020
0230
0302
2003
,  // measure 19
3200
0000
0320
0000
,  // measure 20
0032
0000
1003
1001
,  // measure 21
0100
0010
0100
0001
,  // measure 22
0010
0100
1000
0001
,  // measure 23
2000
0000
3200
0000
,  // measure 24
0320
0000
0031
1001
,  // measure 25
0100
0010
0000
0010
,  // measure 26
0100
0001
0010
0100
,  // measure 27
1000
0001
1000
0100
,  // measure 28
1000
0001
1000
0000
0010
0000
0100
0000
,  // measure 29
0001
0100
0001
0010
,  // measure 30
0100
1000
0010
0110
,  // measure 31
0001
0010
0001
0100
,  // measure 32
0001
1000
0001
0000
0100
0000
0010
0000
,  // measure 33
0100
0000
1001
0000
,  // measure 34
0001
1000
0101
1100
,  // measure 35
0010
0000
0100
0000
0001
0100
0010
0000
,  // measure 36
1000
0000
0100
0000
0010
0100
1000
0000
,  // measure 37
0002
0000
2003
0000
,  // measure 38
3100
0100
0010
0010
,  // measure 39
0002
0103
0020
0130
,  // measure 40
2000
3100
0020
0130
,  // measure 41
0100
0000
0000
0000
0100
0000
0000
0000
0010
0000
0000
0010
0000
0000
0010
0000
,  // measure 42
0001
0000
0000
0000
0001
0000
0000
0000
1000
0000
0000
1000
0000
0000
1000
0000
,  // measure 43
0100
1100
0100
0101
,  // measure 44
0001
0010
0100
1000
,  // measure 45
0010
0011
0010
1010
,  // measure 46
1000
0100
0010
0001
,  // measure 47
1000
1100
1000
1010
,  // measure 48
0010
0100
0001
1000
,  // measure 49
0001
0011
0001
0101
,  // measure 50
0001
1000
0100
0010
,  // measure 51
0002
0000
2003
0000
,  // measure 52
3200
0000
0010
0310
,  // measure 53
0020
0000
0032
0000
,  // measure 54
0103
0000
1001
0110
,  // measure 55
2002
0000
0000
0000
,  // measure 56
0000
0000
0000
3003
;

//---------------dance-single - ----------------
#NOTES:
     dance-single:
     :
     Easy:
     2:
     0.196,0.243,0.077,0.106,0.000: // measure 1
0000
0000
0000
0000
,  // measure 2
0000
0000
0000
0000
,  // measure 3
0000
0000
0000
0000
,  // measure 4
0000
0000
0000
0000
,  // measure 5
0000
0000
0000
0000
,  // measure 6
1000
0000
0100
0000
,  // measure 7
0001
0010
1000
0000
,  // measure 8
0001
0000
0100
0000
,  // measure 9
1000
0010
0001
0000
,  // measure 10
1001
0000
1001
0000
,  // measure 11
0010
0000
0000
0100
,  // measure 12
0100
0000
0000
0001
,  // measure 13
0001
0000
0000
1000
,  // measure 14
1000
0100
0001
0100
,  // measure 15
1000
0000
0000
0010
,  // measure 16
0010
0000
0000
0100
,  // measure 17
0100
0000
0000
0001
,  // measure 18
0001
1000
1001
1001
,  // measure 19
0010
0000
0010
0000
,  // measure 20
0100
0000
0100
0000
,  // measure 21
0001
0100
1000
0000
,  // measure 22
1000
0100
0001
0000
,  // measure 23
0100
0000
0100
0000
,  // measure 24
0010
0000
0010
0000
,  // measure 25
1000
0000
0100
0000
,  // measure 26
0100
1000
0001
0100
,  // measure 27
0010
0000
0010
0000
,  // measure 28
0100
0000
0100
0000
,  // measure 29
0001
0100
1000
0000
,  // measure 30
1000
0100
0001
0000
,  // measure 31
1000
0000
1000
0000
,  // measure 32
0001
0000
0001
0000
,  // measure 33
0100
0000
0001
0000
,  // measure 34
1000
0100
0010
0001
,  // measure 35
2000
0000
3010
0000
,  // measure 36
0002
0000
0103
0000
,  // measure 37
1000
0100
0010
0100
,  // measure 38
1000
0000
0001
0100
,  // measure 39
0020
0000
1030
0000
,  // measure 40
0200
0000
0301
0000
,  // measure 41
1000
0000
1100
0000
,  // measure 42
0001
0000
0101
0000
,  // measure 43
1000
1000
1000
0000
,  // measure 44
0001
0100
0010
0000
,  // measure 45
0001
0001
0001
0000
,  // measure 46
1000
0100
0010
0000
,  // measure 47
0001
1000
0100
0000
,  // measure 48
1000
0001
0100
0000
,  // measure 49
0010
1000
0100
0000
,  // measure 50
0010
0001
0100
0000
,  // measure 51
0002
0000
0203
0000
,  // measure 52
0320
0000
0000
0030
,  // measure 53
2000
0000
3200
0000
,  // measure 54
0310
0000
0110
0000
,  // measure 55
2002
0000
0000
0000
,  // measure 56
0000
0000
0000
3003
;

//---------------dance-single - ----------------
#NOTES:
     dance-single:
     :
     Beginner:
     1:
     0.111,0.189,0.019,0.058,0.000:
0000
0000
0000
0000
,
0000
0000
0000
0000
,
0000
0000
0000
0000
,
0000
0000
0000
0000
,
0000
0000
0000
0000
,
0001
0000
0100
0000
,
0001
0000
0100
0000
,
1000
0000
0100
0000
,
1000
0000
0100
0000
,
0020
0000
0030
0000
,
0100
0000
0000
0000
,
0100
0000
0000
0000
,
0100
0000
0000
0000
,
0100
0000
0100
0000
,
0100
0000
0000
0000
,
1000
0000
0000
0000
,
1000
0000
0000
0000
,
1000
1000
1000
0000
,
0001
0000
0000
0000
,
1000
0000
0000
0000
,
0001
0000
0001
0000
,
0001
0000
0000
0000
,
1000
0000
0000
0000
,
0001
0000
0000
0000
,
1000
0000
1000
0000
,
1000
0000
0000
0000
,
0100
0000
0000
0000
,
0100
0000
0000
0000
,
0100
0000
0100
0000
,
0100
0000
0000
0000
,
0001
0000
0000
0000
,
0001
0000
0000
0000
,
0001
0000
0001
0000
,
0001
0000
0000
0000
,
2000
0000
3001
0000
,
0002
0000
1003
0000
,
0100
0000
0100
0000
,
0100
0000
0000
0000
,
0001
0000
1000
0000
,
1000
0000
0001
0000
,
1001
0000
0000
0000
,
1001
0000
0000
0000
,
0100
0000
0100
0000
,
0100
0000
0000
0000
,
0001
0000
0001
0000
,
0001
0000
0000
0000
,
1000
0000
1000
0000
,
1000
0000
0000
0000
,
0100
0000
0100
0000
,
0100
0000
0000
0000
,
0001
0000
0001
0000
,
0002
0000
0003
0000
,
1000
0000
1000
0000
,
2000
0000
3000
0000
,
0200
0000
0000
0000
,
0000
0000
0000
0300
;
