#TITLE:Still Love You;
#SUBTITLE:;
#ARTIST:AAA;
#TITLETRANSLIT:;
#SUBTITLETRANSLIT:;
#ARTISTTRANSLIT:;
#GENRE:J-Pop;
#CREDIT:Frozen_Heat/Azn_Punk_07/GuardianFrozen;
#MENUCOLOR:#d4946f;
#METERTYPE:DDR;
#BANNER:Still Love You-bn.png;
#BACKGROUND:Still Love You-bg.png;
#LYRICSPATH:Still Love You.lrc;
#CDTITLE:!cdtitle.png;
#MUSIC:Still Love You.mp3;
#OFFSET:-0.044;
#SAMPLESTART:6.520;
#SAMPLELENGTH:14.769;
#SELECTABLE:YES;
#LISTSORT:;
#BPMS:0.000=130.000;
#STOPS:;
#BGCHANGES:;
#ATTACKS:;

//---------------dance-single - ----------------
#NOTES:
     dance-single:
     :
     Hard:
     7:
     0.478,0.590,0.051,0.044,0.055: // measure 1
0000
0000
0000
0000
,  // measure 2
0000
0000
0000
0000
,  // measure 3
0000
0000
0000
0000
,  // measure 4
0000
0000
0000
0000
1000
0100
0010
0100
,  // measure 5
1000
0000
0001
0010
1000
0010
0001
0000
,  // measure 6
0100
0001
1000
0001
0100
0000
0001
0010
,  // measure 7
1000
0000
0010
0001
0000
0001
0000
1000
,  // measure 8
0000
1000
0000
0000
0001
0100
0010
0100
,  // measure 9
0001
0000
1000
0010
0001
0010
1000
0000
,  // measure 10
0100
1000
0010
1000
0100
0000
1000
0010
,  // measure 11
0001
0000
0010
0100
0010
0100
0000
0001
,  // measure 12
0000
1000
0001
1000
0001
0001
1000
1000
,  // measure 13
0010
0000
0100
0000
0010
1000
0001
1000
,  // measure 14
0010
0000
0100
0001
0010
0000
0100
1000
,  // measure 15
0100
0000
1000
0000
0001
0010
0001
1000
,  // measure 16
0010
1000
0001
0000
0100
0000
0110
0000
,  // measure 17
0010
1000
0100
0000
0010
0001
0010
0100
,  // measure 18
1000
0000
0010
0000
0100
0010
0100
0000
,  // measure 19
0001
1000
0100
0000
1000
0001
0100
0000
,  // measure 20
0001
0010
0100
1000
0010
0100
0001
1000
,  // measure 21
0100
0000
0000
0100
0010
0001
0010
0100
,  // measure 22
0000
0100
0000
0100
1000
0010
0100
0001
,  // measure 23
0000
0001
0000
0001
0010
0100
1000
0010
,  // measure 24
0000
0010
0000
0010
1000
0001
0100
0001
,  // measure 25
1000
0000
1100
0000
0000
0010
0100
0000
,  // measure 26
1000
0001
1000
0000
0000
0000
0001
0000
,  // measure 27
0100
0000
0001
0100
0000
0000
0110
0000
,  // measure 28
0001
1000
0010
0000
1000
0001
0010
0000
,  // measure 29
0001
0000
0011
0000
0000
0100
0010
0000
,  // measure 30
0100
1000
0100
0000
0000
1000
0001
1000
,  // measure 31
0010
0000
0100
0001
0000
0000
0010
0000
,  // measure 32
0001
0100
1000
0100
0010
0010
0100
0010
,  // measure 33
1000
0000
0001
0000
1001
0000
0000
0010
,  // measure 34
0100
0000
0010
0000
0110
0000
0000
1000
,  // measure 35
0001
0000
1000
0001
0000
1000
0100
0000
,  // measure 36
0001
0010
0100
1000
0001
0001
1000
1000
,  // measure 37
0010
0000
0100
0010
0100
0001
0100
0000
,  // measure 38
0010
0000
1000
0000
0001
1000
0100
0000
,  // measure 39
0010
0001
0010
0000
0100
1000
0100
1000
,  // measure 40
0001
0000
0100
0000
0001
0000
0100
0000
0000
0000
0010
0000
0010
0000
1000
0100
,  // measure 41
1000
0000
0001
0000
0100
0000
0010
1000
0010
0000
0100
0000
0001
0000
0010
0001
,  // measure 42
0010
0000
0100
0000
1000
0000
0010
0000
0000
0000
0010
0000
0100
0000
0001
0010
,  // measure 43
0001
0000
1000
0000
0010
0000
0100
0001
0100
0000
0010
0000
1000
0000
0100
1000
,  // measure 44
0100
0010
0001
1000
0100
0110
0010
0010
,  // measure 45
0001
0000
1000
0010
1000
0000
0001
0000
1000
0000
0001
0010
0001
0000
1000
0000
,  // measure 46
0001
0000
0100
0001
0100
0000
0010
0000
1000
0000
0100
1000
0100
0000
0010
0001
,  // measure 47
0010
0000
0001
0100
0001
0000
0100
0010
0100
0000
0010
1000
0010
0000
1000
0100
,  // measure 48
1000
0100
0010
0001
2000
0000
3002
0000
,  // measure 49
0103
0000
0100
0010
1000
0010
0100
0000
,  // measure 50
0001
0010
1000
0010
0001
0000
1000
0010
,  // measure 51
1000
0000
0100
0010
0000
0010
0100
1000
,  // measure 52
0000
1000
0001
0000
1000
0010
0001
0010
,  // measure 53
1000
0000
0100
1000
0010
1000
0100
0000
,  // measure 54
0010
0001
0010
0100
1000
0000
0001
0100
,  // measure 55
0001
0000
1000
0100
0001
0100
0000
0100
,  // measure 56
0000
0010
0001
0000
0100
0100
0010
0010
,  // measure 57
1000
0001
1000
0000
0100
0010
0001
0010
,  // measure 58
0100
0000
1000
0100
1000
0100
0010
0000
,  // measure 59
0001
1000
0001
0000
0100
0001
0100
0001
,  // measure 60
1000
0001
0010
0000
0001
0010
0100
0000
,  // measure 61
1000
0100
1000
0000
0001
1000
0010
1000
,  // measure 62
0001
0100
0010
0000
1000
0010
1000
0000
,  // measure 63
0001
0010
0100
0000
1000
0001
0100
0001
,  // measure 64
1000
0100
0010
0000
0001
0010
0100
1000
,  // measure 65
0010
0000
0000
0010
1000
0100
1000
0010
,  // measure 66
0000
0010
0000
0010
0100
0001
1000
0100
,  // measure 67
0000
0100
0000
0100
1000
0010
0100
0001
,  // measure 68
0000
0001
0000
0001
0010
0100
1000
0001
,  // measure 69
1000
0000
0000
1000
0001
0100
0010
1000
,  // measure 70
0000
1000
0000
1000
0100
0010
0001
0100
,  // measure 71
0000
0100
0000
0100
1000
0100
0001
0010
,  // measure 72
0002
2003
3002
0103
0010
1000
0001
0010
,  // measure 73
0200
0000
0000
0000
,  // measure 74
0300
0000
0000
0000
;

//---------------dance-single - ----------------
#NOTES:
     dance-single:
     :
     Beginner:
     1:
     0.084,0.159,0.037,0.000,0.000:
0000
0000
0000
0000
,
0000
0000
0000
0000
,
0000
0000
0000
0000
,
0000
0000
0000
0000
,
0001
0000
0000
0000
,
1000
0000
0000
0000
,
0001
0000
0000
0000
,
1000
0000
0000
0000
,
0010
0000
0000
0000
,
0100
0000
0000
0000
,
0010
0000
0000
0000
,
0100
0000
0000
0000
,
0001
0000
0000
0000
,
0001
0000
0000
0000
,
1000
0000
0000
0000
,
1000
0000
0000
0000
,
0100
0000
0000
0000
,
0100
0000
0000
0000
,
0010
0000
0000
0000
,
0010
0000
0000
0000
,
1000
0000
0000
0000
,
0001
0000
0000
0000
,
0010
0000
0000
0000
,
0100
0000
0000
0000
,
1000
0000
0000
0000
,
0000
0000
0000
0000
,
0001
0000
0000
0000
,
0000
0000
0000
0000
,
0100
0000
0000
0000
,
0000
0000
0000
0000
,
0010
0000
0000
0000
,
0000
0000
0000
0000
,
1000
0000
1000
0000
,
0000
0000
0000
0000
,
0001
0000
0001
0000
,
0000
0000
0000
0000
,
0010
0000
0000
0000
,
0100
0000
0000
0000
,
0010
0000
0010
0000
,
0100
0000
0100
0000
,
1000
0000
0000
0000
,
0001
0000
0000
0000
,
0100
0000
0000
0000
,
0010
0000
0000
0000
,
1000
1000
0000
0000
,
0001
0001
0000
0000
,
0100
0000
0000
0000
,
0100
0000
0100
0000
,
0100
0100
0000
0000
,
0010
0010
0010
0000
,
0000
0000
0000
0000
,
0100
0000
0000
0000
,
1000
0000
1000
0000
,
0001
0001
0001
0000
,
0001
0000
0000
0000
,
1000
0000
0000
0000
,
1001
0000
0000
0000
,
0000
0000
0000
0000
,
0110
0000
0000
0000
,
0000
0000
0000
0000
,
1001
0000
0000
0000
,
0000
0000
0000
0000
,
0110
0000
0000
0000
,
0000
0000
0001
0001
,
0001
0000
0000
0000
,
0000
0000
1000
1000
,
1000
0000
0000
0000
,
0000
0000
0010
0010
,
0010
0000
0000
0000
,
0000
0000
0100
0100
,
0100
0000
0000
0000
,
0000
0000
0000
0000
,
1001
0000
0000
0000
;

//---------------dance-single - ----------------
#NOTES:
     dance-single:
     :
     Medium:
     5:
     0.325,0.344,0.015,0.125,0.000: // measure 1
0000
0000
0000
0000
,  // measure 2
0000
0000
0000
0000
,  // measure 3
0000
0000
0000
0000
,  // measure 4
0000
0000
0000
0000
,  // measure 5
0001
0000
0100
0000
1000
0100
0001
0000
,  // measure 6
1000
0000
0001
0100
1000
0000
0100
0000
,  // measure 7
0010
0000
1000
0000
,  // measure 8
0001
0000
0010
0100
,  // measure 9
1000
0000
0010
0000
0001
0010
1000
0000
,  // measure 10
0010
0000
1000
0010
0001
0000
0010
0000
,  // measure 11
0100
0000
0001
1000
,  // measure 12
0100
0000
0010
0100
,  // measure 13
0020
0001
0130
1000
,  // measure 14
0001
0100
0010
1000
,  // measure 15
0020
0100
1030
0001
,  // measure 16
0100
0010
1000
0001
,  // measure 17
0020
0100
0031
0100
,  // measure 18
0010
1000
0001
0100
,  // measure 19
0020
1000
0130
0001
,  // measure 20
1000
0000
0100
0000
0010
0100
0010
0100
,  // measure 21
0010
0000
0000
0000
0001
0100
0001
0000
,  // measure 22
0100
0000
0000
0000
1000
0100
1000
0000
,  // measure 23
0100
0000
0000
0000
0001
0100
0001
0000
,  // measure 24
0100
0000
0000
0000
1000
0100
1000
0000
,  // measure 25
0100
0100
0000
0010
,  // measure 26
0000
0001
0000
1000
,  // measure 27
0000
0010
0000
0100
,  // measure 28
0000
0001
0000
1000
,  // measure 29
0100
1000
0000
0010
,  // measure 30
0000
0100
0000
0001
,  // measure 31
0000
1000
0000
0100
,  // measure 32
0000
0010
0001
1000
,  // measure 33
0010
0010
0100
0000
,  // measure 34
0001
0010
1000
0000
,  // measure 35
0010
0010
0100
0000
,  // measure 36
1000
0010
0001
0000
,  // measure 37
0010
0010
0100
0100
,  // measure 38
0001
1000
0001
0001
,  // measure 39
1000
0100
0010
0001
,  // measure 40
1000
0001
1001
0000
,  // measure 41
1000
0010
1000
0000
0010
0100
0010
0000
,  // measure 42
0100
0001
0100
0000
0001
0000
0001
0000
,  // measure 43
0010
0001
0010
0000
0100
0010
0100
0000
,  // measure 44
1000
0100
1000
0000
0010
0000
0010
0000
,  // measure 45
0100
0001
0100
0000
0010
1000
0010
0000
,  // measure 46
1000
0100
1000
0000
0001
0010
0001
0000
,  // measure 47
1000
1000
1000
0000
0001
0001
0001
0000
,  // measure 48
1000
0000
0001
0000
1000
0001
1000
0001
,  // measure 49
0100
0000
0100
0000
0010
1000
0010
0000
,  // measure 50
0100
0000
0001
1000
0100
0000
0010
0000
,  // measure 51
0100
0000
1000
0001
,  // measure 52
0100
0010
0100
0000
0001
1000
0001
1000
,  // measure 53
0100
0000
0100
0000
0010
0001
0010
0000
,  // measure 54
0100
0000
1000
0010
0100
0000
0001
1000
,  // measure 55
0001
0000
0100
0010
,  // measure 56
1000
0001
1000
0000
0200
0000
0320
0000
,  // measure 57
0032
1003
0010
0100
,  // measure 58
0001
0000
1000
0001
2000
0000
3020
0000
,  // measure 59
0230
0301
1000
0100
,  // measure 60
0010
0000
0100
1000
0002
0000
0203
0000
,  // measure 61
0320
1030
0001
0100
,  // measure 62
0010
0000
1000
0001
0020
0000
0230
0000
,  // measure 63
2300
3001
0100
0010
,  // measure 64
1000
0000
0001
0000
0100
0010
0100
0010
,  // measure 65
0200
0000
0300
0000
0010
1000
0010
0000
,  // measure 66
0100
0000
0100
0000
0001
0010
0001
0000
,  // measure 67
0010
0000
0010
0000
0100
1000
0100
0000
,  // measure 68
0010
0000
0010
0000
0001
1000
0001
1000
,  // measure 69
0010
0000
0010
0000
1000
0010
1000
0000
,  // measure 70
0100
0000
0100
0000
0010
0001
0010
0000
,  // measure 71
0100
0000
0100
0000
1000
0010
1000
0000
,  // measure 72
0010
0000
0010
0000
0100
0010
0100
0000
,  // measure 73
0110
0000
0000
0000
;

//---------------dance-single - ----------------
#NOTES:
     dance-single:
     :
     Easy:
     4:
     0.269,0.344,0.118,0.257,0.000: // measure 1
0000
0000
0000
0000
,  // measure 2
0000
0000
0000
0000
,  // measure 3
0000
0000
0000
0000
,  // measure 4
0000
0000
0000
0000
,  // measure 5
0001
0001
0100
0000
,  // measure 6
0010
1000
0010
0000
,  // measure 7
0100
0000
0001
1000
,  // measure 8
0100
0000
0010
0010
,  // measure 9
0100
0000
1000
0001
,  // measure 10
0100
0000
0010
1000
,  // measure 11
0010
0000
0100
0000
,  // measure 12
0001
0001
1000
1000
,  // measure 13
0200
0300
0020
0030
,  // measure 14
0200
0300
2000
3000
,  // measure 15
0002
0003
0200
0300
,  // measure 16
0020
0030
2000
3000
,  // measure 17
0002
0003
0020
0030
,  // measure 18
0200
0300
0020
0030
,  // measure 19
0002
0003
2000
3000
,  // measure 20
0020
0030
0100
0100
,  // measure 21
0210
0000
0300
0000
,  // measure 22
1002
0000
0003
0000
,  // measure 23
0120
0000
0030
0000
,  // measure 24
2001
0000
3001
0010
,  // measure 25
0100
0000
0010
0000
,  // measure 26
1000
0000
0000
0000
,  // measure 27
0001
0000
1000
0000
,  // measure 28
0100
0000
0000
0000
,  // measure 29
0010
0000
0001
0000
,  // measure 30
0100
0000
0000
0000
,  // measure 31
0010
1000
0100
0010
,  // measure 32
0001
1000
0001
0100
,  // measure 33
0010
0000
1000
0000
,  // measure 34
0100
0000
1000
0000
,  // measure 35
0001
0000
0100
0000
,  // measure 36
0010
0000
0100
0000
,  // measure 37
0001
0000
0000
0000
,  // measure 38
1000
0000
0000
0000
,  // measure 39
0100
0100
0010
0010
,  // measure 40
0001
1000
0001
1000
,  // measure 41
0010
0010
0100
0100
,  // measure 42
0001
0010
1000
0100
,  // measure 43
0001
0001
1000
1000
,  // measure 44
0010
0001
0100
1000
,  // measure 45
0010
0010
0100
0100
,  // measure 46
0001
0010
1000
0100
,  // measure 47
0001
0001
1000
1000
,  // measure 48
0110
0110
2002
3003
,  // measure 49
1000
1000
0100
0001
,  // measure 50
0100
0100
0010
0001
,  // measure 51
1000
0010
0001
0010
,  // measure 52
1000
1000
0001
1000
,  // measure 53
0001
0001
0010
1000
,  // measure 54
0010
0010
0100
1000
,  // measure 55
0010
0100
0001
1000
,  // measure 56
0100
0100
0010
0100
,  // measure 57
2000
3100
0002
0103
,  // measure 58
0020
0130
1000
0001
,  // measure 59
2000
3010
0002
0013
,  // measure 60
0200
0310
0001
0100
,  // measure 61
0002
1003
0020
1030
,  // measure 62
0200
1300
0001
0100
,  // measure 63
2000
3001
0200
0301
,  // measure 64
0020
0031
1000
0001
,  // measure 65
1001
0000
0100
0010
,  // measure 66
0110
0000
0001
1000
,  // measure 67
1001
0000
0010
0100
,  // measure 68
0110
0000
1000
1000
,  // measure 69
1001
0100
0001
1000
,  // measure 70
0110
1000
0001
0010
,  // measure 71
1001
0100
0001
1000
,  // measure 72
0220
0330
0001
0010
,  // measure 73
1001
0000
0000
0000
;
