#VERSION:0.81;
#TITLE:Show Me;
#SUBTITLE:;
#ARTIST:Jessica Sutta;
#TITLETRANSLIT:;
#SUBTITLETRANSLIT:;
#ARTISTTRANSLIT:;
#GENRE:;
#ORIGIN:;
#CREDIT:hooky;
#BANNER:[DDR Artists] - Show Me.png;
#BACKGROUND:[DDR Artists] - Show Me-bg.png;
#JACKET:Show Me-jacket.png;
#CDIMAGE:;
#DISCIMAGE:;
#LYRICSPATH:;
#CDTITLE:;
#MUSIC:[DDR Artists] - Show Me.ogg;
#OFFSET:-0.126;
#SAMPLESTART:41.340;
#SAMPLELENGTH:16.520;
#SELECTABLE:YES;
#DISPLAYBPM:128.000;
#BPMS:0.000=128.000;
#STOPS:;
#DELAYS:;
#WARPS:;
#TIMESIGNATURES:0.000=4=4;
#TICKCOUNTS:0.000=4;
#COMBOS:0.000=1;
#SPEEDS:0.000=1.000=0.000=0;
#SCROLLS:0.000=1.000;
#FAKES:;
#LABELS:0.000=Song Start;
#BGCHANGES:-4.000=cdtitle.png=1.000=1=0=0=StretchNoLoop==CrossFade==,
-0.250=[DDR Artists] - Show Me.avi=1.000=0=0=0=StretchNoLoop====,
204.000=cdtitle.png=1.000=0=0=1=====,
99999=-nosongbg-=1.000=0=0=0 // don't automatically add -songbackground-
;
#KEYSOUNDS:;
#ATTACKS:
;

//---------------dance-single - hooky----------------
#NOTEDATA:;
#CHARTNAME:hooky;
#STEPSTYPE:dance-single;
#DESCRIPTION:hooky;
#CHARTSTYLE:;
#DIFFICULTY:Hard;
#METER:7;
#RADARVALUES:0.435,0.420,0.414,0.093,0.010,245.000,40.000,9.000,0.000,0.000,0.000,0.000,0.000,0.435,0.420,0.414,0.093,0.010,245.000,40.000,9.000,0.000,0.000,0.000,0.000,0.000;
#CREDIT:hooky;
#OFFSET:-0.126;
#BPMS:0.000=128.000
;
#STOPS:;
#DELAYS:;
#WARPS:;
#TIMESIGNATURES:0.000=4=4
;
#TICKCOUNTS:0.000=4
;
#COMBOS:0.000=1
;
#SPEEDS:0.000=1.000=0.000=0
;
#SCROLLS:0.000=1.000
;
#FAKES:;
#LABELS:0.000=Song Start
;
#DISPLAYBPM:128.000;
#NOTES:
0000
0000
0000
0000
,
0000
0000
0000
0000
,
1000
0000
0000
0100
0000
0000
0010
0000
,
0000
0001
0000
0000
0100
0000
0000
0010
,
0000
0000
0100
0000
0000
0010
0000
0000
,
1000
0000
0000
0100
0000
0000
0010
0000
,
1100
0000
1100
0000
0100
0010
0100
0000
,
0011
0000
0011
0000
0100
0010
0100
0000
,
1010
0100
0101
0100
,
1000
0100
1000
0000
0010
0001
0010
0000
,
0110
0000
0110
0000
0010
0001
0010
0000
,
1010
0000
1010
0000
0100
0010
1000
0000
,
0001
0001
0101
0000
1010
0000
0100
0000
,
2002
0000
0000
3003
,
0100
0010
0100
0000
0100
0001
0100
0000
,
0010
0001
0010
0000
0110
0000
0110
0000
,
0010
0001
0010
0000
0100
1000
0100
0000
,
0001
0001
0011
0000
1000
1000
1100
0000
,
0110
0000
0011
0000
1000
0100
1000
0000
,
0110
1100
0011
0101
,
1000
0100
1000
0000
0110
0000
0110
0000
,
0001
0001
2000
0000
0100
0100
3010
0000
,
1000
0100
1000
0100
0110
0000
0110
0000
,
0001
0010
0001
0010
0110
0000
0110
0000
,
1000
0100
1000
0100
0000
1000
0000
0000
,
0010
0001
0010
0001
0000
0010
0000
0000
,
0100
0010
0100
0010
0110
0000
1100
0000
,
0001
0100
0010
0100
1100
0000
0011
0000
,
1000
0100
0010
0100
0000
0010
0000
0000
,
0001
0100
0010
0100
0000
0010
0000
0000
,
1000
0100
1000
0100
1000
1000
1100
0000
,
0010
0001
0010
0001
0010
0010
0011
0000
,
1000
0010
1000
0000
0001
0100
0010
0000
,
2001
0100
0010
3001
,
0001
0010
0001
0010
0110
0000
0110
0000
,
1000
0100
1000
0100
0110
0000
0110
0000
,
0002
1000
2000
3003
,
2000
0000
0000
0001
0002
0000
3003
0000
,
1000
0000
0010
0000
1000
0000
0010
0000
0100
0000
0010
0000
0100
0000
0000
0001
,
0000
1000
0010
0100
0010
1000
0010
0000
,
0001
0010
0100
0010
0001
1000
0001
0010
,
0001
0100
0010
0100
0001
0100
0010
0000
,
0001
0000
0100
0000
0001
0000
0100
0000
0010
0000
0100
0000
0010
0000
0000
1000
,
0000
0001
0100
0010
0100
0001
0100
0000
,
1000
0100
0010
0100
1000
0001
1000
0100
,
1000
0010
0100
0010
1000
0010
0100
0000
,
1000
0000
0000
0100
0000
0000
0010
0000
,
0000
0001
0000
0000
0010
0000
0000
0001
,
0000
0000
0100
0000
0000
0010
0000
0000
,
1000
0000
0000
0100
0000
0000
2000
0000
,
0000
0000
0000
3000
;

//---------------dance-single - hooky----------------
#NOTEDATA:;
#CHARTNAME:hooky;
#STEPSTYPE:dance-single;
#DESCRIPTION:hooky;
#CHARTSTYLE:;
#DIFFICULTY:Medium;
#METER:5;
#RADARVALUES:0.268,0.283,0.052,0.145,0.016,162.000,5.000,14.000,0.000,0.000,0.000,0.000,0.000,0.268,0.283,0.052,0.145,0.016,162.000,5.000,14.000,0.000,0.000,0.000,0.000,0.000;
#CREDIT:hooky;
#OFFSET:-0.126;
#BPMS:0.000=128.000
;
#STOPS:;
#DELAYS:;
#WARPS:;
#TIMESIGNATURES:0.000=4=4
;
#TICKCOUNTS:0.000=4
;
#COMBOS:0.000=1
;
#SPEEDS:0.000=1.000=0.000=0
;
#SCROLLS:0.000=1.000
;
#FAKES:;
#LABELS:0.000=Song Start
;
#DISPLAYBPM:128.000;
#NOTES:
0000
0000
0000
0000
,
0000
0000
0000
0000
,
2000
0000
0000
0000
,
0000
0000
0000
0000
,
0000
0002
0000
0000
0000
0000
0000
0000
0000
0000
0000
0000
0000
0000
0000
0000
,
0000
0000
0000
3003
,
1000
1000
0100
1000
,
1000
1000
0010
0100
,
0001
0001
0001
0010
,
0001
0100
0010
1000
,
0100
0100
1000
0010
,
0100
0100
0001
0010
,
0001
0001
0100
0100
,
2002
0000
0000
3003
,
0100
0010
1000
0100
,
1000
0010
0100
0100
,
0001
0010
0001
0100
,
0010
0010
0100
0100
,
0010
0100
1000
0100
,
0010
1000
1000
0010
,
0100
0001
1000
0010
,
0100
0010
0100
0000
0010
0100
0110
0000
,
1000
1000
0100
0100
,
1000
1000
0100
0100
,
0010
0010
0002
0003
,
1000
1000
0200
0300
,
0010
0100
0010
0011
,
1000
0100
0010
0010
,
1001
0001
0100
0100
,
0010
1000
0100
0100
,
1000
0010
0100
0001
,
0001
0010
0001
0001
,
0100
0010
1000
0100
,
1000
0010
0100
0001
,
1000
1000
0100
0100
,
1000
0010
0100
0001
,
2000
0000
0002
3003
,
0200
0000
0020
0330
,
1000
0100
1000
0010
,
0100
0000
0001
0000
0010
0001
0010
0000
,
0100
1000
0100
0010
,
0100
0000
0010
0000
0100
1000
0100
0000
,
0011
0100
0001
0010
,
0001
0000
0100
0000
0010
0100
0010
0000
,
1000
0100
1000
0010
,
0100
0001
1000
0010
,
2000
0000
0000
0000
,
0000
0002
0000
0000
0000
0000
3003
0000
,
0000
0200
0000
0000
0000
0000
0000
0000
0000
0000
0000
0000
0000
0000
0000
0000
,
0000
0000
0000
0020
0000
0000
0000
0000
0000
0000
0000
0000
0330
0000
0000
0000
;

//---------------dance-single - hooky----------------
#NOTEDATA:;
#CHARTNAME:hooky;
#STEPSTYPE:dance-single;
#DESCRIPTION:hooky;
#CHARTSTYLE:;
#DIFFICULTY:Easy;
#METER:3;
#RADARVALUES:0.160,0.190,0.041,0.083,0.000,96.000,4.000,8.000,0.000,0.000,0.000,0.000,0.000,0.160,0.190,0.041,0.083,0.000,96.000,4.000,8.000,0.000,0.000,0.000,0.000,0.000;
#CREDIT:hooky;
#OFFSET:-0.126;
#BPMS:0.000=128.000
;
#STOPS:;
#DELAYS:;
#WARPS:;
#TIMESIGNATURES:0.000=4=4
;
#TICKCOUNTS:0.000=4
;
#COMBOS:0.000=1
;
#SPEEDS:0.000=1.000=0.000=0
;
#SCROLLS:0.000=1.000
;
#FAKES:;
#LABELS:0.000=Song Start
;
#DISPLAYBPM:128.000;
#NOTES:
0000
0000
0000
0000
,
0000
0000
0000
0000
,
2000
0000
0000
0000
,
0000
0000
0000
3000
,
0002
0000
0000
0000
,
0000
0000
0000
0003
,
0100
0000
1000
0100
,
1000
0000
1000
0001
,
1000
0000
1000
0000
,
0001
0000
0001
0000
,
0100
0000
1000
0100
,
1000
0000
0100
0001
,
0010
0000
0100
0010
,
1000
0000
1000
0000
,
0001
0100
0001
0000
,
1000
0010
1000
0000
,
0100
0000
1100
0000
,
0010
0010
0011
0000
,
0001
0000
0100
0000
,
0010
1000
0100
0000
,
1000
0000
1000
0000
,
2002
0000
0000
3003
,
0100
0001
0100
0100
,
0010
0000
0100
0000
,
0001
1000
0001
0000
,
1000
0001
1000
0000
,
0010
0100
0001
1000
,
0100
0100
1000
0000
,
0010
0100
0010
0000
,
1000
0100
1000
0000
,
0001
0010
0100
0100
,
1000
0100
0010
0010
,
0001
1000
0001
0100
,
0010
0000
0100
0000
,
0010
1000
0100
0000
,
1000
0010
0100
0000
,
0001
0000
0001
0000
,
1000
0000
1000
0000
,
0200
0000
0000
0000
,
0000
0000
0000
0300
,
0020
0000
0000
0000
,
0000
0000
0000
0030
,
2000
0000
0000
0000
,
0000
0000
0000
3000
,
0002
0000
0000
0000
,
0000
0000
0000
0003
,
1001
0000
0000
0000
;

//---------------dance-single - Copied from hooky----------------
#NOTEDATA:;
#CHARTNAME:Copied from hooky;
#STEPSTYPE:dance-single;
#DESCRIPTION:Copied from hooky;
#CHARTSTYLE:;
#DIFFICULTY:Beginner;
#METER:1;
#RADARVALUES:0.086,0.119,0.031,0.000,0.000,55.000,3.000,0.000,0.000,0.000,0.000,0.000,0.000,0.086,0.119,0.031,0.000,0.000,55.000,3.000,0.000,0.000,0.000,0.000,0.000,0.000;
#CREDIT:Copied from hooky;
#OFFSET:-0.126;
#BPMS:0.000=128.000
;
#STOPS:;
#DELAYS:;
#WARPS:;
#TIMESIGNATURES:0.000=4=4
;
#TICKCOUNTS:0.000=4
;
#COMBOS:0.000=1
;
#SPEEDS:0.000=1.000=0.000=0
;
#SCROLLS:0.000=1.000
;
#FAKES:;
#LABELS:0.000=Song Start
;
#DISPLAYBPM:128.000;
#NOTES:
0000
0000
0000
0000
,
0000
0000
0000
0000
,
0001
0000
0000
0000
,
0000
0000
0000
0000
,
1000
0000
0000
0000
,
0000
0000
0000
0000
,
0010
0000
0000
0000
,
0001
0000
0000
0000
,
0001
0000
0000
0000
,
1000
0000
0000
0000
,
0010
0000
0000
0000
,
0001
0000
0000
0000
,
0100
0000
0000
0000
,
0001
0000
0000
0000
,
1000
0000
1000
0000
,
0001
0000
0001
0000
,
0010
0000
0010
0000
,
0100
0000
0110
0000
,
1000
0000
0000
0000
,
0100
0000
0000
0000
,
0001
0000
0001
0000
,
1001
0000
0000
0000
,
0010
0000
0010
0000
,
0100
0000
0010
0000
,
1000
0000
0000
0000
,
0001
0000
0000
0000
,
0100
0000
1000
0000
,
0010
0000
0001
0000
,
0100
0000
0100
0000
,
0001
0000
0001
0000
,
1000
0000
0010
0000
,
0001
0000
0100
0000
,
1000
0000
1000
0000
,
0100
0000
0000
0000
,
0100
0000
0010
0000
,
0001
0000
0010
0000
,
1000
0000
0000
0000
,
0001
0000
0000
0000
,
0010
0000
0000
0000
,
0000
0000
0000
0000
,
0100
0000
0000
0000
,
0000
0000
0000
0000
,
0001
0000
0000
0000
,
0000
0000
0000
0000
,
1000
0000
0000
0000
,
0000
0000
0000
0000
,
1001
0000
0000
0000
;
