#TITLE:SWEETEST SAVAGE;
#SUBTITLE:;
#ARTIST:Unknown artist;
#TITLETRANSLIT:;
#SUBTITLETRANSLIT:;
#ARTISTTRANSLIT:;
#CREDIT:;
#BANNER:sweet.bn.png;
#BACKGROUND:sweetest.bg.png;
#LYRICSPATH:;
#CDTITLE:;
#MUSIC:SWEETEST SAVAGE.mp3;
#OFFSET:-0.040;
#SAMPLESTART:69.112;
#SAMPLELENGTH:12.000;
#SELECTABLE:YES;
#BPMS:0.000=114.000,104.000=57.000,106.000=114.000;
#STOPS:;
#BGCHANGES:;

//---------------dance-single - ----------------
#NOTES:
     dance-single:
     :
     Hard:
     9:
     0.697,0.703,0.837,0.177,0.511: // measure 1
0000
0000
0000
0000
,  // measure 2
0001
0001
1000
1000
,  // measure 3
0001
0000
1001
0000
1000
0001
0000
0001
0010
0000
0010
0001
0000
0001
0100
0010
,  // measure 4
1000
0000
1100
0000
0000
0101
0000
0000
0110
0000
0000
1001
0000
1000
0100
0010
,  // measure 5
0001
0000
1001
0000
1000
0010
0000
0010
1000
0000
0001
0100
0010
0000
0010
0100
,  // measure 6
0002
0000
0000
0000
2000
3003
0110
0000
,  // measure 7
1000
0000
0000
0000
0001
0000
0000
0000
0001
0000
0001
0010
0000
0010
0001
0000
,  // measure 8
0101
0000
1000
0100
0010
0000
0010
0100
1000
0000
1000
0010
0000
0010
1000
0000
,  // measure 9
1001
0000
1000
0000
1000
0000
0001
0000
0002
0000
0000
1003
0000
0000
1001
0000
,  // measure 10
0110
0000
1001
0000
1001
0110
1001
0000
,  // measure 11
1000
0100
0010
0000
0010
0100
0000
0100
0010
0000
0010
0001
0100
0000
0101
0000
,  // measure 12
0110
0000
0010
1000
0000
1000
0100
0000
0010
0001
0100
0010
1000
0000
1010
0000
,  // measure 13
1001
0000
1000
0000
0001
0000
1000
0001
0100
0000
0010
0000
0100
0000
0110
0000
,  // measure 14
1001
0000
0011
0000
1001
0110
1001
1001
,  // measure 15
0210
0000
0320
0000
0130
0001
2000
0000
,  // measure 16
3100
0000
0010
0001
0200
0000
0010
0000
0310
0000
1000
0000
0010
0000
0100
0000
,  // measure 17
0002
0000
2003
0000
0001
0001
3001
0000
,  // measure 18
1000
0001
1000
0001
1001
0110
1001
0110
,  // measure 19
1000
0000
1000
0000
0001
0000
0001
0000
0010
0000
0010
0001
0000
0001
0010
0100
,  // measure 20
1000
0000
1000
0000
0001
0000
0001
0000
0001
0100
0000
0100
0010
1000
0100
0010
,  // measure 21
0001
0000
0001
0000
1000
0000
1000
0000
1000
0100
0000
0100
0010
0001
0100
0000
,  // measure 22
0010
1000
0100
0000
0110
0000
0001
0100
0010
0000
0110
0000
1001
0000
0110
0000
,  // measure 23
1100
0000
1100
0000
0101
0000
0101
0000
0001
0100
0000
0100
0010
0001
0100
0000
,  // measure 24
1010
0000
1010
0000
0011
0000
0011
0000
0001
0010
0100
1000
0100
0010
0001
0000
,  // measure 25
1001
0000
0110
0000
1001
0000
1001
0000
1000
0001
0000
0001
0010
0100
1000
0000
,  // measure 26
0001
0100
0010
0000
0010
1000
0100
0000
0110
0000
1001
0000
1001
0000
0110
0000
,  // measure 27
2002
0000
0000
3003
0001
0000
1000
0001
,  // measure 28
1000
0000
0000
0000
1001
0000
0000
0000
0110
0000
0100
0001
0010
0000
0110
0000
,  // measure 29
1001
0000
1000
0100
0000
0100
1000
0000
0101
0000
0001
0010
0100
0000
0100
1000
,  // measure 30
0010
0000
0010
0100
0000
0100
0010
1000
0100
0000
1100
0000
1001
0000
0001
1000
,  // measure 31
0001
1000
0001
0010
0100
0010
0100
0000
0011
0000
1001
0000
0110
0000
1000
0001
,  // measure 32
1000
0000
1001
0000
1001
0000
0001
0000
1000
0001
0010
0100
1000
0010
0100
0001
,  // measure 33
0010
1000
0010
0100
0010
0001
1000
0000
1001
0000
0001
1000
0001
0000
0001
0100
,  // measure 34
0010
0000
0010
1000
0000
1000
0010
0000
1010
0000
1000
0100
0010
0000
0010
0001
,  // measure 35
0000
0001
0100
0000
0101
0000
0010
1000
0100
0000
0100
0010
0001
0100
0010
0000
,  // measure 36
0010
1000
0100
0000
0110
0000
0100
0010
0001
0000
0101
0000
0001
1000
0100
0000
,  // measure 37
1001
0000
0001
0100
0010
0000
0000
0000
2000
0000
0000
0000
0000
0000
0000
0000
,  // measure 38
3002
0000
0203
0000
,  // measure 39
0310
1000
0010
0100
0020
0000
0000
0000
,  // measure 40
2030
0000
0002
3003
,  // measure 41
1000
0001
1000
0001
0001
0001
1000
1000
,  // measure 42
0100
0000
0100
1000
0000
1000
0100
0010
0001
0000
0001
0000
1000
0000
1000
0000
,  // measure 43
1000
0010
0000
0010
0100
0001
0010
0100
1000
0000
1000
0000
0001
0000
0001
0000
,  // measure 44
0001
0010
0000
0010
0100
1000
0010
0000
0100
0001
0010
0000
0110
0000
1000
0010
,  // measure 45
0100
0110
1001
0110
0011
0011
1010
1010
,  // measure 46
1000
0010
0000
0010
0100
1000
0010
0000
0101
0000
0101
0000
1100
0000
1100
0000
,  // measure 47
1000
0100
0010
0001
0010
0100
1000
0000
1001
0000
0110
0000
1001
0000
1001
0000
,  // measure 48
0001
1000
0000
1000
0100
0010
0001
0000
1000
0010
0100
0000
0100
0001
0010
0000
,  // measure 49
0110
1001
0110
2002
0000
0000
3003
0000
;

//---------------dance-single - Copied from----------------
#NOTES:
     dance-single:
     Copied from:
     Medium:
     6:
     0.356,0.359,0.484,0.158,0.000:
0000
0000
0000
0000
,
1000
1000
0001
0001
,
1000
0000
0001
0000
0100
0010
0100
0000
,
0001
1000
0110
0110
,
1000
0000
0001
0000
0001
1000
0100
0000
,
2000
0000
0000
0000
0002
3003
0110
0000
,
0001
0000
1000
0001
1000
0000
0000
0000
,
1010
0000
0100
0000
0001
1000
0001
0000
,
1001
0001
2000
3001
,
0110
1001
1001
1001
,
0001
0000
0100
0010
0100
0000
0010
0000
,
0110
0000
1001
0000
0100
0001
1000
0000
,
1001
0000
1000
0000
0010
1000
0010
0000
,
1001
1100
1001
1001
,
0120
0230
0310
0002
,
0013
0020
0130
0100
,
2000
3002
1000
1003
,
0001
1000
0001
0000
1001
0000
0001
1000
,
0001
1000
0001
0000
0100
0000
0100
0000
,
0001
1000
0001
0000
1000
0000
0100
0000
,
1000
0001
1000
0000
0001
0000
0100
0000
,
0100
0110
0100
1001
,
0011
1010
1000
0100
,
0101
1100
1000
0010
,
1001
1001
0001
0100
,
1000
0100
0110
1001
,
2002
0000
0000
3003
1000
0000
0001
0000
,
1000
1001
0110
0100
,
1001
0000
1010
0010
,
0100
0000
1010
0001
,
1000
0010
1100
0110
,
0001
0000
1001
0000
0001
1000
0001
0000
,
0100
0010
0100
0000
1001
0000
1000
0001
,
0100
0010
0101
0100
,
0010
1000
1010
0000
0010
0000
1000
0000
,
0100
0110
1000
1000
,
1001
0100
0002
0000
,
2003
0000
3020
0000
,
0130
0010
0100
0000
0200
0000
0000
0000
,
0302
0000
2000
3003
,
0001
0000
1000
0000
1000
0001
1000
0000
,
0010
0000
0010
0000
1000
0001
1000
0000
,
0001
0000
0010
0000
0001
1000
0001
0000
,
1000
0010
0010
0110
,
0010
1001
1100
0101
,
0001
0010
1010
0011
,
0001
0100
1001
1001
,
1000
0010
0001
0010
,
0110
1001
0000
0000
;

//---------------dance-single - Copied from Copied f----------------
#NOTES:
     dance-single:
     Copied from Copied f:
     Easy:
     5:
     0.329,0.337,0.484,0.158,0.000:
0000
0000
0000
0000
,
0100
0100
0010
0010
,
0100
0010
0001
0001
,
0010
0100
1001
1001
,
0100
0010
0010
0001
,
0200
0000
0000
0000
0020
0330
1001
0000
,
0010
0100
0100
0000
,
1100
0001
0010
0010
,
0110
0010
0200
0310
,
1001
0110
0110
0110
,
0010
0001
0001
1000
,
1001
0110
0001
0100
,
0110
0100
1000
1000
,
0110
0101
0110
0110
,
2001
3002
1003
0020
,
1030
2000
3001
0001
,
0200
0320
0100
0130
,
0010
0010
0110
0010
,
0010
0010
0001
0001
,
0010
0010
0100
0001
,
0100
0100
0010
0001
,
0001
1001
0001
0110
,
1010
1100
0100
0001
,
0011
0101
0100
1000
,
0110
0110
0010
0001
,
0100
0001
1001
0110
,
0220
0000
0000
0330
0100
0000
0010
0000
,
0100
0110
1001
0001
,
0110
0000
1100
1000
,
0001
0000
1100
0010
,
0100
1000
0101
1001
,
0010
0110
0010
0010
,
0001
0001
0110
0100
,
0001
1000
0011
0001
,
1000
1100
1000
0100
,
0001
1001
0100
0100
,
0110
0001
0020
0000
,
0230
0000
2300
0000
,
3001
0001
0002
0000
,
0023
0000
0200
0330
,
0010
0100
0100
0100
,
1000
1000
0100
0100
,
0010
1000
0010
0010
,
0100
1000
1000
1001
,
1000
0110
0101
0011
,
0010
1000
1100
1010
,
0010
0001
0110
0110
,
0100
1000
0010
1000
,
1001
0110
0000
0000
;
