#TITLE:Red Goose;
#SUBTITLE:;
#ARTIST:Mutsuhiko Izumi;
#TITLETRANSLIT:;
#SUBTITLETRANSLIT:;
#ARTISTTRANSLIT:;
#GENRE:;
#CREDIT:Unknown StepMaker;
#MENUCOLOR:;
#METERTYPE:DDR;
#BANNER:Red Goose.png;
#BACKGROUND:Red Goose-bg.png;
#LYRICSPATH:;
#CDTITLE:;
#MUSIC:14. Red Goose.mp3;
#OFFSET:-11.700;
#SAMPLESTART:45.300;
#SAMPLELENGTH:12.000;
#SELECTABLE:YES;
#LISTSORT:;
#BPMS:0.000=200.000;
#STOPS:;
#BGCHANGES:;
#ATTACKS:;

//---------------dance-single - ----------------
#NOTES:
     dance-single:
     :
     Medium:
     6:
     0.295,0.567,0.184,0.080,0.000: // measure 1
1000
0001
1000
0000
0000
0000
0000
0000
,  // measure 2
0010
1000
0010
0000
0000
0000
0000
0000
,  // measure 3
0100
0001
0100
0000
0000
0000
0000
0000
,  // measure 4
1000
0001
1000
0000
0000
0000
0000
0000
,  // measure 5
0010
0100
0010
0000
0000
0000
0000
0000
,  // measure 6
0100
0001
0100
0000
0000
0000
0000
0000
,  // measure 7
1000
0010
1000
0000
0000
0000
0000
0000
,  // measure 8
1000
0001
1000
0000
0000
0000
0000
0000
,  // measure 9
0010
0100
0010
0000
0000
0000
0000
0000
,  // measure 10
1000
0001
1000
0000
0000
0000
0000
0000
,  // measure 11
0100
0100
0000
0000
,  // measure 12
1000
0001
1000
0000
0000
0000
0000
0000
,  // measure 13
0010
0001
0010
0000
0000
0000
0000
0000
,  // measure 14
1000
0100
1000
0000
0000
0000
0000
0000
,  // measure 15
1000
1000
0001
0000
,  // measure 16
1000
0000
1000
0010
0000
0000
0000
0000
,  // measure 17
0001
0000
0001
1000
0000
0000
0000
0000
,  // measure 18
0100
0000
0100
0010
0000
0000
0000
0000
,  // measure 19
1000
0001
1000
0000
0000
0000
0000
0000
,  // measure 20
0010
0100
0010
0000
0000
0000
0000
0000
,  // measure 21
1000
0100
1000
0000
0000
0000
0000
0000
,  // measure 22
0001
0100
0001
0000
0000
0000
0000
0000
,  // measure 23
1000
0010
1000
0000
0000
0000
0000
0000
,  // measure 24
0100
0010
0100
0000
0000
0000
0000
0000
,  // measure 25
0001
1000
0000
0001
0000
0000
0000
0000
,  // measure 26
0100
0010
0100
0000
0000
0000
0000
0000
,  // measure 27
0200
0000
0000
0000
,  // measure 28
0302
0000
0000
0000
,  // measure 29
2000
0003
0000
0000
0000
0000
0000
0000
,  // measure 30
3020
0000
0000
0000
,  // measure 31
0230
0000
0000
0000
,  // measure 32
0302
0000
0000
0000
,  // measure 33
2003
0000
0000
0000
,  // measure 34
3020
0000
0000
0000
,  // measure 35
0230
0000
0000
0000
,  // measure 36
0302
0000
0000
0000
,  // measure 37
1003
0000
0000
1000
0100
0000
0000
0000
,  // measure 38
1000
0010
0000
0000
0000
0000
0000
0000
,  // measure 39
0100
0001
0000
0000
0000
0000
0000
0000
,  // measure 40
1000
0010
0100
0010
1000
0000
0000
0000
,  // measure 41
0001
0100
0000
0000
0000
0000
0000
0000
,  // measure 42
1000
0010
0000
0000
0000
0000
0000
0000
,  // measure 43
0100
0010
0000
0000
0000
0000
0000
0000
,  // measure 44
1000
0001
0100
0001
1000
0001
0100
0001
,  // measure 45
1000
0000
0000
0000
,  // measure 46
0110
0000
0000
0000
,  // measure 47
1100
1100
0000
0000
,  // measure 48
0101
0101
1001
1001
,  // measure 49
0110
0000
0000
0000
,  // measure 50
1001
1001
0000
0000
,  // measure 51
0110
0110
1010
1010
,  // measure 52
0101
0101
1100
1001
,  // measure 53
0000
1010
0000
0000
0000
0000
0000
0000
,  // measure 54
1010
0000
0000
0000
,  // measure 55
0101
0000
0000
0000
,  // measure 56
1000
0010
0100
0000
0000
0000
0000
0000
,  // measure 57
0001
0000
0000
0000
,  // measure 58
0010
0000
0000
0000
,  // measure 59
0100
0000
0000
0000
0000
0000
0000
0001
,  // measure 60
0000
0000
0000
0000
,  // measure 61
1000
0000
0000
0000
,  // measure 62
1000
0000
0000
0000
,  // measure 63
0001
1000
0001
0000
0000
0000
0000
0000
,  // measure 64
0100
0010
0100
0000
0000
0000
0000
0000
,  // measure 65
1000
0010
1000
0000
0000
0000
0000
0000
,  // measure 66
0100
0001
0100
0000
0000
0000
0000
0000
,  // measure 67
1000
0001
1000
0000
0000
0000
0000
0000
,  // measure 68
0010
0100
0010
0000
0000
0000
0000
0000
,  // measure 69
1000
0010
1000
0000
0000
0000
0000
0000
,  // measure 70
0001
0100
0001
0000
0000
0000
0000
0000
,  // measure 71
1000
0010
1000
0000
0000
0000
0000
0000
,  // measure 72
0100
0010
0100
0000
0000
0000
0000
0000
,  // measure 73
1000
0100
1000
0000
0000
0000
0000
0000
,  // measure 74
0001
1000
0001
0000
0000
0000
0000
0000
,  // measure 75
0100
0010
0100
0000
0000
0000
0010
1000
,  // measure 76
0000
0010
0000
0000
0000
0000
0000
1000
,  // measure 77
0000
0100
1000
0000
0000
0000
0000
0001
,  // measure 78
0100
0001
0000
0000
,  // measure 79
1000
0010
1000
0000
0000
0000
0000
0000
,  // measure 80
0100
0001
0100
0000
0000
0000
0000
0000
,  // measure 81
1000
0010
1000
0000
0000
0000
0000
0000
,  // measure 82
0100
0010
0100
0000
0000
0000
0000
0010
,  // measure 83
1000
0010
0000
0000
,  // measure 84
1000
0100
1000
0000
0000
0000
0000
0000
,  // measure 85
0001
1000
0001
0000
0000
0000
0000
0000
,  // measure 86
1000
0100
1000
0000
0000
1000
0000
0000
,  // measure 87
1000
0100
0010
0001
0000
1000
0000
0100
,  // measure 88
0000
0000
0000
0000
,  // measure 89
1001
0000
0110
0000
;

//---------------dance-single - ----------------
#NOTES:
     dance-single:
     :
     Beginner:
     2:
     0.116,0.177,0.000,0.000,0.000: // measure 1
1000
0000
0000
0000
,  // measure 2
0001
0000
0000
0000
,  // measure 3
1000
0000
0000
0000
,  // measure 4
0010
0000
0000
0000
,  // measure 5
0100
0000
0000
0000
,  // measure 6
0001
0000
0000
0000
,  // measure 7
1000
0000
0000
0000
,  // measure 8
0100
0000
0000
0000
,  // measure 9
0010
0000
0000
0000
,  // measure 10
0001
0000
0000
0000
,  // measure 11
1000
0000
1000
0000
,  // measure 12
0000
0000
0001
0000
,  // measure 13
0000
0001
0000
0000
,  // measure 14
0000
0000
1000
0000
,  // measure 15
0000
0100
0000
0000
,  // measure 16
0000
0000
0010
0000
,  // measure 17
0000
0000
1000
0000
,  // measure 18
0000
0000
0001
0000
,  // measure 19
0000
0100
0000
0000
,  // measure 20
0010
0000
0000
0000
,  // measure 21
1000
0000
0000
0000
,  // measure 22
0001
0000
0000
0000
,  // measure 23
0100
0000
0000
0000
,  // measure 24
0010
0000
0000
0000
,  // measure 25
0100
0000
0000
0000
,  // measure 26
0001
0000
0000
0000
,  // measure 27
0100
0000
0000
0000
,  // measure 28
0010
0000
0000
0000
,  // measure 29
1000
0000
0000
0000
,  // measure 30
0001
0000
0000
0000
,  // measure 31
1000
0000
0000
0000
,  // measure 32
0100
0000
0000
0000
,  // measure 33
1000
0000
0000
0000
,  // measure 34
0010
0000
0000
0000
,  // measure 35
0100
0000
0000
0000
,  // measure 36
0010
0000
0000
0000
,  // measure 37
1000
0000
0000
0000
,  // measure 38
0001
0000
0001
0000
,  // measure 39
0000
0000
1000
0000
,  // measure 40
1000
0000
0000
0000
,  // measure 41
0100
0000
0100
0000
,  // measure 42
0000
0000
0010
0000
,  // measure 43
0010
0000
0000
0000
,  // measure 44
1000
0000
1000
0000
,  // measure 45
0001
0000
0000
0000
,  // measure 46
0001
0000
0001
0000
,  // measure 47
0000
0000
1000
0000
,  // measure 48
1000
0000
0000
0000
,  // measure 49
0100
0000
0100
0000
,  // measure 50
0000
0010
0000
0000
,  // measure 51
0010
0000
1000
0000
,  // measure 52
1000
0000
0000
0000
,  // measure 53
0001
0000
0000
0000
,  // measure 54
1000
0000
0000
0000
,  // measure 55
0010
0000
0000
0000
,  // measure 56
0100
0000
0000
0000
,  // measure 57
0001
0000
0000
0000
,  // measure 58
1000
0000
0000
0000
,  // measure 59
0100
0000
0000
0000
,  // measure 60
0010
0000
0000
0000
,  // measure 61
0001
0000
0000
0000
,  // measure 62
0010
0000
0000
0000
,  // measure 63
0100
0000
0000
0000
,  // measure 64
1000
0000
0000
0000
,  // measure 65
1000
0000
1000
0000
,  // measure 66
0001
0000
0000
0000
,  // measure 67
0001
0000
0000
0000
,  // measure 68
1000
0000
0000
0000
,  // measure 69
0100
0000
0000
0000
,  // measure 70
0010
0000
0000
0000
,  // measure 71
0001
0000
0000
0000
,  // measure 72
1000
0000
0000
0000
,  // measure 73
0001
0000
0000
0000
,  // measure 74
0100
0000
0000
0000
,  // measure 75
0010
0000
0000
0000
,  // measure 76
1000
0000
0000
0000
,  // measure 77
0001
0000
0000
0000
,  // measure 78
1000
0000
0000
0000
,  // measure 79
0010
0000
0000
0000
,  // measure 80
0100
0000
0000
0000
,  // measure 81
1000
0000
1000
0000
,  // measure 82
0001
0000
0000
0000
,  // measure 83
1000
0000
0000
0000
,  // measure 84
1000
0000
0000
0000
,  // measure 85
0100
0000
0000
0000
,  // measure 86
0010
0000
0000
0000
,  // measure 87
1000
0000
1000
0000
,  // measure 88
0001
0000
0001
0000
,  // measure 89
0010
0000
0100
0000
;

//---------------dance-single - ----------------
#NOTES:
     dance-single:
     :
     Easy:
     4:
     0.199,0.319,0.000,0.000,0.000: // measure 1
1000
1000
0000
0000
,  // measure 2
0001
0001
0000
0000
,  // measure 3
0010
0010
0000
0000
,  // measure 4
0100
0100
0000
0000
,  // measure 5
0001
0001
0000
0000
,  // measure 6
1000
1000
0000
0000
,  // measure 7
0010
0010
0000
0000
,  // measure 8
0100
0100
0000
0000
,  // measure 9
0001
0000
0000
0000
,  // measure 10
1000
0000
0000
0000
,  // measure 11
1000
0100
0000
0000
,  // measure 12
0001
1000
0000
0000
,  // measure 13
0010
0100
0000
0000
,  // measure 14
0001
1000
0000
0000
,  // measure 15
1000
0100
0000
0000
,  // measure 16
0100
0010
0000
0000
,  // measure 17
0010
0001
0000
0000
,  // measure 18
0001
1000
0000
0000
,  // measure 19
1000
0010
0000
0000
,  // measure 20
0010
0100
0000
0000
,  // measure 21
0100
0001
0000
0000
,  // measure 22
1000
0010
0000
0000
,  // measure 23
0010
0100
0000
0000
,  // measure 24
0100
0001
0000
0000
,  // measure 25
0001
1000
0000
0000
,  // measure 26
1000
0010
0000
0000
,  // measure 27
0010
0000
0000
0000
,  // measure 28
0100
0000
0000
0000
,  // measure 29
1000
0000
0000
0000
,  // measure 30
0001
1000
0010
0000
,  // measure 31
0100
0000
0000
0000
,  // measure 32
0100
0000
0000
0001
,  // measure 33
0001
0000
0000
0000
,  // measure 34
1000
0000
0000
0000
,  // measure 35
0010
0000
0000
0000
,  // measure 36
0100
0000
0000
0000
,  // measure 37
0001
0001
0000
0000
,  // measure 38
1000
1000
0000
0000
,  // measure 39
0100
0100
0000
0000
,  // measure 40
0010
1000
0010
0000
,  // measure 41
0100
0100
0000
0000
,  // measure 42
0001
0001
0000
0000
,  // measure 43
1000
1000
0100
0000
,  // measure 44
0001
0001
0100
0000
,  // measure 45
0010
0000
0000
0000
,  // measure 46
1000
1000
0000
0000
,  // measure 47
0001
0001
0000
0000
,  // measure 48
0100
0100
0010
0010
,  // measure 49
0100
0000
1000
0000
,  // measure 50
1000
1000
0000
0000
,  // measure 51
0001
0001
0000
0000
,  // measure 52
1000
0000
0000
0000
,  // measure 53
0001
0000
0000
0000
,  // measure 54
1000
0000
0000
0000
,  // measure 55
0010
0000
0000
0000
,  // measure 56
0100
0000
0000
0000
,  // measure 57
1000
0000
0000
0000
,  // measure 58
0001
0000
0000
0000
,  // measure 59
0010
0000
0000
0000
,  // measure 60
0100
0000
0000
0000
,  // measure 61
1000
0000
0000
0000
,  // measure 62
0001
0000
0000
0000
,  // measure 63
0010
0010
0000
0000
,  // measure 64
0100
0100
0000
0000
,  // measure 65
1000
1000
0000
0000
,  // measure 66
0001
0001
0000
0000
,  // measure 67
1000
0001
1000
0000
,  // measure 68
0010
0100
0010
0000
,  // measure 69
1000
0000
0000
0000
,  // measure 70
0001
0000
0000
0000
,  // measure 71
1000
1000
0000
0000
,  // measure 72
0010
0010
0000
0000
,  // measure 73
0100
0100
0000
0000
,  // measure 74
0001
0001
0000
0000
,  // measure 75
1000
1000
0000
0000
,  // measure 76
0010
0010
0000
0000
,  // measure 77
0100
0100
0000
0000
,  // measure 78
0001
0001
0000
0000
,  // measure 79
1000
0001
1000
0000
,  // measure 80
0010
0100
0010
0000
,  // measure 81
1000
0100
1000
0000
,  // measure 82
0001
1000
0001
0000
,  // measure 83
1000
0100
1000
0000
,  // measure 84
0001
0010
0001
0000
,  // measure 85
1000
0010
1000
0000
,  // measure 86
0100
1000
0100
0000
,  // measure 87
0001
0010
0100
0010
,  // measure 88
0001
0010
0100
0010
,  // measure 89
0001
0000
1000
0000
;

//---------------dance-single - Copied from----------------
#NOTES:
     dance-single:
     Copied from:
     Hard:
     9:
     0.732,0.888,0.008,0.376,0.084: // measure 1
0100
0010
0100
0001
0100
0010
0100
0000
,  // measure 2
0001
1000
0001
0010
0001
0100
0001
0000
,  // measure 3
1000
0010
1000
0001
0100
0001
1000
0000
,  // measure 4
0010
0100
0010
1000
0001
1000
0100
0000
,  // measure 5
1000
0001
0100
0010
0100
0001
0010
0000
,  // measure 6
0100
1000
0001
1000
0100
0010
0100
0000
,  // measure 7
1000
0010
0100
0010
1000
0001
1000
0000
,  // measure 8
0001
0100
0010
1000
0100
0010
0001
0000
,  // measure 9
1000
0100
0001
0100
1000
0010
0001
0010
,  // measure 10
1000
0100
0010
0001
1000
0100
0010
0000
,  // measure 11
0001
0100
0010
1000
0000
0001
0100
0010
,  // measure 12
0100
0001
1000
0001
0000
1000
0100
0001
,  // measure 13
0100
1000
0010
0100
0000
0001
1000
0010
,  // measure 14
1000
0001
0100
0001
0000
1000
0010
0100
,  // measure 15
0010
1000
0001
1000
0000
0001
0010
0100
,  // measure 16
1000
0100
0010
0001
0000
0100
0001
0100
,  // measure 17
0010
1000
0010
0100
0000
0001
1000
0001
,  // measure 18
0100
0010
0100
0001
0000
1000
0100
0001
,  // measure 19
0100
1000
0010
0100
0000
0001
0100
0010
,  // measure 20
0100
0001
1000
0001
0000
1000
0010
0100
,  // measure 21
0010
1000
0100
0010
0000
0001
0100
0010
,  // measure 22
1000
0010
0100
0001
0000
0100
0001
1000
,  // measure 23
0100
1000
0001
0010
0000
0100
1000
0001
,  // measure 24
0100
0001
1000
0010
0000
0100
0001
1000
,  // measure 25
0001
0100
0010
1000
0000
0001
0100
0010
,  // measure 26
0100
0001
1000
0001
0000
1000
0100
0010
,  // measure 27
0002
1000
1000
1000
,  // measure 28
2003
0000
0100
0000
0100
0000
3200
0320
,  // measure 29
0032
1000
1000
1000
,  // measure 30
1003
0010
0100
0010
1000
0001
0010
0100
,  // measure 31
2000
0001
0001
0001
,  // measure 32
3002
0000
0010
0000
0010
0000
0023
0230
,  // measure 33
2300
0001
0001
0001
,  // measure 34
3002
1000
1000
1000
,  // measure 35
1003
0100
0001
0100
1000
0010
0001
0010
,  // measure 36
1000
0100
0010
0001
0010
0100
1000
0000
,  // measure 37
0001
0100
0000
0100
0001
0000
0010
0000
0100
0000
1000
0000
0100
0000
0010
0000
,  // measure 38
0001
1000
0000
1000
0100
0000
1000
0000
0010
0000
0100
0000
0010
0000
1000
0000
,  // measure 39
0100
1000
0000
1000
0001
0000
0010
0000
1000
0000
0010
0000
0001
0000
0010
0000
,  // measure 40
0100
0000
1000
0000
0100
0000
0001
0000
0100
0000
1000
0000
0100
0010
0000
0000
,  // measure 41
0100
0001
0000
0001
0100
0000
1000
0000
0010
0000
0100
0000
0001
0000
1000
0000
,  // measure 42
0010
0100
0000
0100
0010
0000
1000
0000
0010
0000
0100
0000
0010
0000
1000
0000
,  // measure 43
0001
0010
0100
1000
0001
0010
0100
1000
,  // measure 44
0002
0023
2030
3020
0032
0203
2300
3200
,  // measure 45
0301
0010
0000
0010
0100
0000
1000
0000
0001
0000
1000
0000
0010
0000
0100
0000
,  // measure 46
0001
0010
0000
0010
0100
0000
1000
0000
0001
0000
0100
0000
0001
0000
0010
0000
,  // measure 47
1000
0100
0000
0100
0010
0000
0100
0000
1000
0000
0001
0000
0100
0000
0000
0000
,  // measure 48
0001
0010
0100
1000
0100
0010
0001
0010
,  // measure 49
0100
1000
0000
1000
0010
0000
0100
0000
0001
0000
0010
0000
0100
0000
0010
0000
,  // measure 50
0001
0100
0000
0100
0010
0000
1000
0000
0010
0000
0100
0000
0010
0000
1000
0000
,  // measure 51
0001
0010
0100
1000
0100
0001
0100
1000
,  // measure 52
0200
0302
0203
2300
3020
0032
0023
2030
,  // measure 53
3002
0000
0000
0000
,  // measure 54
0203
0000
0000
0000
0000
0000
0320
2030
,  // measure 55
3002
0000
0000
0000
0000
0000
0203
0320
,  // measure 56
2030
0000
0000
0000
3200
0320
0032
2003
,  // measure 57
3200
0000
0000
0000
,  // measure 58
0320
0000
0000
0000
0000
0000
2030
3002
,  // measure 59
0203
0000
0000
0000
,  // measure 60
0302
0000
0000
0000
,  // measure 61
1003
0100
0001
0100
1000
0010
0001
0010
,  // measure 62
1000
0100
0010
0001
0010
0100
1000
0100
,  // measure 63
0010
0001
1000
0010
0000
0100
0001
1000
,  // measure 64
0001
0010
0100
0010
0000
0001
1000
0010
,  // measure 65
1000
0001
0100
0001
0000
1000
0001
0100
,  // measure 66
0010
0100
0001
1000
0000
0001
0100
0010
,  // measure 67
1000
0010
0100
0001
0000
1000
0001
0100
,  // measure 68
0010
0100
0001
1000
0000
0001
1000
0010
,  // measure 69
0100
0010
1000
0001
0000
0100
0010
1000
,  // measure 70
0001
1000
0010
0100
0000
0001
1000
0001
,  // measure 71
0100
0010
0100
0001
0000
1000
0010
0100
,  // measure 72
0010
1000
0100
1000
0000
0001
0010
0001
,  // measure 73
1000
0100
1000
0010
0000
0100
0001
0010
,  // measure 74
0001
1000
0100
1000
0000
0001
0100
0001
,  // measure 75
1000
0010
1000
0001
0000
0100
0001
0100
,  // measure 76
0010
1000
0010
0100
0000
0001
1000
0100
,  // measure 77
1000
0010
0100
0010
0000
1000
0010
0100
,  // measure 78
0010
1000
0100
1000
0000
1000
0100
0001
,  // measure 79
0100
1000
0010
0001
0000
0001
0010
1000
,  // measure 80
0010
0001
0010
0100
0000
1000
0100
0010
,  // measure 81
0001
1000
0100
0010
0000
0001
0100
1000
,  // measure 82
0100
0001
0100
1000
0000
1000
0010
0001
,  // measure 83
0010
1000
0010
0001
0000
0001
0010
0100
,  // measure 84
1000
0001
0010
0100
0000
1000
0100
0010
,  // measure 85
0001
1000
0100
0010
0000
0001
0100
1000
,  // measure 86
0100
0001
0100
1000
0000
0100
0001
0000
,  // measure 87
0010
0100
1000
0001
0010
0100
1000
0100
,  // measure 88
0001
0100
1000
0010
0001
0010
1000
0100
,  // measure 89
0010
0000
0220
0330
;
