#TITLE:Programmed Life;
#SUBTITLE:;
#ARTIST:kors k;
#TITLETRANSLIT:;
#SUBTITLETRANSLIT:;
#ARTISTTRANSLIT:;
#CREDIT:;
#BANNER:;
#BACKGROUND:;
#LYRICSPATH:;
#CDTITLE:;
#MUSIC:Programmed Life.mp3;
#OFFSET:0.000;
#SAMPLESTART:78.740;
#SAMPLELENGTH:12.000;
#SELECTABLE:YES;
#BPMS:0.000=145.000;
#STOPS:;
#BGCHANGES:;

//---------------dance-single - ----------------
#NOTES:
     dance-single:
     :
     Hard:
     9:
     0.627,0.643,0.139,0.121,0.334: // measure 1
0000
0000
0000
0000
,  // measure 2
0000
0000
0000
0000
,  // measure 3
0000
0000
0000
0000
,  // measure 4
0000
0000
0000
0000
,  // measure 5
0000
0000
0000
0000
,  // measure 6
0000
0000
0000
0000
,  // measure 7
0000
0000
0000
0000
,  // measure 8
0010
0000
0000
1000
0000
0000
0001
0000
0100
0000
0000
0010
0000
0000
0100
0000
,  // measure 9
0001
1000
0010
0100
0001
1000
0001
0000
,  // measure 10
0010
0000
0000
1000
0000
0000
0001
0000
0100
0000
0000
0010
0000
0000
0100
0000
,  // measure 11
0001
1000
0010
1000
0001
0010
0100
0000
,  // measure 12
0001
0000
0000
0100
0000
0000
0010
0000
1000
0000
0000
0001
0000
0000
1000
0000
,  // measure 13
0001
0010
1000
0010
0001
0100
0010
0000
,  // measure 14
0001
0000
0000
0010
0000
0000
0001
0000
0100
0000
0000
1000
0000
0000
0100
0000
,  // measure 15
0010
1000
0100
0001
0100
1000
0001
0000
,  // measure 16
2010
0010
3000
0100
0001
0100
0100
0000
,  // measure 17
0102
0100
0003
0010
1000
0010
0010
0000
,  // measure 18
0210
0010
0300
0001
1000
0001
0001
0000
,  // measure 19
1002
1000
0003
0010
0100
0010
0010
0000
,  // measure 20
0210
0010
0300
1000
0001
1000
1000
0000
,  // measure 21
2001
0001
3000
0100
0010
0100
0100
0000
,  // measure 22
1002
1000
0003
0010
0100
0010
0010
0000
,  // measure 23
2010
0010
3000
0001
0100
0001
0001
0000
,  // measure 24
1002
1000
0003
0100
0010
0100
0100
0000
,  // measure 25
0120
0100
0030
0001
1000
0001
0001
0000
,  // measure 26
0210
0010
0300
1000
0001
1000
1000
0000
,  // measure 27
1020
1000
0030
0100
0001
0100
0100
0000
,  // measure 28
0010
0000
0000
1000
0000
0000
0001
0000
0100
0000
0000
0010
0000
0000
0100
0000
,  // measure 29
0001
0000
0000
1000
0000
0000
0010
0000
0100
0000
0000
0001
0000
0000
0010
0000
,  // measure 30
0100
1000
0001
0010
0100
1000
0001
0100
,  // measure 31
1002
0000
1003
0000
0010
0100
0001
1000
,  // measure 32
1001
0000
0000
0001
1000
0000
0001
1000
0001
0000
0100
0000
1000
0000
0100
0000
,  // measure 33
0010
0000
1000
0000
0001
0000
0100
0000
1000
0010
1000
0001
0100
0010
1000
0001
,  // measure 34
1000
0000
0000
1000
0001
0000
0001
1000
0001
0000
0100
0000
0001
0000
1000
0000
,  // measure 35
0001
0000
1000
0000
0010
0000
0100
0000
1000
0010
0100
0001
1000
0010
0100
0001
,  // measure 36
0100
0000
0000
0100
0001
0000
0100
0001
0100
0000
0010
0000
0100
0000
0010
0000
,  // measure 37
1000
0000
0100
0000
0001
0000
0100
0000
0001
1000
0010
0100
0001
1000
0010
0100
,  // measure 38
0010
0000
0000
0100
0010
0000
0100
0010
0100
0000
1000
0000
0100
0000
1000
0000
,  // measure 39
0001
0000
0010
0000
0100
0000
1000
0000
0001
1000
0010
0100
0001
1000
0010
0100
,  // measure 40
0010
1000
0010
0000
1000
0100
1000
0000
,  // measure 41
0100
0001
0100
0000
0001
0010
0001
0000
,  // measure 42
0010
0100
0010
0000
1000
0100
1000
0000
,  // measure 43
0100
0001
0100
0000
0001
0010
0001
0000
,  // measure 44
1000
0010
1000
0000
0001
1000
0100
0010
,  // measure 45
0001
0000
1000
0010
1000
0000
0001
0000
1000
0000
0100
0001
0100
0000
0001
0000
,  // measure 46
0010
0000
0100
1000
0100
0000
1000
0000
0010
0000
0100
0001
0100
0000
0001
0000
,  // measure 47
0010
0100
1000
0100
0010
0001
1000
0000
,  // measure 48
1000
0000
0001
0000
0100
0000
0001
0000
0010
0001
0000
0001
0010
0000
0100
0000
,  // measure 49
0010
0000
1000
0000
0010
0000
0100
0000
0010
0001
0010
0001
0010
0000
0100
0000
,  // measure 50
0010
0000
0001
0000
1000
0000
0010
0000
0100
0010
0000
0010
0100
0000
0010
0000
,  // measure 51
1000
0000
0100
0000
0010
0000
0100
0000
0010
0100
0010
0100
0001
0000
0010
0000
,  // measure 52
0100
0000
1000
0000
0100
0000
0010
0000
0001
0100
0000
0100
0001
0000
0010
0000
,  // measure 53
0100
0000
1000
0000
0100
0000
0010
0000
0001
0010
0100
0010
0001
0000
1000
0000
,  // measure 54
0010
0000
0001
0000
0010
0000
1000
0000
0100
1000
0000
1000
0100
0000
0010
0000
,  // measure 55
0001
0100
1000
0100
0001
0100
1000
0100
,  // measure 56
0010
0000
1000
0000
0001
0000
0100
0000
0010
0001
0000
0001
0010
0000
1000
0000
,  // measure 57
0001
0000
0010
0000
1000
0000
0010
0000
0001
1000
0001
1000
0001
0000
0010
0000
,  // measure 58
0100
0000
1000
0000
0001
0000
0100
0000
0010
1000
0000
1000
0010
0000
1000
0000
,  // measure 59
0010
0000
0001
0000
0010
0000
0100
0000
0010
1000
0010
1000
0100
0000
0001
0000
,  // measure 60
0100
0000
1000
0000
0010
0000
0100
0000
0001
0100
0000
0100
0001
0000
1000
0000
,  // measure 61
0100
0000
0001
0000
0100
0000
1000
0000
0001
0100
0001
0100
0001
0000
0010
0000
,  // measure 62
0100
0000
0001
0000
0010
0000
0100
0000
1000
0001
0000
0001
1000
0000
0010
0000
,  // measure 63
0100
0000
0010
0000
0001
0000
0010
0000
0100
0010
1000
0001
0100
0010
1000
0001
,  // measure 64
0110
0000
0000
0000
;

//---------------dance-single - ----------------
#NOTES:
     dance-single:
     :
     Medium:
     6:
     0.456,0.526,0.213,0.139,0.000:
0000
0000
0000
0000
,
0000
0000
0000
0000
,
0000
0000
0000
0000
,
0000
0000
0000
0000
,
0000
0000
0000
0000
,
0000
0000
0000
0000
,
0000
0000
0000
0000
,
0010
0010
0100
0100
,
2001
0000
0010
0000
0001
0000
0010
3000
,
0100
0100
1000
1000
,
0210
0000
0001
0000
0010
0000
0001
0300
,
0010
0010
0100
0100
,
2010
0000
0001
0000
0100
0000
0010
3000
,
0100
0100
0010
0010
,
0012
0100
1000
0103
,
0010
0010
0100
0100
,
0120
0001
0100
1030
,
0010
0010
0100
0100
,
1002
0010
1000
0103
,
0010
0010
0100
0100
,
2010
0000
0001
0000
0010
0000
0001
3000
,
0100
0100
0001
0001
,
0120
0000
1000
0000
0100
0000
1000
0030
,
1001
0110
0011
1100
,
2001
0000
0001
3000
0210
0000
0010
0300
,
1001
1010
0101
0011
,
2010
0000
0001
3000
0120
0000
1030
0000
,
0001
0010
1000
0100
,
0001
0010
1000
0100
,
0001
1000
0010
0100
0001
1000
0100
0010
,
2001
0000
3010
0000
0001
0001
0100
0100
,
0010
0000
1000
0000
0001
0100
1000
0000
,
0010
0100
0001
0100
0010
1000
0001
0000
,
0100
0000
0010
0000
1000
0010
0001
0000
,
0100
1000
0010
0100
0001
0010
0100
0000
,
0001
0000
0010
0000
0001
0010
1000
0000
,
0010
0100
0001
1000
0100
0010
0001
0000
,
0010
0000
0100
0000
1000
0010
0001
0000
,
0010
1000
0001
0100
0010
1000
0001
0000
,
0010
0000
0010
0000
0001
1000
0001
0000
,
0010
0100
0001
0010
0100
1000
0001
0000
,
0100
0000
0100
0000
0001
0100
0001
0000
,
0010
1000
0100
0010
0001
1000
0010
0000
,
0001
0000
0001
0000
0010
1000
0010
0000
,
0001
0100
0010
1000
0100
0010
0001
0000
,
0010
1000
0001
0100
,
0210
0000
0001
0000
0010
0000
0001
0300
,
0010
1000
0001
0100
0010
0000
0010
0000
,
0001
1000
0100
0010
0001
1000
0010
0000
,
0010
0100
0001
0010
0100
0000
0100
0000
,
0100
1000
0010
0100
0001
0010
0100
0000
,
1000
0100
1000
0010
0100
0000
0100
0000
,
0010
1000
0001
0010
0100
1000
0001
0000
,
0001
0100
1000
0100
0001
0000
0010
0000
,
0010
1000
0001
0010
0100
1000
0001
0100
,
0010
0100
0001
1000
0001
0000
0001
0000
,
0001
1000
0010
0100
0001
0010
0100
1000
,
0001
0100
0010
1000
0001
0000
0001
0000
,
0010
1000
0001
0010
0100
1000
0001
0100
,
0010
0100
0001
1000
0100
0000
0100
0000
,
0010
1000
0001
0010
0100
1000
0001
0100
,
0010
1000
0001
0010
0100
1000
0001
0100
,
0010
0100
0001
1000
0100
1000
0010
0100
,
1002
0003
0000
0000
0000
0000
0000
0000
0000
0000
0000
0000
0000
0000
0000
0000
0000
0000
0000
0000
0000
0000
0000
0000
0000
0000
0000
0000
0000
0000
0000
0000
0000
0000
0000
0000
0000
0000
0000
0000
0000
0000
0000
0000
0000
0000
0000
0000
0000
0000
0000
0000
0000
0000
0000
0000
0000
0000
0000
0000
0000
0000
0000
0000
0000
0000
0000
0000
0000
0000
0000
0000
0000
0000
0000
0000
0000
0000
0000
0000
0000
0000
0000
0000
0000
0000
0000
0000
0000
0000
0000
0000
0000
0000
0000
0000
0000
0000
0000
0000
0000
0000
0000
0000
0000
0000
0000
0000
0000
0000
0000
0000
0000
0000
0000
0000
0000
0000
0000
0000
0000
0000
0000
0000
0000
0000
0000
0000
0000
0000
0000
0000
0000
0000
0000
0000
0000
0000
0000
0000
0000
0000
0000
0000
0000
0000
0000
0000
0000
0000
0000
0000
0000
0000
0000
0000
0000
0000
0000
0000
0000
0000
0000
0000
0000
0000
0000
0000
0000
0000
0000
0000
0000
0000
0000
0000
0000
0000
0000
0000
0000
0000
0000
0000
0000
0000
0000
0000
0000
0000
0000
0000
;

//---------------dance-single - ----------------
#NOTES:
     dance-single:
     :
     Easy:
     4:
     0.342,0.438,0.408,0.399,0.000:
0000
0000
0000
0000
,
0000
0000
0000
0000
,
0000
0000
0000
0000
,
0000
0000
0000
0000
,
0000
0000
0000
0000
,
0000
0000
0000
0000
,
0000
0000
0000
0000
,
1002
0000
1000
0000
,
1000
0000
1003
0000
,
0120
0000
0100
0000
,
0100
0000
0130
0000
,
2010
0000
0010
0000
,
0010
0000
3010
0000
,
0102
0000
0100
0000
,
0100
0000
0103
0000
,
0010
0010
0100
0100
,
2002
3003
0202
0303
,
0010
0010
0100
0100
,
2020
3030
0202
0303
,
0010
0010
0100
0100
,
0022
0033
2200
3300
,
0010
0100
0001
1000
,
2020
3030
0202
0303
,
0010
0001
0010
0001
,
0010
0010
0010
0010
,
1000
0100
1000
0100
,
0100
0100
0100
0100
,
0010
0001
1000
0100
,
0001
0010
0100
1000
,
0010
0010
0100
0100
,
2001
0010
0001
3010
,
1001
1001
2020
3030
,
0001
0010
0001
0010
,
1100
1100
0220
0330
,
0001
1000
0001
1000
,
0101
0101
2020
3030
,
0001
0100
0001
0100
,
0101
0101
2020
3030
,
0001
1000
0001
1000
,
1010
1010
2200
3300
,
0001
0100
0001
0100
,
1001
1001
2200
3300
,
0001
0010
0001
0010
,
0101
0101
2200
3300
,
0001
0010
0100
1000
,
0001
1000
0100
0001
,
0001
0010
0100
1000
,
1001
0000
2100
3001
,
0010
0000
0100
0000
,
1000
0000
2010
3001
,
0010
0000
0001
0000
,
0100
0000
2100
3100
,
0010
0000
1000
0000
,
0001
0000
0102
0103
,
0010
0000
0100
0000
,
0001
0000
2010
3010
,
0001
0000
0010
0000
,
0100
0000
2010
3010
,
0001
0000
0100
0000
,
1000
0000
0120
0130
,
0001
0000
1000
0000
,
0100
0000
0120
0130
,
0000
0010
0010
0010
,
1001
0000
0000
0000
;
