#TITLE:面影橋;
#SUBTITLE:;
#ARTIST:Traveling Fan Troop;
#TITLETRANSLIT:OMOKAGEBASHI;
#SUBTITLETRANSLIT:;
#ARTISTTRANSLIT:;
#CREDIT:DigiMindAxel;
#BANNER:OMOKAGEBASHI.png;
#BACKGROUND:OMOKAGEBASHI-bg.png;
#LYRICSPATH:OMOKAGEBASHI.lrc;
#CDTITLE:pop'n music.png;
#MUSIC:OMOKAGEBASHI.mp3;
#OFFSET:-10.065;
#SAMPLESTART:53.900;
#SAMPLELENGTH:12.000;
#SELECTABLE:YES;
#BPMS:0.000=125.850,88.000=127.100,156.000=125.850,204.000=125.000,205.000=109.380,206.000=93.740,207.000=78.120,208.000=62.500;
#DISPLAYBPM:125:127;
#STOPS:;
#BGCHANGES:;

//---------------dance-single - ----------------
#NOTES:
     dance-single:
     :
     Easy:
     3:
     0.161,0.176,0.066,0.041,0.000: // measure 1
2000
0000
0000
0000
,  // measure 2
0000
0000
3000
0000
,  // measure 3
0002
0000
1000
0000
,  // measure 4
1003
0000
0010
0000
,  // measure 5
0110
0000
0100
0000
,  // measure 6
0010
0100
0010
0000
,  // measure 7
1000
0000
0001
0000
,  // measure 8
1000
0001
1000
0000
,  // measure 9
0001
0000
0010
0000
,  // measure 10
0100
0010
0100
0000
,  // measure 11
1000
0000
0100
0000
,  // measure 12
1000
0001
1000
0000
,  // measure 13
0200
0000
0000
0000
,  // measure 14
0300
0000
0000
0000
,  // measure 15
1001
0000
1000
0100
,  // measure 16
1000
0000
0010
0100
,  // measure 17
0010
0000
1000
0000
,  // measure 18
0001
0000
0010
0000
,  // measure 19
1001
0000
0001
0100
,  // measure 20
0001
0000
0100
0000
,  // measure 21
0110
0000
0010
0100
,  // measure 22
0010
0000
1000
0000
,  // measure 23
1000
0000
1000
0000
,  // measure 24
1001
0001
0001
0000
,  // measure 25
1000
1000
1000
0000
,  // measure 26
0010
0010
0010
0000
,  // measure 27
0100
0010
0100
0010
,  // measure 28
1000
1000
1000
0000
,  // measure 29
0001
0001
0001
0000
,  // measure 30
1000
1000
1000
0000
,  // measure 31
0010
0100
0010
0100
,  // measure 32
0001
0010
0100
0000
,  // measure 33
1000
0100
0010
0000
,  // measure 34
0001
1000
0001
0000
,  // measure 35
0100
0010
0100
0000
,  // measure 36
0001
0010
0100
0000
,  // measure 37
1000
0100
0010
0000
,  // measure 38
0001
1000
0001
0000
,  // measure 39
0100
0100
0100
0100
,  // measure 40
0110
0000
0100
0000
,  // measure 41
0100
0000
0100
0000
,  // measure 42
1001
0000
0001
0000
,  // measure 43
1000
0000
0000
0000
,  // measure 44
0100
0000
0000
0000
,  // measure 45
0010
0000
0100
0000
,  // measure 46
0010
0000
0100
0000
,  // measure 47
1000
0000
0001
0000
,  // measure 48
1000
0000
0001
0000
,  // measure 49
1001
0000
0010
0000
,  // measure 50
0100
0000
0010
0000
,  // measure 51
0100
0000
0010
0000
,  // measure 52
0001
0000
0000
0000
,  // measure 53
0000
0000
0000
0200
0000
0000
0000
0320
,  // measure 54
0000
0000
0000
0000
0000
0130
0000
0000
;

//---------------dance-single - ----------------
#NOTES:
     dance-single:
     :
     Hard:
     8:
     0.509,0.549,0.139,0.016,0.287: // measure 1
1000
0000
0000
0100
1000
0000
0000
0010
,  // measure 2
0100
0001
1000
0001
,  // measure 3
2000
0100
0001
3100
,  // measure 4
0001
0000
1000
0000
0001
1000
0100
0010
,  // measure 5
0001
0100
0001
1000
0100
1000
0001
0100
,  // measure 6
0001
0000
0100
0000
1000
0000
0100
0001
,  // measure 7
1000
0000
0010
1000
0100
0000
0010
0000
,  // measure 8
0100
1000
0001
0000
0010
0100
1000
0010
,  // measure 9
0110
0000
1000
0010
1000
0001
0010
0001
,  // measure 10
1000
0100
0001
0100
,  // measure 11
1000
0100
1000
0001
0100
0001
0100
0010
,  // measure 12
1000
0000
0000
0000
0001
0000
0100
0000
0010
0000
0000
0000
0100
0010
0100
0000
,  // measure 13
0001
1000
0000
1000
0000
1000
0000
1000
,  // measure 14
0001
0000
0010
0000
0100
0000
1000
0000
0000
0000
0010
0000
0100
0010
0100
0000
,  // measure 15
0001
1000
0100
0000
1000
0001
0101
0000
,  // measure 16
0001
1000
0010
0001
0010
1000
0100
0010
,  // measure 17
0100
0000
1000
0001
0100
0000
0001
0010
,  // measure 18
0100
0000
1000
0000
0010
0000
0100
0000
0100
0000
0001
1000
0001
0000
0000
0000
,  // measure 19
1000
0001
0100
0000
0001
1000
1100
0000
,  // measure 20
1000
0001
0100
1000
0100
0001
0010
0100
,  // measure 21
0110
0100
1001
0100
,  // measure 22
1001
0000
0000
0000
1000
0000
0000
0001
0100
0000
0010
0000
1000
0000
1000
0000
,  // measure 23
0001
0000
0010
0000
0100
0000
1000
0000
0010
0100
0010
0100
0010
0100
0010
0100
,  // measure 24
0010
0000
1000
0000
1000
0000
0001
0000
0001
0000
0010
0001
0010
0000
0100
0000
,  // measure 25
1000
0000
0010
0000
0010
0000
0100
0000
0100
0000
0010
1000
0010
0000
1000
0000
,  // measure 26
0001
0000
0100
0000
0100
0000
0001
0000
0001
0000
1000
0100
1000
0000
0001
0000
,  // measure 27
1000
0000
0100
0000
0001
0000
0100
0000
1000
0001
1000
0000
0010
0100
0010
0100
,  // measure 28
0010
0000
1000
0000
1000
0000
0001
0000
0001
0000
0100
0001
0010
0000
0100
0000
,  // measure 29
1000
0000
0010
0000
0010
0000
0100
0000
0100
0000
0001
1000
0100
0000
0010
0000
,  // measure 30
0001
0100
1000
0100
0001
1000
0010
0100
,  // measure 31
0001
0000
1000
0100
1000
0100
1000
0000
0010
0000
0100
0000
0001
0010
0001
0010
,  // measure 32
0001
0000
1000
0100
0010
0000
0100
0000
0110
0000
0000
0000
1000
0001
1000
0001
,  // measure 33
1000
0000
0001
0010
0001
0000
0010
0001
0010
0000
0001
0000
1000
0100
1000
0100
,  // measure 34
1000
0000
0001
0010
0100
0000
0010
0000
0110
0000
0000
0000
0001
1000
0001
1000
,  // measure 35
0001
0000
0100
0000
1000
0000
0100
0000
0001
0000
1000
0000
0001
1000
0001
1000
,  // measure 36
0001
0000
0100
0001
0100
0000
0001
0100
0001
0000
1000
0100
1000
0000
0001
0000
,  // measure 37
1000
0000
0010
1000
0010
0000
1000
0010
1000
0000
0001
0010
0001
0000
1000
0000
,  // measure 38
0001
0000
0100
0010
0100
0000
0010
0100
0010
0000
1000
0001
1000
0000
0001
0000
,  // measure 39
0010
0001
0010
0000
0100
0010
0100
0000
1000
0100
1000
0000
0010
0100
0010
0000
,  // measure 40
1001
1000
1000
1000
0001
0001
0001
0001
,  // measure 41
0100
0100
0010
0010
0100
0100
0010
0010
,  // measure 42
1001
0000
1000
0010
,  // measure 43
0110
0000
0010
1000
,  // measure 44
0011
0000
0001
0000
,  // measure 45
0001
0000
1000
0100
1000
0000
0100
0010
0100
0000
0010
0001
0010
0000
0001
0000
,  // measure 46
1000
0000
0001
0010
0001
0000
0010
0100
0010
0000
0100
1000
0100
0000
0010
0000
,  // measure 47
0100
0000
1000
0010
0100
0000
0010
0100
0010
0000
1000
0000
1000
0000
0001
0000
,  // measure 48
0010
0000
1000
0000
0010
0000
0001
0000
1001
0000
0010
1000
0000
0010
1000
0001
,  // measure 49
0010
0000
0001
0010
0001
0000
0010
0100
0010
0000
0100
1000
0100
0000
0010
0000
,  // measure 50
0110
0000
1000
0010
1000
0000
0010
0100
0010
0000
0101
0000
0000
0101
0000
0000
,  // measure 51
1100
0000
0010
0100
0010
0000
1000
0010
0100
0000
0001
0000
0001
0000
1000
0000
,  // measure 52
0020
0000
0000
0000
,  // measure 53
0030
0000
0000
0000
0000
0000
0000
0000
0000
0000
0000
0000
0000
0000
0000
0000
0000
0000
0000
0000
0000
0000
0000
0000
0000
0000
0000
0000
0000
0000
0000
0000
0000
0000
0000
0000
0000
0000
0000
0000
0100
0000
0000
0000
0000
0000
0000
0000
0000
0000
0000
0000
0000
0000
0000
0000
0000
0000
0000
0000
0000
0000
0000
0000
0000
0000
0000
0000
0000
0000
0000
0000
0001
0000
0000
0000
0000
0000
0000
0000
0000
0000
0000
0000
0000
0000
0000
0000
0000
0000
0000
0000
0000
0000
0000
0000
0000
0000
0000
0000
0000
0000
1000
0000
0000
0000
0000
0000
0000
0000
0000
0000
0000
0000
0000
0000
0000
0000
0000
0000
0000
0000
0000
0000
0000
0000
0000
0000
0000
0000
0000
0000
0000
0000
0000
0000
0001
0000
0000
0000
0000
0000
0000
0000
0000
0000
0000
0000
0000
0000
0000
0000
0000
0000
0000
0000
0000
0000
0000
0000
0000
0000
0000
0000
0000
0000
0000
0000
1000
0000
0000
0000
0000
0000
0000
0000
0000
0000
0000
0000
0000
0000
0000
0000
0000
0000
0000
0000
0000
0000
0000
0000
,  // measure 54
0000
0000
0000
0000
0000
0000
0000
0000
0001
0000
0000
0000
0000
0000
0000
0000
0000
0000
0000
0000
0000
0000
0000
0000
0000
0000
0000
0000
0000
0000
0000
0000
0000
0000
0000
0000
0000
0000
0000
0000
0000
0000
1000
0000
0000
0000
0000
0000
0000
0000
0000
0000
0000
0000
0000
0000
0000
0000
0000
0000
0000
0000
0000
0000
0000
0000
0000
0000
0000
0000
0000
0000
0000
0000
0000
0000
0000
0000
0000
0000
0001
0000
0000
0000
0000
0000
0000
0000
0000
0000
0000
0000
0000
0000
0000
0000
0000
0000
0000
0000
0000
0000
0000
0000
0000
0000
0000
0000
0000
0000
0000
0000
0000
0000
0000
0000
0000
0000
0000
0000
0100
0000
0000
0000
0000
0000
0000
0000
0000
0000
0000
0000
0000
0000
0000
0000
0000
0000
0000
0000
0000
0000
0000
0000
0000
0000
0000
0000
0000
0000
0000
0000
0000
0000
0000
0000
0000
0000
0000
0000
0000
0000
0000
0000
0000
0000
0000
0000
0000
0000
0000
0000
0000
0000
0000
0000
0000
0000
0000
0000
0000
0000
0000
0000
0000
0000
0000
0000
0000
0000
0000
0000
;

//---------------dance-single - ----------------
#NOTES:
     dance-single:
     :
     Medium:
     5:
     0.302,0.329,0.197,0.049,0.004: // measure 1
0001
0000
0001
0000
,  // measure 2
0001
0000
0000
0000
,  // measure 3
1000
0000
1000
0000
,  // measure 4
1000
0000
0010
0100
,  // measure 5
0110
0000
1000
0000
,  // measure 6
0100
0010
0001
0000
,  // measure 7
0010
0000
0001
0000
,  // measure 8
0010
0100
1000
0010
,  // measure 9
0100
0000
0100
0000
,  // measure 10
0010
1000
0100
0010
,  // measure 11
0001
0000
1000
0000
,  // measure 12
0010
0100
0010
1000
,  // measure 13
0200
0000
0000
0000
,  // measure 14
0300
0000
0000
0000
0000
1000
1000
0000
,  // measure 15
1001
0000
1100
0000
0010
0001
0100
0000
,  // measure 16
0010
0100
0010
0000
1000
0100
1000
0000
,  // measure 17
0002
0000
0203
0000
,  // measure 18
0310
0000
0000
0100
0010
1000
0100
0000
,  // measure 19
1001
0000
0011
0000
0100
1000
0010
0000
,  // measure 20
0100
0010
0100
0000
0001
0010
0001
0000
,  // measure 21
1001
1000
1010
0010
,  // measure 22
0110
0000
0100
0000
0001
1000
0001
1000
,  // measure 23
0010
0100
0010
0100
,  // measure 24
0110
0010
1000
0100
,  // measure 25
1001
0010
0100
1000
,  // measure 26
1010
0010
0100
0001
,  // measure 27
0010
0000
0001
0000
1000
0000
0010
0100
,  // measure 28
0010
1000
0100
0010
,  // measure 29
0011
0001
0100
0010
,  // measure 30
1100
0000
0110
0000
,  // measure 31
0010
0001
0100
0000
0010
1000
0100
0000
,  // measure 32
1000
0100
1000
0100
1000
0001
1000
0000
,  // measure 33
0001
0010
0001
0010
0001
1000
0001
0000
,  // measure 34
0100
0010
0100
0010
0100
0001
1000
0000
,  // measure 35
0010
0100
0010
0100
0010
1000
0001
0000
,  // measure 36
0100
0001
0100
0001
1000
0100
1000
0000
,  // measure 37
0100
1000
0100
1000
0010
0100
0010
0000
,  // measure 38
0100
0010
0100
0010
0001
0010
0100
0000
,  // measure 39
1000
0010
0100
0001
,  // measure 40
1001
1001
0110
0110
,  // measure 41
1001
1001
0110
0110
,  // measure 42
0010
0000
0010
0000
,  // measure 43
0100
0000
0000
0000
,  // measure 44
0010
0000
0000
0000
,  // measure 45
0100
0010
0100
0010
1000
0100
1000
0010
,  // measure 46
0000
0010
0100
0010
0100
0001
0010
0001
,  // measure 47
0000
0001
1000
0001
0010
0100
1000
0010
,  // measure 48
0000
0010
0100
0010
1000
0000
1001
0000
,  // measure 49
1001
0000
1000
0010
1000
0010
1000
0001
,  // measure 50
0000
0001
0100
0001
1000
0100
0010
0100
,  // measure 51
0000
0100
1000
0100
0010
0001
1000
0010
,  // measure 52
0200
0000
0000
0000
,  // measure 53
0300
0000
0000
0000
0000
0010
0000
0000
0000
2000
0000
0000
0000
0000
0000
0000
0000
0000
0000
0000
0000
3002
0000
0000
,  // measure 54
0000
0000
0000
0000
0000
1003
0000
0000
;

//---------------dance-single - ----------------
#NOTES:
     dance-single:
     :
     Beginner:
     1:
     0.074,0.146,0.098,0.000,0.000: // measure 1
1000
0000
0000
0000
,  // measure 2
0000
0000
0000
0000
,  // measure 3
0001
0000
0000
0000
,  // measure 4
1000
0000
0000
0000
,  // measure 5
1001
0000
0000
0000
,  // measure 6
0000
0000
0000
0000
,  // measure 7
0010
0000
0000
0000
,  // measure 8
0000
0000
0000
0000
,  // measure 9
0100
0000
0000
0000
,  // measure 10
0000
0000
0000
0000
,  // measure 11
0010
0000
0000
0000
,  // measure 12
0010
0000
0000
0000
,  // measure 13
0010
0000
0000
0000
,  // measure 14
0000
0000
0000
0000
,  // measure 15
1001
0000
0000
0000
,  // measure 16
0001
0000
0000
0000
,  // measure 17
1000
0000
0000
0000
,  // measure 18
0001
0000
0000
0000
,  // measure 19
0100
0000
0000
0000
,  // measure 20
0010
0000
0000
0000
,  // measure 21
0110
0000
0000
0000
,  // measure 22
0100
0000
0000
0000
,  // measure 23
0100
0000
0000
0000
,  // measure 24
1001
0000
0000
0000
,  // measure 25
0001
0000
0000
0000
,  // measure 26
1000
0000
0000
0000
,  // measure 27
0001
0000
0000
0000
,  // measure 28
0010
0000
0000
0000
,  // measure 29
0100
0000
0000
0000
,  // measure 30
1000
0000
0000
0000
,  // measure 31
0001
0000
0000
0000
,  // measure 32
1001
0000
0000
0000
,  // measure 33
1001
0000
0000
0000
,  // measure 34
1001
0000
0000
0000
,  // measure 35
1001
0000
0000
0000
,  // measure 36
1000
0000
0001
0000
,  // measure 37
1000
0000
0000
0000
,  // measure 38
0010
0000
0000
0000
,  // measure 39
0010
0000
0010
0000
,  // measure 40
0110
0000
0100
0000
,  // measure 41
0110
0000
0010
0000
,  // measure 42
0110
0000
0000
0000
,  // measure 43
1000
0000
0000
0000
,  // measure 44
1000
0000
0000
0000
,  // measure 45
1001
0000
0000
0000
,  // measure 46
0001
0000
0000
0000
,  // measure 47
0010
0000
0000
0000
,  // measure 48
0100
0000
0000
0000
,  // measure 49
0010
0000
0000
0000
,  // measure 50
0000
0100
0000
0000
,  // measure 51
1000
0000
0000
0000
,  // measure 52
0010
0000
0000
0000
;
