#TITLE:Mouthful of Shit;
#SUBTITLE:;
#ARTIST:Chumbawamba;
#TITLETRANSLIT:;
#SUBTITLETRANSLIT:;
#ARTISTTRANSLIT:;
#GENRE:;
#CREDIT:Nixot;
#BANNER:Mouthful of Shit-bn.png;
#BACKGROUND:Mouthful of Shit-bg.png;
#LYRICSPATH:;
#CDTITLE:;
#MUSIC:Mouthful of Shit.ogg;
#OFFSET:-0.744;
#SAMPLESTART:16.350;
#SAMPLELENGTH:12.000;
#SELECTABLE:YES;
#BPMS:0.000=123.000;
#STOPS:;
#BGCHANGES:;
#KEYSOUNDS:;

//---------------dance-single - Nixot----------------
#NOTES:
     dance-single:
     Nixot:
     Challenge:
     10:
     0.668,0.736,0.220,0.245,0.520:
0000
0000
0000
0000
,
0000
0000
0000
0000
,
0000
0000
0000
0000
,
0000
0000
0000
0000
,
0010
0000
1000
0000
0001
0000
0100
0000
0001
0000
1000
0100
1000
0000
0000
0000
,
0100
0000
1000
0000
0010
0000
0100
0000
0001
0000
1000
0010
1000
0000
0000
0000
,
0100
0000
1000
0000
0001
0000
0010
0000
0100
0000
1000
0010
1000
0000
0000
0000
,
0010
0000
0100
0000
0001
0000
0100
0000
0010
0000
1000
0100
1000
0000
0001
0000
,
0101
0000
0100
0000
0100
0001
1000
0100
0010
0000
0010
0100
2000
0000
0000
0000
,
0000
0000
3010
0000
0010
0100
0001
0010
0100
0000
0100
1000
0001
0000
0100
0000
,
0110
0000
0010
1000
0001
0000
0101
0000
0000
0000
0001
0000
0001
0000
1000
0000
,
0100
0000
0010
0000
0010
0100
1000
0001
0100
0000
0100
0010
1000
0000
0100
0000
,
1200
0000
0310
0000
0010
0001
0010
0100
1000
0000
1000
0010
0200
0000
0000
0000
,
0000
0000
0301
0000
0001
1000
0100
1000
0010
0000
0010
0100
0001
0000
0010
0000
,
0110
0000
0100
1000
0001
0000
0101
0000
0000
0000
0100
0000
0001
0000
0010
0000
,
0010
0000
0100
0000
0100
0010
0001
1000
0010
0000
0010
0100
0001
0000
1000
0100
,
0010
0100
1000
0010
0100
0000
0001
0000
0001
1000
0010
0100
0010
0000
1000
0100
,
1000
0100
0010
0100
0001
0100
0010
0100
1000
0010
0100
0001
0010
0000
0110
0000
,
1001
0000
0001
0100
0010
0000
0010
1000
0100
1000
0001
1000
0010
0000
0100
0001
,
1000
0001
0010
0100
1000
0010
1000
0100
0010
0001
0100
0001
0010
0000
0100
0010
,
0100
0000
1000
0100
1000
0000
0010
0100
0010
0000
0100
0000
0001
0000
0011
0000
,
0010
0100
1000
0010
0100
0000
0010
0000
1000
0100
0001
0100
1000
0000
0001
0100
,
0010
0000
0010
0100
1000
0000
1000
0100
0010
0100
0001
0000
1001
0000
0000
0000
,
1000
0010
0100
0001
0100
0010
1000
0100
0010
0001
0010
0100
1000
0000
0001
0000
,
0101
0000
0100
0000
0100
0001
0010
0001
0100
0000
0100
0010
2000
0000
0000
0000
,
0000
0000
3010
0000
0010
0100
0001
0100
1000
0000
1000
0100
0001
0000
1000
0000
,
1100
0000
0100
0010
0001
0000
0101
0000
0000
0000
0001
0000
0100
0000
0010
0000
,
1000
0000
0010
0000
0010
0100
0001
0010
0100
0000
0100
1000
0010
0000
1000
0000
,
2010
0000
3100
0000
0100
1000
0010
1000
0100
0000
0100
1000
0002
0000
0000
0000
,
0000
0000
0103
0000
0100
0001
0100
1000
0100
0000
0100
0010
1000
0000
0100
0000
,
0110
0000
0010
0001
0100
0000
0120
0000
0000
0000
1030
0000
0010
0000
0001
0000
,
0010
0000
1000
0000
1000
0100
0001
0100
0010
0000
0010
0001
1000
0000
0000
0000
,
1020
0000
0000
0100
0001
0100
2000
0030
,
0200
3000
1000
0010
0001
0010
2000
0300
,
3020
0100
1000
0100
0001
0100
0000
2030
,
0200
3000
0000
0001
0010
1000
0010
0000
,
0320
0000
0000
0001
0100
1000
0002
0030
,
0200
0003
0001
0010
1000
0002
0000
0300
,
0023
0001
1000
0001
1000
0001
0000
0200
,
0000
0030
0000
1300
0010
0001
1000
0100
,
1001
0000
0000
0100
0100
0010
0000
0010
,
0000
0000
0000
0000
0000
0000
0001
0100
1000
0000
0000
0000
0000
0000
0000
0000
;

//---------------dance-single - Nixot----------------
#NOTES:
     dance-single:
     Nixot:
     Hard:
     9:
     0.549,0.558,0.416,0.037,0.116:
0000
0000
0000
0000
,
0000
0000
0000
0000
,
0000
0000
0000
0000
,
0000
0000
0000
0000
,
1000
0001
0101
0000
0001
1000
1100
0000
,
1000
0001
0011
0000
0001
1000
1010
0000
,
0001
0100
0010
1000
0100
0010
1001
0000
,
1000
0010
0100
0001
0010
0100
1001
0100
,
1001
0000
1000
0000
0100
0000
0010
0000
0001
0000
1000
0100
1000
0000
0000
0000
,
1001
0000
0001
0000
0010
0000
0100
0000
1000
0000
0001
0100
0001
0000
1000
0000
,
1010
0000
0100
0001
0100
0000
0010
0000
0000
0000
1000
0000
0001
0000
1000
0000
,
0001
0000
1000
0000
0010
0000
0100
0000
0001
0000
1000
0100
1000
0000
0000
0000
,
0101
0000
0001
0000
0010
0000
0100
0000
1000
0000
0001
0010
0001
0000
0000
0000
,
1100
0000
1000
0000
0100
0000
0010
0000
0001
0000
1000
0010
1000
0000
0001
0000
,
0101
0000
0100
0010
0100
0000
1001
0000
0000
0000
1000
0000
0010
0000
0100
0000
,
0001
0000
0010
0000
0001
0000
0100
0000
0010
0000
0100
0001
0100
0000
0010
0000
,
1010
0100
0001
0010
0100
1000
0010
0100
,
0100
0001
0001
1000
0100
0001
0100
0110
,
1001
0000
2000
0000
0010
0010
3010
0100
,
0001
0010
1000
0001
0100
1000
0010
0000
,
1010
0000
0101
0000
0010
0100
0010
1001
,
0100
0001
0100
0001
0100
0000
0010
0000
1010
0000
0101
0000
1001
0000
0010
0000
,
0010
0100
0100
0001
1000
0010
1001
0000
,
0100
0001
1000
0100
0010
1001
1001
0100
,
0110
0000
0010
0000
1000
0000
0100
0000
0010
0000
0001
0010
0001
0000
0000
0000
,
0011
0000
0010
0000
0100
0000
1000
0000
0010
0000
0100
0001
0100
0000
0010
0000
,
0110
0000
0100
0001
1000
0000
1001
0000
0000
0000
0001
0000
0010
0000
0100
0000
,
1000
0000
0010
0000
0010
0000
0100
0000
0001
0000
1000
0100
1000
0000
0000
0000
,
1001
0000
1000
0000
0010
0000
1000
0000
0100
0000
0010
0100
0010
0000
0000
0000
,
1100
0000
1000
0000
0010
0000
0001
0000
0010
0000
0100
0001
0100
0000
0010
0000
,
1010
0000
1000
0001
0100
0000
0110
0000
0000
0000
0010
0000
1000
0000
0100
0000
,
0001
0000
0100
0000
1000
0000
0010
0000
0001
0000
0010
0100
0001
0000
0000
0000
,
0001
0100
1000
0100
0001
0010
0100
0000
,
0010
0000
0010
0001
0100
1000
0001
0010
,
1000
0100
0001
0100
1000
0010
0000
0100
,
0000
0000
0000
0100
0001
1000
0010
0001
,
0010
1000
0100
0010
0001
0010
0100
0000
,
1000
0000
0010
0001
1000
0100
0001
0000
,
0000
0100
0010
1000
0100
0002
0000
2000
,
0000
0000
3003
1000
0010
0001
0100
0000
,
1001
0000
0000
0100
0010
1000
0000
0001
,
0000
0000
0000
0000
0000
0000
0001
1000
0001
0000
0000
0000
0000
0000
0000
0000
;

//---------------dance-single - Nixot----------------
#NOTES:
     dance-single:
     Nixot:
     Easy:
     4:
     0.264,0.279,0.183,0.000,0.000:
0000
0000
0000
0000
,
0000
0000
0000
0000
,
0000
0000
0000
0000
,
0000
0000
0000
0000
,
1000
0000
0100
0000
,
0001
0000
0100
0000
,
1000
1000
0001
0001
,
0010
0010
0010
0000
,
1000
0100
0010
1001
,
0001
0100
0010
1001
,
0010
0010
0000
0000
,
1000
0001
0100
0110
,
0001
1000
0100
0110
,
0010
0001
0100
0101
,
1000
1000
0000
0000
,
0001
0100
0010
1010
,
0100
0100
0010
0010
,
1000
0100
0001
0100
,
1001
0010
0001
0100
,
0010
1000
0100
0010
,
0001
0001
1000
1000
,
0010
0010
0100
0100
,
0001
0010
0100
1000
,
0010
0000
0100
0000
0001
0001
0001
0000
,
1001
0100
0010
1001
,
0010
0100
1000
1010
,
0100
0100
0000
0000
,
0001
0100
0010
0101
,
0010
1000
0100
0011
,
0100
1000
0010
0101
,
1000
1000
0000
0000
,
0001
0010
1000
0110
,
1000
0000
0000
0000
0010
0010
0010
0000
,
0100
0000
0000
0000
0001
0001
0001
0000
,
0010
0000
0000
0000
0100
0100
0100
0000
,
1000
0000
0000
0000
0001
0001
0001
0000
,
0010
0000
0000
0000
0100
0100
0100
0000
,
0001
0000
0000
0000
0010
0010
0010
0000
,
0100
0000
0000
0000
1000
1000
1000
0000
,
0010
0000
0000
0000
0100
0100
0100
0000
,
1001
0000
0100
0000
,
0010
0000
0100
0000
;

//---------------dance-single - Nixot----------------
#NOTES:
     dance-single:
     Nixot:
     Medium:
     7:
     0.384,0.355,0.306,0.098,0.000:
0000
0000
0000
0000
,
0000
0000
0000
0000
,
0000
0000
0000
0000
,
0000
0000
0000
0000
,
0010
0100
0001
1000
,
0100
0010
0001
0100
,
0010
1000
0100
0001
,
0100
1000
0010
0100
,
0001
0000
1000
0000
0010
0100
0110
0000
,
1000
0000
0001
0000
0100
0010
0110
0000
,
1001
0000
0000
1001
0000
0000
0000
0000
,
0010
0000
0100
0000
1000
0001
1001
0000
,
0100
0000
0010
0000
0001
1000
1001
0000
,
0001
0000
0100
0000
0010
1000
1010
0000
,
0101
0000
0000
1001
0000
0000
0000
0000
,
1000
0000
0010
0000
0100
0001
0101
0000
,
0001
0100
0001
0000
0100
0010
0100
0000
,
0010
1000
0010
1000
0010
1000
0010
0000
,
1001
0000
0100
0000
0001
0010
0100
0000
,
1000
0010
0100
0000
0001
1000
0001
0000
,
0010
0010
0010
0000
0100
0100
0100
0000
,
1000
0010
0100
0001
0100
0010
1000
0000
,
0100
0000
0110
0000
0010
0001
1000
0000
,
0010
0100
0001
1000
0001
0100
0010
0000
,
1001
0000
0100
0000
0010
0001
0011
0000
,
0010
0000
0100
0000
1000
0010
1010
0000
,
1001
0001
1000
1001
0000
0000
0000
0000
,
0100
0000
0010
0000
0001
0100
0101
0000
,
0100
0000
0010
0000
1000
0100
1100
0000
,
0100
0000
0010
0000
0001
1000
1001
0000
,
0110
0100
0001
1001
0000
0000
0000
0000
,
1000
0000
0100
0000
0001
0100
1100
0000
,
0020
0000
1000
0030
2000
0000
0100
3000
,
0200
0000
0001
0300
0002
0000
0010
0003
,
0010
1000
0010
0000
0100
0001
0100
0000
,
0010
1000
0100
0010
0001
0100
0010
0000
,
1002
0000
0100
0003
0200
0000
1000
0300
,
2000
0000
0010
3000
0020
0000
0001
0030
,
0001
0100
1000
0100
0001
0010
0100
0000
,
1000
0010
0001
0010
1000
0100
0010
0000
,
1001
0000
0000
0100
0001
1000
0000
0100
,
0000
0000
0000
0010
0010
0000
0000
0000
;
