#TITLE:MIRAGE;
#SUBTITLE:;
#ARTIST:AAA;
#TITLETRANSLIT:;
#SUBTITLETRANSLIT:;
#ARTISTTRANSLIT:;
#GENRE:;
#CREDIT:Frozen_Heat/Azn_Punk_07/GuardianFrozen;
#MENUCOLOR:#053674;
#METERTYPE:DDR;
#BANNER:[DDR Artists] - MIRAGE-bn.png;
#BACKGROUND:MIRAGE-bg.png;
#LYRICSPATH:[DDR Artists] - MIRAGE.lrc;
#CDTITLE:!cdtitle.png;
#MUSIC:MIRAGE.mp3;
#OFFSET:-0.044;
#SAMPLESTART:45.800;
#SAMPLELENGTH:19.793;
#SELECTABLE:YES;
#LISTSORT:;
#BPMS:0.000=194.000;
#STOPS:;
#BGCHANGES:0.000=[DDR Artists] - MIRAGE.avi=1.400=0=0=1,
2.500=[DDR Artists] - MIRAGE.avi=1.200=0=0=1,
8.000=[DDR Artists] - MIRAGE.avi=1.000=0=0=1,
99999=-nosongbg-=1.000=0=0=0 // don't automatically add -songbackground-
;
#ATTACKS:;

//---------------dance-single - ----------------
#NOTES:
     dance-single:
     :
     Hard:
     9:
     0.601,0.643,0.293,0.070,0.008: // measure 1
0000
0000
0000
0000
,  // measure 2
0000
0000
0000
0000
,  // measure 3
0000
0000
0000
0000
,  // measure 4
0000
0000
0000
0000
,  // measure 5
0000
0000
0000
0000
,  // measure 6
0000
0000
0000
0000
,  // measure 7
0000
0000
0000
0000
,  // measure 8
0000
0000
0000
0000
,  // measure 9
0000
0000
0000
0000
,  // measure 10
0000
0000
0000
0000
,  // measure 11
0000
0000
0000
0000
,  // measure 12
0001
0100
0000
0001
0010
0000
0010
0100
,  // measure 13
0000
1000
0100
1000
0001
0100
0001
0000
,  // measure 14
1000
0010
0000
0100
0010
0000
0010
1000
,  // measure 15
0000
1000
0001
0100
0001
0020
0000
0030
,  // measure 16
0010
0001
0000
0001
1000
0000
0010
1000
,  // measure 17
0000
1000
0001
0100
0010
1000
0100
0000
,  // measure 18
0100
1000
0000
1000
0001
0000
0100
0001
,  // measure 19
0000
0001
0010
0100
1000
0002
0000
0003
,  // measure 20
0001
0101
0000
1000
1100
0000
0001
0011
,  // measure 21
0000
1000
1010
0100
0110
0000
0001
0000
,  // measure 22
1001
0000
0001
0100
0000
0000
0010
0000
,  // measure 23
1000
0000
0100
0010
0000
0000
0001
0000
,  // measure 24
1000
0000
0001
0010
0000
0000
0001
0000
,  // measure 25
1000
0000
0010
0100
0000
0001
0001
0001
,  // measure 26
0001
0000
1000
0010
0000
0000
0100
0000
,  // measure 27
0001
0000
0010
0100
0000
0000
1000
0000
,  // measure 28
0001
0000
1000
0100
0000
0000
1000
0000
,  // measure 29
0001
0000
0010
0000
0100
1000
1000
1000
,  // measure 30
1000
0000
1100
0000
0001
0100
0001
1000
,  // measure 31
0000
0010
0000
0110
0000
1000
0000
1001
,  // measure 32
0000
0001
0010
0100
0010
0000
0001
0010
,  // measure 33
0000
0011
0000
1100
0000
1001
0000
1010
,  // measure 34
0000
0100
0001
0000
1000
0100
0010
0100
,  // measure 35
0000
1000
0001
0000
0100
0001
0100
0010
,  // measure 36
0000
0000
1000
0000
0001
0001
1000
0000
,  // measure 37
1001
0000
0100
1001
0000
0000
0110
0000
,  // measure 38
0100
0000
0001
0010
0100
1000
0010
0000
,  // measure 39
0100
0000
0001
1000
0100
0000
1000
0001
,  // measure 40
0100
0000
0010
1000
0001
0010
0001
0000
,  // measure 41
0100
0000
0001
0010
0100
0000
1000
0010
,  // measure 42
0100
0000
0001
0100
0010
1000
0001
1000
,  // measure 43
0100
0000
0010
0001
0100
0000
0010
1000
,  // measure 44
0100
0000
1000
0010
0100
0000
0001
0100
,  // measure 45
0000
0000
0010
0100
0010
0000
1000
0000
0100
0000
0010
0000
0100
0000
0000
0000
,  // measure 46
0010
0000
0001
0010
0100
1000
0001
0000
,  // measure 47
0010
0000
0001
1000
0010
0000
1000
0001
,  // measure 48
0010
0000
0001
1000
0100
1000
0001
0000
,  // measure 49
0010
0000
0001
0100
0010
0000
1000
0100
,  // measure 50
0010
0000
0100
1000
0100
0001
0100
0000
,  // measure 51
0010
0000
0001
0100
0010
0000
1000
0100
,  // measure 52
0010
0000
0001
1000
0010
0000
1000
0001
,  // measure 53
0010
0000
0001
0100
0010
0000
1000
0100
,  // measure 54
0010
0100
1000
0001
1000
0001
0010
0000
,  // measure 55
0010
0001
1000
0001
0100
0010
0100
0000
,  // measure 56
0000
0001
0101
0000
1000
1010
0000
0001
,  // measure 57
0011
0000
1000
1100
0000
0110
0000
0000
,  // measure 58
1000
0100
0000
1000
0100
0000
0010
0001
,  // measure 59
0000
0010
0001
1000
0001
0001
0100
0000
,  // measure 60
0001
0010
0000
0001
0010
0000
0100
1000
,  // measure 61
0000
0100
1000
0001
1000
1000
0000
0000
,  // measure 62
0001
0100
0000
0100
0010
0000
1000
0010
,  // measure 63
0000
0010
0100
0000
0001
1000
0001
0000
,  // measure 64
1000
0100
0010
0001
1000
0010
0100
0001
,  // measure 65
1000
0100
0010
0001
2000
0000
3000
0000
,  // measure 66
0001
0000
1000
0002
0000
0000
0003
0000
,  // measure 67
1000
0000
0001
0200
0000
0000
0300
0000
,  // measure 68
0010
0000
1000
0002
0000
0000
0003
0000
,  // measure 69
0010
0000
0001
2000
0000
3010
0010
0010
,  // measure 70
0010
0000
0100
0001
0000
0000
0010
0000
,  // measure 71
0100
0000
1000
0010
0000
0000
0100
0000
,  // measure 72
0001
0000
1000
0001
0000
0000
0010
0000
,  // measure 73
0001
1000
0001
1000
0000
0000
0001
0000
,  // measure 74
1000
0100
0010
0100
1000
0001
0000
1000
,  // measure 75
0000
1010
0000
0001
0000
0101
0000
0010
,  // measure 76
0000
0100
1000
0100
0010
0000
0001
0010
,  // measure 77
0000
0011
0000
0100
0000
1100
0000
0010
,  // measure 78
0000
1000
0001
0000
0001
0100
0010
1000
,  // measure 79
0000
1000
0001
0000
1000
0100
0010
0001
,  // measure 80
0000
0001
1000
0000
0001
0010
0100
0000
,  // measure 81
0011
0000
0000
1010
0000
0000
1001
0000
,  // measure 82
1100
0000
0010
0100
1000
0100
0010
0000
,  // measure 83
1000
0000
0001
0010
1000
0000
0010
0100
,  // measure 84
1000
0000
0001
0100
0010
1000
0001
0000
,  // measure 85
1000
0000
0010
0100
1000
0000
0100
0001
,  // measure 86
1000
0000
0100
0010
0001
0100
0010
0001
,  // measure 87
1000
0000
0100
0010
1000
0000
0001
0010
,  // measure 88
1000
0000
0010
0100
1000
0000
0001
1000
,  // measure 89
0010
0000
1000
0100
1000
0000
0000
0000
1100
0000
0000
0000
0011
0000
0000
0000
,  // measure 90
0101
0000
0010
0100
0001
0100
0010
0000
,  // measure 91
0001
0000
0010
1000
0001
0000
0100
0010
,  // measure 92
0001
0000
0010
1000
0100
0010
0100
1000
,  // measure 93
0001
0000
0100
0010
0001
0000
0010
1000
,  // measure 94
0001
0000
0100
0010
1000
0100
0010
1000
,  // measure 95
0001
0000
0100
0010
0001
0000
1000
0010
,  // measure 96
0001
0000
0010
0100
0001
0000
1000
0100
,  // measure 97
0001
0000
0100
0010
0001
0000
1000
0010
,  // measure 98
0001
0010
1000
0001
1000
0100
0010
0000
,  // measure 99
0100
1000
0001
0100
0001
0000
0110
0000
,  // measure 100
0000
1000
1010
0000
0001
0011
0000
1000
,  // measure 101
1100
0000
0001
0101
0000
1001
0000
1000
,  // measure 102
0000
0002
2000
0000
0000
0000
0000
0000
,  // measure 103
0000
0000
0000
0000
,  // measure 104
0000
0000
0000
0000
,  // measure 105
3003
0000
0000
0000
;

//---------------dance-single - ----------------
#NOTES:
     dance-single:
     :
     Beginner:
     2:
     0.135,0.195,0.046,0.000,0.000: // measure 1
0000
0000
0000
0000
,  // measure 2
0000
0000
0000
0000
,  // measure 3
0000
0000
0000
0000
,  // measure 4
0000
0000
0000
0000
,  // measure 5
0000
0000
0000
0000
,  // measure 6
0000
0000
0000
0000
,  // measure 7
0000
0000
0000
0000
,  // measure 8
0000
0000
0000
0000
,  // measure 9
0000
0000
0000
0000
,  // measure 10
0000
0000
0000
0000
,  // measure 11
0000
0000
0000
0000
,  // measure 12
0001
0000
0001
0000
,  // measure 13
0001
0000
0000
0000
,  // measure 14
1000
0000
1000
0000
,  // measure 15
1000
0000
0000
0000
,  // measure 16
0010
0000
0010
0000
,  // measure 17
0010
0000
0000
0000
,  // measure 18
0100
0000
0100
0000
,  // measure 19
0100
0000
0000
0000
,  // measure 20
0000
0000
0000
0000
,  // measure 21
0000
0000
0000
0000
,  // measure 22
0001
0000
0001
0000
,  // measure 23
0000
0000
0000
0000
,  // measure 24
1000
0000
1000
0000
,  // measure 25
0000
0000
0000
0000
,  // measure 26
0100
0000
0100
0000
,  // measure 27
0000
0000
0000
0000
,  // measure 28
0010
0000
0010
0000
,  // measure 29
0000
0000
0000
0000
,  // measure 30
0001
0001
0001
0000
,  // measure 31
0000
0000
0000
0000
,  // measure 32
0010
0010
0010
0000
,  // measure 33
0000
0000
0000
0000
,  // measure 34
0100
0100
0100
0000
,  // measure 35
0000
0000
0000
0000
,  // measure 36
1000
1000
1000
0000
,  // measure 37
1001
0000
0000
0000
,  // measure 38
0010
0000
0000
0000
,  // measure 39
0100
0000
0100
0000
,  // measure 40
0100
0000
0000
0000
,  // measure 41
0010
0000
0010
0000
,  // measure 42
0010
0000
0000
0000
,  // measure 43
0001
0000
0001
0000
,  // measure 44
0001
0000
0001
0000
,  // measure 45
0001
0000
0000
0000
,  // measure 46
1000
0000
0000
0000
,  // measure 47
0100
0000
0100
0000
,  // measure 48
0100
0000
0000
0000
,  // measure 49
1000
0000
1000
0000
,  // measure 50
1000
0000
0000
0000
,  // measure 51
0010
0000
0010
0000
,  // measure 52
0010
0000
0010
0000
,  // measure 53
0010
0000
0010
0000
,  // measure 54
0010
0000
0000
0000
,  // measure 55
0100
0000
0000
0000
,  // measure 56
0000
0000
0000
0000
,  // measure 57
0000
0000
0000
0000
,  // measure 58
0001
0000
0100
0000
,  // measure 59
0010
0000
0000
0000
,  // measure 60
1000
0000
0100
0000
,  // measure 61
0010
0000
0000
0000
,  // measure 62
0001
0000
0010
0000
,  // measure 63
0100
0000
0000
0000
,  // measure 64
1000
0000
0000
0000
,  // measure 65
0001
0000
0000
0000
,  // measure 66
0010
0000
0010
0000
,  // measure 67
0000
0000
0000
0000
,  // measure 68
0100
0000
0100
0000
,  // measure 69
0000
0000
0000
0000
,  // measure 70
1000
0000
1000
0000
,  // measure 71
0000
0000
0000
0000
,  // measure 72
0001
0000
0001
0000
,  // measure 73
0000
0000
0000
0000
,  // measure 74
1000
0000
0000
0000
,  // measure 75
0010
0000
0000
0000
,  // measure 76
0100
0000
0000
0000
,  // measure 77
0001
0000
0000
0000
,  // measure 78
1000
0000
0000
0000
,  // measure 79
0100
0000
0000
0000
,  // measure 80
0010
0000
0000
0000
,  // measure 81
0110
0000
0000
0000
,  // measure 82
1001
0000
0000
0000
,  // measure 83
0100
0000
0100
0000
,  // measure 84
0100
0000
0000
0000
,  // measure 85
0010
0000
0010
0000
,  // measure 86
0010
0000
0000
0000
,  // measure 87
0001
0000
0001
0000
,  // measure 88
0001
0000
1000
0000
,  // measure 89
1000
0000
0001
0000
,  // measure 90
1001
0000
0000
0000
,  // measure 91
0100
0000
0100
0000
,  // measure 92
0100
0000
0000
0000
,  // measure 93
0010
0000
0010
0000
,  // measure 94
0010
0000
0000
0000
,  // measure 95
1000
0000
1000
0000
,  // measure 96
0001
0000
1000
0000
,  // measure 97
0001
0000
1000
0000
,  // measure 98
1001
0000
0000
0000
,  // measure 99
0010
0000
0000
0000
,  // measure 100
0000
0000
0000
0000
,  // measure 101
0000
0000
0000
0000
,  // measure 102
0000
1001
0000
0000
0000
0000
0000
0000
;

//---------------dance-single - ----------------
#NOTES:
     dance-single:
     :
     Medium:
     7:
     0.453,0.482,0.062,0.039,0.000: // measure 1
0000
0000
0000
0000
,  // measure 2
0000
0000
0000
0000
,  // measure 3
0000
0000
0000
0000
,  // measure 4
0000
0000
0000
0000
,  // measure 5
0000
0000
0000
0000
,  // measure 6
0000
0000
0000
0000
,  // measure 7
0000
0000
0000
0000
,  // measure 8
0000
0000
0000
0000
,  // measure 9
0000
0000
0000
0000
,  // measure 10
0000
0000
0000
0000
,  // measure 11
0000
0000
0000
0000
,  // measure 12
0001
0010
0100
0010
,  // measure 13
0001
0000
1000
0000
0010
0100
0010
0000
,  // measure 14
1000
0001
0010
0100
,  // measure 15
1000
0000
0001
0000
0100
0010
0100
0000
,  // measure 16
0001
1000
0100
0010
,  // measure 17
0001
0000
1000
0000
0010
0100
0010
0000
,  // measure 18
1000
0001
0010
0100
,  // measure 19
1000
0000
0001
0000
0100
0010
0100
0000
,  // measure 20
0001
0000
0000
1000
0000
0000
0001
0000
,  // measure 21
0000
1000
0000
0000
0001
0000
0001
0000
,  // measure 22
1000
0000
0000
0100
0000
0000
0010
0000
,  // measure 23
0100
0000
0000
1000
0000
0000
1000
0000
,  // measure 24
0001
0000
0000
0100
0000
0000
0010
0000
,  // measure 25
0100
0000
0000
0001
0000
0000
0001
0000
,  // measure 26
1000
0000
0000
0010
0000
0000
0100
0000
,  // measure 27
0010
0000
0000
1000
0000
0000
1000
0000
,  // measure 28
0001
0000
0000
0010
0000
0000
0100
0000
,  // measure 29
0010
0000
0000
0001
0000
0000
0001
0000
,  // measure 30
0100
0000
0100
0000
0010
0000
0010
1000
,  // measure 31
0000
1000
0000
0001
0000
0100
0000
0010
,  // measure 32
0000
0010
1000
0000
1000
0000
0000
0001
,  // measure 33
0000
0001
0000
1000
0000
1000
0000
0100
,  // measure 34
0000
0010
0100
0000
0100
0000
1000
0001
,  // measure 35
0000
0001
0100
0000
0100
0000
0010
1000
,  // measure 36
0000
0000
1000
0000
0001
1000
0001
0000
,  // measure 37
1001
0000
0000
1001
0000
0000
0000
0000
,  // measure 38
1000
0000
1000
0000
0100
1000
0000
0100
,  // measure 39
1000
0000
1000
0001
0000
0001
0000
0100
,  // measure 40
0000
0010
0100
0000
0001
0100
0001
0000
,  // measure 41
0010
0000
0001
1000
0000
1000
0000
0010
,  // measure 42
0000
0100
0001
0000
0001
0100
0000
0100
,  // measure 43
0000
0010
1000
0000
1000
0000
0001
0010
,  // measure 44
0000
0000
0001
0000
1000
0000
1000
0010
,  // measure 45
0000
0100
0010
0000
0100
0001
0100
0000
,  // measure 46
0001
0000
0010
0000
0001
0010
0000
0010
,  // measure 47
0001
0000
0001
1000
0000
1000
0010
1000
,  // measure 48
0000
0100
1000
0000
0100
0010
0000
0010
,  // measure 49
0001
0000
1000
0001
0000
1000
0000
1000
,  // measure 50
0001
0000
0100
0000
0010
0100
0000
0100
,  // measure 51
0000
0001
1000
0000
0100
0010
0000
0010
,  // measure 52
0001
0000
0001
1000
0100
0000
1000
0001
,  // measure 53
0100
0000
0001
1000
0100
0000
0010
0001
,  // measure 54
0010
0000
0010
0000
0100
1000
0100
0000
,  // measure 55
0010
0001
1000
0001
0100
0000
0100
0000
,  // measure 56
0000
0001
0100
0000
0010
1000
0000
1000
,  // measure 57
0100
0000
0010
0001
0000
1001
0000
0000
,  // measure 58
1000
0100
1000
0001
,  // measure 59
0100
0000
0010
0000
1000
0100
0010
0000
,  // measure 60
0001
1000
0010
0100
,  // measure 61
0001
0000
1000
0000
0001
0010
0100
0000
,  // measure 62
1000
0001
0100
0010
,  // measure 63
0100
0000
0001
0000
1000
0010
0100
0000
,  // measure 64
0001
0001
1000
1000
,  // measure 65
0010
0100
0110
0000
,  // measure 66
0001
0000
0000
0100
0000
0000
0001
0000
,  // measure 67
1000
0000
0000
0100
0000
0000
1000
0000
,  // measure 68
0010
0000
0000
0100
0000
0000
0010
0000
,  // measure 69
1000
0000
0000
0100
0000
0000
0010
0000
,  // measure 70
0001
0000
0000
1000
0000
0000
0001
0000
,  // measure 71
1000
0000
0000
0010
0000
0000
1000
0000
,  // measure 72
0001
0000
0000
1000
0000
0000
0001
0000
,  // measure 73
0020
0000
0000
0230
0000
0000
0320
0000
,  // measure 74
0130
0000
1000
0000
0001
0100
0000
0100
,  // measure 75
0000
0001
0000
1000
0000
0100
0000
0010
,  // measure 76
0000
0001
1000
0000
1000
0000
0000
0010
,  // measure 77
0000
0010
0000
0100
0000
0100
0000
0001
,  // measure 78
0000
0001
1000
0000
0001
0000
0100
0010
,  // measure 79
0000
0010
1000
0000
0001
0000
0010
0100
,  // measure 80
0000
0000
0100
0000
1000
0001
1000
0000
,  // measure 81
1001
0000
0000
1001
0000
0000
0000
0000
,  // measure 82
0001
0000
0100
0000
0001
0100
0000
0001
,  // measure 83
1000
0000
1000
0001
0000
0001
0000
1000
,  // measure 84
0000
0100
1000
0000
1000
0010
0000
0010
,  // measure 85
0100
0000
0100
0001
0000
0001
0000
1000
,  // measure 86
0000
0001
1000
0000
0001
0010
0100
0010
,  // measure 87
0000
0001
1000
0000
0001
0000
1000
0010
,  // measure 88
0000
0000
1000
0000
0001
0000
1000
0100
,  // measure 89
0000
0100
0010
0000
0010
0100
1000
0000
,  // measure 90
1000
0000
0001
0000
1000
0010
0000
0010
,  // measure 91
0100
0000
0100
0001
0000
0001
0000
1000
,  // measure 92
0000
0001
0100
0000
0100
0010
0000
0010
,  // measure 93
1000
0000
1000
0100
0000
0100
0000
0010
,  // measure 94
0000
0100
0010
0000
0001
0010
0100
1000
,  // measure 95
0000
0001
1000
0000
0001
0100
0010
1000
,  // measure 96
0000
0000
0001
1000
0100
0000
1000
0001
,  // measure 97
0100
0000
0001
1000
0100
0000
0010
0001
,  // measure 98
0010
0000
0100
0000
1000
0100
1000
0000
,  // measure 99
0001
1000
0001
1000
0010
0000
0010
0000
,  // measure 100
0000
1000
0100
0000
0010
0001
0000
1000
,  // measure 101
0010
0000
0100
0001
0000
0101
0000
1010
,  // measure 102
0000
0002
2000
0000
0000
0000
0000
0000
,  // measure 103
0000
0000
0000
0000
,  // measure 104
0000
0000
0000
0000
,  // measure 105
3003
0000
0000
0000
;

//---------------dance-single - ----------------
#NOTES:
     dance-single:
     :
     Easy:
     5:
     0.334,0.391,0.077,0.062,0.000: // measure 1
0000
0000
0000
0000
,  // measure 2
0000
0000
0000
0000
,  // measure 3
0000
0000
0000
0000
,  // measure 4
0000
0000
0000
0000
,  // measure 5
0000
0000
0000
0000
,  // measure 6
0000
0000
0000
0000
,  // measure 7
0000
0000
0000
0000
,  // measure 8
0000
0000
0000
0000
,  // measure 9
0000
0000
0000
0000
,  // measure 10
0000
0000
0000
0000
,  // measure 11
0000
0000
0000
0000
,  // measure 12
0001
0000
0100
0000
,  // measure 13
0001
0010
0100
0000
,  // measure 14
1000
0000
0010
0000
,  // measure 15
0100
0010
1000
0000
,  // measure 16
0100
0000
0010
0000
,  // measure 17
0001
1000
0010
0000
,  // measure 18
0100
0000
0001
0000
,  // measure 19
1000
0010
0100
0000
,  // measure 20
0001
0000
1000
0000
,  // measure 21
0001
0000
1000
0000
,  // measure 22
0001
0001
1000
0000
,  // measure 23
0010
0000
0000
0000
,  // measure 24
0100
0100
0001
0000
,  // measure 25
1000
0000
0000
0000
,  // measure 26
0010
0010
1000
0000
,  // measure 27
0001
0010
0001
0000
,  // measure 28
1000
1000
0010
0100
,  // measure 29
0001
0000
1000
0000
,  // measure 30
0001
0100
0010
1000
,  // measure 31
0100
0010
0100
1000
,  // measure 32
0001
0100
0010
0000
,  // measure 33
0100
0100
0001
0001
,  // measure 34
1000
0100
0010
0100
,  // measure 35
1000
0001
0100
0010
,  // measure 36
0100
0000
0001
0000
,  // measure 37
1001
0000
0110
0000
,  // measure 38
0001
0010
0001
0000
,  // measure 39
0100
1000
0100
0010
,  // measure 40
0100
0001
0010
0000
,  // measure 41
0100
1000
0100
0001
,  // measure 42
0100
0010
0001
0000
,  // measure 43
1000
0001
0100
0010
,  // measure 44
0110
0000
1001
0000
,  // measure 45
0001
0010
0100
1000
,  // measure 46
0001
0100
1000
0000
,  // measure 47
1000
0100
0001
0100
,  // measure 48
0010
1000
0100
0000
,  // measure 49
0010
0100
1000
0100
,  // measure 50
0010
0001
0100
0000
,  // measure 51
0010
1000
0001
0010
,  // measure 52
0100
1000
0010
0100
,  // measure 53
0001
0010
0100
1000
,  // measure 54
0001
0001
1000
1000
,  // measure 55
0000
0010
0010
0100
,  // measure 56
0000
0001
0000
0000
1000
0000
0000
0001
,  // measure 57
0000
0000
1000
0000
0000
1001
0000
0000
,  // measure 58
0001
0010
0100
0010
,  // measure 59
0001
1000
0001
0000
,  // measure 60
1000
0010
0100
0010
,  // measure 61
1000
0100
0010
0010
,  // measure 62
0100
1000
0001
0100
,  // measure 63
0010
1000
0001
0000
,  // measure 64
0100
0100
0010
0010
,  // measure 65
1000
0001
1000
0000
,  // measure 66
0002
0000
0003
0000
,  // measure 67
2000
0000
3000
0000
,  // measure 68
0200
0000
0300
0000
,  // measure 69
0010
0001
0100
1000
,  // measure 70
0020
0000
0030
0000
,  // measure 71
0200
0000
0300
0000
,  // measure 72
0002
0000
0003
1000
,  // measure 73
0001
0000
0000
0000
,  // measure 74
0100
0100
0010
0010
,  // measure 75
1000
0001
0010
0100
,  // measure 76
1000
0001
1001
0000
,  // measure 77
0100
0100
0010
0010
,  // measure 78
1000
0001
1000
0100
,  // measure 79
0010
0001
0100
0010
,  // measure 80
1000
0001
0100
0010
,  // measure 81
0110
0000
1001
0000
,  // measure 82
1000
0010
0001
0010
,  // measure 83
1000
0100
0010
0100
,  // measure 84
1000
0001
0100
0010
,  // measure 85
1000
0100
0010
0001
,  // measure 86
1000
0001
0100
0010
,  // measure 87
1000
0100
0010
0001
,  // measure 88
0010
0100
1000
0001
,  // measure 89
0100
1000
0100
0000
,  // measure 90
0001
0010
1000
0010
,  // measure 91
0001
0100
0010
1000
,  // measure 92
0001
0100
1000
0100
,  // measure 93
0010
1000
0100
0010
,  // measure 94
0001
1000
0010
0100
,  // measure 95
0001
1000
0100
0001
,  // measure 96
0100
1000
0010
0100
,  // measure 97
0001
1000
0001
1000
,  // measure 98
0010
0010
0100
0100
,  // measure 99
0000
0001
1000
0001
,  // measure 100
0000
0100
0000
0000
0010
0000
0000
0100
,  // measure 101
0000
0000
0010
0000
0000
0110
0000
0000
,  // measure 102
0000
2002
3003
0000
0000
0000
0000
0000
;
