#TITLE:Light Shine;
#SUBTITLE:;
#ARTIST:Ryu;
#TITLETRANSLIT:;
#SUBTITLETRANSLIT:;
#ARTISTTRANSLIT:;
#GENRE:;
#CREDIT:;
#BANNER:;
#BACKGROUND:;
#LYRICSPATH:;
#CDTITLE:;
#MUSIC:Light Shine.mp3;
#OFFSET:-0.440;
#SAMPLESTART:12.385;
#SAMPLELENGTH:13.620;
#SELECTABLE:YES;
#BPMS:0.000=140.000
;
#STOPS:
;
#BGCHANGES:;
#KEYSOUNDS:;
#ATTACKS:;

//---------------dance-single - Blank----------------
#NOTES:
     dance-single:
     :
     Hard:
     8:
     0.637,0.569,0.373,0.177,0.201,399.000,38.000,18.000,0.000,0.000,0.000,0.637,0.569,0.373,0.177,0.201,399.000,38.000,18.000,0.000,0.000,0.000:
0000
0000
0000
0000
,
1000
0000
0100
0000
0010
0000
0001
0000
0100
0000
0000
0100
0001
0000
1000
0000
,
0100
0000
0000
0100
1000
0000
0001
0000
0200
0000
0000
0000
0000
0000
0000
0000
,
0301
0000
0010
0000
0100
0000
1000
0000
0010
0000
0000
0010
1000
0000
0001
0000
,
0010
0000
0000
0000
0000
0000
0001
0010
0200
0000
0000
0000
0000
0000
0000
0000
,
1300
0000
0010
0000
0001
0010
0001
0010
0100
0000
0100
0000
0001
0000
0001
0000
,
0000
1000
0100
0001
0100
1000
1010
0000
,
0001
0010
0100
0010
1000
0010
0100
0000
,
0110
0011
2001
3010
,
1000
0100
0010
0100
0001
0100
0010
0000
,
0011
1100
0102
0013
,
0001
0100
0010
0100
1000
0100
0010
0000
,
1010
0110
2100
3001
,
1000
0010
0100
0010
0001
0010
0100
0000
,
0110
1001
0012
0103
,
0010
0000
0100
0000
0001
0010
0001
0010
0001
0000
0100
0000
0010
1000
0010
1000
,
0010
0000
0100
0000
0001
0000
0010
0100
0010
0000
0100
0000
1000
0000
0000
0000
,
0010
0000
0100
0000
0001
0000
0010
0100
0010
0000
0001
0000
1000
0000
0000
0000
,
0010
0000
0100
0000
0001
0000
1000
0100
1000
0000
0001
0000
0010
0000
0000
0000
,
0001
0000
0100
0000
0010
0000
0100
0001
0100
0000
0010
0000
1000
0000
0000
0000
,
0100
0000
0010
0000
0001
0000
0010
0100
0010
0000
0100
0000
1000
0000
0000
0000
,
0001
0000
0010
0000
0001
0000
0100
0010
0100
0000
0010
0000
1000
0000
0000
0000
,
0010
0000
1000
0000
0100
0000
1000
0010
1000
0000
0100
0000
0010
0000
0000
0000
,
0001
0000
0100
0000
0010
0000
0100
0001
0100
0000
0010
0000
1000
0000
0000
0000
,
0100
0000
1000
0000
0010
0000
0100
0000
0010
0000
1000
0000
0100
0010
0100
0010
,
0001
0100
0010
1000
0100
0010
0001
0000
,
0010
0000
0001
0000
0100
0000
0010
0000
0100
0000
0001
0000
0010
0100
0010
0100
,
1000
0100
0010
0001
0100
0010
1000
0000
,
0010
0000
0100
0000
0010
0000
1000
0000
0100
0000
0010
0000
0100
0010
0100
0010
,
0001
0100
0010
1000
0100
0010
0001
0000
,
0100
0000
0010
0000
0100
0000
0001
0000
0010
0000
0100
0000
0010
0100
0010
0100
,
1000
0010
0100
0001
0010
0100
1000
0000
,
0001
0000
0100
0000
0010
1000
0010
1000
0010
0000
0100
0000
0001
0010
0001
0010
,
0001
0100
0010
0100
1000
0001
0010
0000
,
1010
1100
2001
3010
,
1000
0100
0010
0100
0001
1000
0010
0000
,
0011
1010
0102
1003
,
0001
0010
0100
0010
1000
0001
0100
0000
,
0110
0011
2100
3010
,
1000
0010
0100
0010
0001
1000
0100
0000
,
0110
1010
0102
1003
,
0000
0001
0010
1000
0010
0001
0101
0000
,
0100
0000
0001
0000
0010
0000
1000
0000
0010
0000
0000
0010
0001
0000
0100
0000
,
0010
0000
0000
0010
1000
0000
0100
0000
0020
0000
0000
0000
0030
0000
0000
0000
,
0001
0000
0100
0000
0001
0000
0010
0000
0100
0000
0000
0100
1000
0000
0001
0000
,
0011
1100
0220
0330
,
1000
0000
0010
0000
0100
0000
0001
0000
1000
0000
0000
1000
0100
0000
0010
0000
,
0001
0000
0000
0001
0010
0000
0100
0000
0020
0000
0000
0000
0030
0000
0000
0000
,
0110
0000
0000
0000
1001
0000
0000
0100
0010
0000
0010
0000
0001
0000
0001
0000
,
0000
0000
0001
0010
0000
0001
0010
0000
0001
0100
0001
0000
1000
0100
1000
0100
,
0010
0001
0100
0010
0100
0001
0010
0001
,
0100
0010
0100
0001
0010
0001
0100
0000
,
0010
1000
0100
1000
0010
0100
0010
1000
,
1100
0011
2002
3003
,
0100
0010
1000
0100
1000
0010
0100
0010
,
1000
0100
1000
0010
0100
0010
1000
0000
,
0001
0010
0100
0010
0001
0100
0001
0010
,
0110
1001
0202
0303
,
1001
0000
0000
0000
;

//---------------dance-single - Blank----------------
#NOTES:
     dance-single:
     :
     Beginner:
     2:
     0.214,0.227,0.157,0.108,0.000,126.000,16.000,11.000,0.000,0.000,0.000,0.214,0.227,0.157,0.108,0.000,126.000,16.000,11.000,0.000,0.000,0.000:
0000
0000
0000
0000
,
1000
0000
0100
0000
,
1000
0000
0002
0003
,
1000
0000
0010
0000
,
1000
0000
0001
0000
,
0100
0100
0100
0100
,
0000
0010
0000
0110
,
0110
0000
0100
0000
,
0001
0000
2000
3000
,
0010
0000
0010
0000
,
1000
0000
0002
0003
,
1000
0000
1000
0000
,
0010
0000
0200
0300
,
0001
0000
0001
0000
,
0100
0000
0020
0030
,
1000
1000
1000
1000
,
1000
0000
0100
0000
,
0001
0000
0100
0000
,
0010
0000
0100
0000
,
0001
0000
0100
0000
,
1000
0000
0010
0000
,
0001
0000
0010
0000
,
0100
0000
0010
0000
,
0001
0000
0010
0000
,
1000
0000
1001
0000
,
0001
0000
1001
0000
,
0010
0000
0110
0000
,
0100
0000
0110
0000
,
0001
0000
1001
0000
,
1000
0000
1001
0000
,
0100
0000
0110
0000
,
0010
0000
0110
0000
,
0001
0001
0001
0001
,
0001
0000
0001
0000
,
1000
0000
0200
0300
,
1000
0000
1000
0000
,
0001
0000
0020
0030
,
0100
0000
0100
0000
,
1000
0000
0002
0003
,
0010
0000
0010
0000
,
0001
0000
2000
3000
,
0000
0001
0000
1001
,
1001
0000
0100
0000
,
0010
0000
0001
0000
,
0001
0000
0010
0000
,
0100
0000
1000
0000
,
1000
0000
0010
0000
,
0100
0000
0001
0000
,
0001
0000
0100
0000
,
0000
0010
0000
0110
,
0110
0110
0000
0001
,
0000
1000
1000
1000
,
0000
0100
0000
0010
,
0010
0010
0020
0030
,
0000
0001
0000
0100
,
0000
1000
1000
1000
,
0000
0001
0000
0100
,
0100
0100
0200
0300
,
0110
0000
0000
0000
;

//---------------dance-single - Blank----------------
#NOTES:
     dance-single:
     :
     Easy:
     3:
     0.289,0.284,0.137,0.098,0.000,182.000,14.000,10.000,0.000,0.000,0.000,0.289,0.284,0.137,0.098,0.000,182.000,14.000,10.000,0.000,0.000,0.000:
0000
0000
0000
0000
,
1000
0000
0010
0000
,
0100
0000
0001
0000
,
1000
0000
0100
0000
,
0010
0000
0001
0000
,
1000
0010
0100
0100
,
0000
0001
0100
0110
,
0010
1000
0100
0010
,
0001
0100
0020
0000
,
0130
0001
0010
0100
,
1000
0010
0200
0000
,
0310
1000
0001
0010
,
0100
1000
0020
0000
,
0130
0001
1000
0100
,
0010
0001
0200
0000
,
0310
0110
0100
1001
,
1000
0010
0100
0000
,
0001
0100
0010
0000
,
1000
0001
0100
0000
,
0001
1000
0010
0000
,
1000
0100
0010
0000
,
0001
0010
0100
0000
,
0010
0001
1000
0000
,
0100
1000
0001
0000
,
1000
0010
0100
0100
,
1000
0100
0001
0000
,
0001
0100
0010
0010
,
0001
0010
1000
0000
,
1000
0100
0010
0010
,
1000
0010
0001
0000
,
0001
0010
0100
0100
,
0001
0100
1000
0000
,
0100
1100
0010
0110
,
0001
0100
0010
1000
,
0100
0010
0002
0000
,
1003
0010
0100
0001
,
0010
0100
2000
0000
,
3001
0010
0100
1000
,
0010
0100
0002
0000
,
1003
0100
0010
0001
,
0100
0010
2000
0000
,
3000
0001
0100
0101
,
0001
0010
0100
0010
,
0001
0010
0100
0000
,
1000
0100
0010
0100
,
1000
0100
1001
0000
,
0001
0100
0010
0100
,
0001
0100
0010
0000
,
1000
0010
0100
0010
,
0000
1010
0000
1010
,
0000
0001
0000
0100
,
0000
1000
0100
0001
,
0000
1000
0000
0010
,
0001
0010
0011
0000
,
0000
0100
0000
0010
,
0000
1000
0001
0100
,
0000
0010
0000
0100
,
0101
0101
0202
0303
,
1001
0000
0000
0000
;

//---------------dance-single - Blank----------------
#NOTES:
     dance-single:
     :
     Medium:
     5:
     0.479,0.398,0.539,0.314,0.000,255.000,55.000,32.000,0.000,0.000,0.000,0.479,0.398,0.539,0.314,0.000,255.000,55.000,32.000,0.000,0.000,0.000: // measure 0
0000
0000
0000
0000
,  // measure 1
1000
0010
0100
0000
0010
0000
0100
0000
,  // measure 2
0010
0100
2002
3003
,  // measure 3
0001
0010
0100
0000
0010
0000
0100
0000
,  // measure 4
2002
3003
0220
0330
,  // measure 5
1000
0100
1000
0000
0001
0100
0001
0000
,  // measure 6
0000
1000
0100
0000
0010
0100
1000
0000
,  // measure 7
0001
0010
0001
0000
1000
0100
1000
0000
,  // measure 8
1010
0110
0202
0303
,  // measure 9
1000
0010
1000
0000
0001
0010
0001
0000
,  // measure 10
0101
0110
2020
3030
,  // measure 11
0001
0100
0001
0000
1000
0010
1000
0000
,  // measure 12
1100
0110
0022
0033
,  // measure 13
1000
0100
1000
0000
0001
0100
0001
0000
,  // measure 14
0011
0110
2200
3300
,  // measure 15
0001
0100
0010
0000
1000
0001
0100
0000
,  // measure 16
0010
1000
0010
1001
,  // measure 17
0100
0001
0100
1001
,  // measure 18
0010
1000
0100
1100
,  // measure 19
0001
0100
0010
1010
,  // measure 20
0001
0010
0100
1001
,  // measure 21
1000
0100
0010
1001
,  // measure 22
0001
1000
0100
0011
,  // measure 23
1000
0001
0010
1100
,  // measure 24
0001
0100
0010
0000
0100
0000
1001
0000
,  // measure 25
1000
0010
0100
0000
0010
0000
1001
0000
,  // measure 26
0010
0100
1000
0000
0001
0000
0110
0000
,  // measure 27
0100
0010
0001
0000
0100
0000
0110
0000
,  // measure 28
0010
1000
0001
0000
0010
0000
1001
0000
,  // measure 29
0100
1000
0001
0000
0100
0000
1001
0000
,  // measure 30
0010
0100
0001
0000
0100
0000
1010
0000
,  // measure 31
0001
1000
0010
0000
1000
0000
0011
0000
,  // measure 32
1000
0100
0010
0000
0100
0010
0001
0000
,  // measure 33
1000
0010
0100
0000
0001
1000
0100
0000
,  // measure 34
0011
0110
2200
3300
,  // measure 35
0001
0100
0010
0000
1000
0001
0100
0000
,  // measure 36
1010
0110
0202
0303
,  // measure 37
1000
0100
1000
0000
0001
0100
0010
0000
,  // measure 38
0101
0110
2020
3030
,  // measure 39
0001
0010
0100
0000
1000
0001
0100
0000
,  // measure 40
1100
0110
0022
0033
,  // measure 41
0000
0001
0010
0000
0100
0010
0001
0000
,  // measure 42
1000
0010
0100
0010
1000
0000
0001
0000
,  // measure 43
0100
0010
0220
0330
,  // measure 44
0001
0010
0100
0010
0001
0000
0100
0000
,  // measure 45
0110
1001
0220
0330
,  // measure 46
1000
0100
0010
0100
1000
0000
0010
0000
,  // measure 47
0100
0010
0220
0330
,  // measure 48
0001
0100
0010
0100
0001
0000
0100
0000
,  // measure 49
0000
1001
0000
0110
,  // measure 50
0000
1000
0000
0100
0000
0010
0000
0001
,  // measure 51
0000
0100
0000
0010
1000
0100
1000
0000
,  // measure 52
0000
0001
0000
0010
0000
0100
0000
1000
,  // measure 53
0010
0110
0202
0303
,  // measure 54
0000
1000
0000
0010
0000
0100
0000
0001
,  // measure 55
0000
0010
0000
0100
1000
0010
1000
0000
,  // measure 56
0000
0001
0000
0100
0000
0010
0000
1000
,  // measure 57
0100
1001
0202
0303
,  // measure 58
1001
0000
0000
0000
;
