#TITLE:I'm Still Hot;
#SUBTITLE:;
#ARTIST:Luciana;
#TITLETRANSLIT:;
#SUBTITLETRANSLIT:;
#ARTISTTRANSLIT:;
#CREDIT:;
#BANNER:I'm Still Hot-bn.png;
#BACKGROUND:I'm still hot-bg.png;
#LYRICSPATH:;
#CDTITLE:Dancemania TRANCE Z.png;
#MUSIC:Luciana Ft. Betty White - I'm Still Hot.mp3;
#OFFSET:0.367;
#SAMPLESTART:18.350;
#SAMPLELENGTH:15.000;
#SELECTABLE:YES;
#BPMS:0.000=130.000;
#STOPS:;
#BGCHANGES:0.000=[Week 2] - I'm Still Hot.avi=1.000=0=0=1,
99999=-nosongbg-=1.000=0=0=0 // don't automatically add -songbackground-
;

//---------------dance-single - ----------------
#NOTES:
     dance-single:
     :
     Hard:
     9:
     0.574,0.536,0.622,0.017,0.227:
0000
0000
0000
0000
,
0000
0000
0000
0000
,
0000
0000
0000
0000
,
0000
0000
0000
0000
,
0000
0000
0000
0000
1000
0000
0100
0000
1000
0000
0001
0000
0100
0010
0100
0010
,
0100
0000
0010
0000
0000
0000
0010
0000
1000
0000
0100
0000
1000
0001
1000
0001
,
1000
0000
0001
0000
0000
0000
0001
0000
0100
0000
0010
0000
1000
0010
1000
0010
,
1000
0000
0001
0000
0000
0000
1000
0000
0100
0000
0010
0000
0001
0010
0001
0010
,
0001
0010
0011
0000
0101
0000
1010
0000
,
1001
0000
1000
0100
0010
0001
0100
0100
,
0010
0010
1000
0001
0100
0001
0010
0100
,
1000
1001
0000
1000
0100
0010
0001
0000
,
1001
0000
0001
0100
1000
0100
0001
1000
,
1100
0000
0001
0100
0110
0000
0010
1000
,
1001
0000
1000
0001
1000
0010
0100
0010
,
1000
1010
0000
1000
0100
0010
0001
1000
,
0001
0101
0000
1000
0100
0001
0100
1000
,
0010
0000
0110
0000
1000
0000
0001
1000
,
1001
0000
0010
0100
0001
0100
0010
1000
,
0001
1001
0000
1000
0010
0010
1000
0010
,
0100
0101
0000
0001
0010
1000
0010
0001
,
0100
0010
1010
0000
0101
0000
0210
0000
,
0310
1100
0110
0011
,
1001
0000
0000
1000
0001
0000
0000
0000
0101
0000
0000
0000
1010
0000
0000
0000
,
1001
0000
0000
1000
0100
0000
0000
0000
1100
0000
0000
0000
1010
0000
0000
0000
,
1001
0000
1000
0100
0001
0100
1000
0010
0100
0010
0000
0000
,
0000
0000
0000
0000
0010
0000
0100
0000
0001
0000
1000
0000
0100
0010
0100
0010
,
0100
0000
0010
0000
0000
0000
0001
0000
0100
0000
0010
0000
0100
0001
0100
0001
,
0100
0000
0001
0000
0000
0000
0001
0000
1000
0000
0010
0000
1000
0100
1000
0100
,
1000
0001
1001
0000
1010
0000
0010
0100
,
0110
0000
0000
0000
0100
0000
0010
0000
0100
0000
0001
0000
1000
0001
1000
0001
,
1000
0000
0100
0000
0000
0000
1000
0000
0001
0000
0100
0000
0001
0010
0001
0010
,
0001
0000
1000
0000
0000
0000
1000
0000
0100
0000
1000
0000
0010
0100
0010
0100
,
0010
1000
1001
0000
1100
0000
0010
0100
,
0101
1001
1010
0110
,
1001
0000
0000
1000
0100
0010
0001
0100
0010
1000
0000
0000
,
0000
0000
0000
0000
,
0000
0000
0000
0000
,
0000
0000
0001
0100
1000
0100
0001
0010
,
0100
1100
0000
1000
0001
0001
0101
0000
,
1001
0000
1000
0100
0001
0100
1000
0010
,
0001
0010
1000
0100
0010
0001
0000
0001
,
0101
0000
1000
0001
0100
0001
0000
1000
,
0010
0001
0010
1000
0001
1001
0000
0001
,
0100
0010
1010
0000
1002
0000
1003
0000
,
1100
0000
0001
0100
0110
0000
0010
1000
,
1001
0000
0001
0010
1000
0010
0001
0100
,
0010
0110
0000
1000
0010
0100
0001
1000
,
0001
1001
0000
1000
0100
0010
0001
0010
,
0100
1000
1010
0000
1001
0000
1010
0000
,
1001
0101
1010
1001
,
1100
0000
0000
1000
0100
0000
0000
0000
1100
0000
0000
0000
1010
0000
0000
0000
,
0110
0000
0000
0001
0100
0000
0000
0000
0110
0000
0000
0000
1010
0000
0000
0000
,
1001
0000
0001
0100
1000
0100
0001
0010
0100
1000
0000
0000
,
0000
0000
0000
0000
0010
0000
1000
0000
0100
0000
1000
0000
0001
1000
0001
1000
,
0001
0000
0100
0000
0000
0000
0100
0000
0010
0000
1000
0000
0010
1000
0010
1000
,
0010
0000
1000
0000
0000
0000
1000
0000
0100
0000
1000
0000
0010
0100
0010
0100
,
0010
0100
0101
0000
1001
0000
0001
0100
,
0110
0000
0000
0000
0010
0000
1000
0000
0100
0000
1000
0000
0001
1000
0001
1000
,
0001
0000
1000
0000
0000
0000
1000
0000
0100
0000
1000
0000
0010
0100
0010
0100
,
0010
0000
1000
0000
0000
0000
1000
0000
0100
0000
0010
0000
0001
0100
0001
0100
,
0001
0100
0110
0000
1010
0000
0010
1000
,
1001
1100
0011
0101
,
1010
0000
0000
1000
0100
0001
0100
1000
0010
0001
0000
0000
;

//---------------dance-single - ----------------
#NOTES:
     dance-single:
     :
     Medium:
     7:
     0.378,0.402,0.269,0.076,0.017:
0000
0000
0000
0000
,
0000
0000
0000
0000
,
0000
0000
0000
0000
,
0000
0000
0000
0000
,
0000
0000
1000
0000
1000
0000
0001
0100
,
0001
0000
0100
0000
0100
0000
0010
1000
,
0010
0000
1000
0000
1000
0000
0100
1000
,
0100
0000
1000
0000
0001
0000
0100
0001
,
0100
0001
0100
0010
,
1000
0000
0001
1000
0100
0001
0000
0000
,
0000
0000
0100
1000
0001
0000
0100
0000
,
0010
1000
0000
1000
0100
0000
1100
0000
,
0011
0000
0001
0000
0100
0000
0010
1000
,
0010
0000
1000
0000
0100
0000
0010
0001
,
1001
0000
0001
0000
0100
0000
0010
1000
,
0010
0000
0100
0000
0001
0000
0100
0010
,
0100
0010
1000
0100
,
0011
0000
0101
0000
0001
0000
1000
0001
,
1001
0000
1000
0000
0100
0000
0010
0001
,
1000
0100
0000
0100
1000
0000
0010
0100
,
0010
1000
0000
1000
0100
0000
0010
0000
,
0001
1001
1001
2002
,
3003
1000
0100
0010
,
0001
0000
0000
1000
0001
0000
0000
0000
1000
0000
0000
0000
0100
0000
0000
0000
,
0010
0000
0000
0001
0010
0000
0000
0000
0001
0000
0000
0000
0010
0000
0000
0000
,
0100
1000
1000
1001
,
0000
0000
1000
0010
1000
0010
2000
0000
,
3100
0000
0100
0010
0100
0010
0002
0000
,
0103
0000
0001
1000
0001
1000
0020
0000
,
0130
0000
0101
0000
0101
0000
1000
0001
,
1000
0000
0100
0000
1000
0000
0100
0010
,
0001
0000
0100
0000
0001
0000
0100
0010
,
1000
0000
0001
0000
1000
0000
1000
0100
,
0001
0000
0101
0000
1100
0000
0001
1000
,
0001
1000
0100
0010
,
0001
2002
0000
3003
,
0000
0000
0000
0000
,
0000
0000
0000
0000
,
0000
0000
1000
0000
0001
0000
0100
0001
,
0100
0001
0000
0001
1000
0000
1100
0000
,
0101
0001
0100
0010
,
1000
0000
1000
0100
0010
0001
0000
0001
,
1000
1001
1010
0010
,
0100
0000
0001
0100
0010
0100
0000
0100
,
0010
1010
1001
1000
,
0100
0000
0010
0000
0001
0000
0100
0100
,
0100
0000
0010
0000
1000
0000
0100
0010
,
0001
1000
0000
1000
0100
0000
1100
0000
,
1010
0000
0010
0000
0100
0000
0001
0100
,
0010
1010
1001
1010
,
1001
1000
0001
1000
,
0001
0000
0000
1000
0100
0000
0000
0000
1000
0000
0000
0000
0010
0000
0000
0000
,
1000
0000
0000
0010
0100
0000
0000
0000
0001
0000
0000
0000
0100
0000
0000
0000
,
0001
0100
0100
0110
,
0000
0000
0010
0000
1000
0000
0001
1000
,
0001
1000
0000
1000
0100
0000
0010
0001
,
0010
0001
0000
0001
0100
0000
0010
0000
,
1000
0000
1100
0000
0011
0000
0001
0100
,
0010
0000
1000
0000
0100
0000
0010
0001
,
0010
0001
0000
0001
1000
0000
0100
1000
,
0100
1000
0000
1000
0001
0000
0100
0001
,
0100
0000
0001
0000
0110
0000
0010
1000
,
0001
1000
0100
0010
,
0001
2002
0000
3003
;

//---------------dance-single - ----------------
#NOTES:
     dance-single:
     :
     Easy:
     5:
     0.284,0.319,0.143,0.000,0.000:
0000
0000
0000
0000
,
0000
0000
0000
0000
,
0000
0000
0000
0000
,
0000
0000
0000
0000
,
0000
1000
1000
0001
,
0001
1000
1000
0001
,
0001
1000
1000
0001
,
0001
0100
0100
0001
,
0001
0100
0100
0100
,
0100
0000
0100
0010
0100
0010
0000
0000
,
0000
0000
1000
1000
,
0001
1000
0001
0001
,
0100
0010
1000
0010
,
0100
0000
0000
0001
1000
0000
1000
0001
,
1000
0000
1000
0100
,
0001
0100
1000
0010
,
0010
0100
0001
1000
,
0110
0000
0110
0000
0000
0000
0001
1000
,
0001
1000
0100
1000
,
1000
0001
0100
0001
,
0001
0100
0010
1000
,
0010
0110
1001
0110
,
0000
1000
0000
0000
,
0000
0001
0000
0000
,
0000
1000
0001
1000
,
0001
1001
1001
1001
,
0000
1000
0100
0010
,
0010
0001
0100
0010
,
0010
1000
0001
1000
,
1000
0000
0100
0000
0010
0000
0001
1000
,
0001
1000
0100
1000
,
1000
0001
0100
0010
,
0010
1000
0100
0010
,
0010
0000
0001
0000
1000
0000
0001
1000
,
0001
1000
1000
1000
,
1000
1000
0000
0000
,
0000
0000
0000
0000
,
0000
0000
0000
0000
,
0000
0001
1000
0100
,
0100
1000
0001
0100
,
0100
0010
1000
0100
,
1000
1000
0001
0100
,
0001
0100
0100
0001
,
0100
0010
0010
1000
,
0100
0010
0110
0000
,
0000
0000
0000
1000
0001
0000
0001
1000
,
0001
1000
0100
0100
,
1000
0010
0100
0100
,
0001
0100
0010
1000
,
0100
0010
0010
0001
,
0001
0100
0001
0100
,
0001
0010
1000
0010
,
0100
0010
0100
0001
,
0001
1001
1001
1001
,
0000
1000
0100
1000
,
1000
0001
0100
0010
,
0010
1000
0100
0010
,
0001
0000
1001
0000
1001
0000
0001
1000
,
0001
1000
0100
0100
,
1000
0010
0010
0100
,
0001
0100
0100
0010
,
1000
0000
1001
0000
1001
0000
1000
0001
,
1000
1000
0100
0010
,
0001
1001
0000
0000
;
