#TITLE:Hawaiian Roller Coaster Ride (Eurobeat Remix);
#SUBTITLE:;
#ARTIST:AAA;
#TITLETRANSLIT:;
#SUBTITLETRANSLIT:;
#ARTISTTRANSLIT:;
#CREDIT:;
#BANNER:Hawaiian Roller Coaster Ride (Eurobeat Remix).png;
#BACKGROUND:Hawaiian Roller Coaster Ride (Eurobeat Remix)-bg.png;
#LYRICSPATH:;
#CDTITLE:;
#MUSIC:Hawaiian Roller Coaster Ride (Eurobeat Remix).mp3;
#OFFSET:-3.820;
#SAMPLESTART:53.445;
#SAMPLELENGTH:17.000;
#SELECTABLE:YES;
#BPMS:0.000=145.000;
#STOPS:;
#BGCHANGES:;

//---------------dance-single - ----------------
#NOTES:
     dance-single:
     :
     Hard:
     9:
     0.659,0.564,0.305,0.094,0.587: // measure 1
0000
0000
0000
0000
,  // measure 2
0000
0000
0000
0000
,  // measure 3
1000
0000
0001
0100
0000
0001
1000
0000
1001
0000
0000
0000
1010
0000
0000
0000
,  // measure 4
0010
0000
0100
0001
0000
0100
0010
0000
1000
0000
0001
0000
1001
0000
0000
0000
,  // measure 5
0001
0000
0010
0100
0000
0010
0001
0000
1001
0000
0000
0000
1010
0000
0000
0000
,  // measure 6
0010
0100
0010
0100
0000
0001
0100
0000
0010
0000
1000
0000
1001
0000
0000
0000
,  // measure 7
1000
0000
0010
0100
0000
0010
1000
0000
0002
0000
0000
0000
1003
0000
0001
0010
,  // measure 8
0001
0000
0010
0100
0000
1000
0100
0000
0110
0000
0000
0000
0011
0000
0000
0000
,  // measure 9
0001
0000
1000
0010
0000
1000
0001
0000
1001
0000
0000
0000
0101
0000
0000
0000
,  // measure 10
0001
0000
0100
0010
0000
0100
0001
0000
1000
0000
0010
0000
1010
0000
0000
0000
,  // measure 11
0010
0000
1000
0001
0000
0100
0000
0001
0010
0000
0100
1000
0000
0000
0000
0000
,  // measure 12
0001
1000
0000
1000
0001
0000
0100
0000
0010
0000
0010
0000
0010
0000
0000
0000
,  // measure 13
1000
0000
0100
1000
0000
0001
0000
0010
0001
0000
0100
0010
0000
0000
0000
0000
,  // measure 14
1000
0001
0000
0001
1000
0000
0010
0000
0100
0000
0100
0000
0100
0000
0010
0000
,  // measure 15
1000
0000
0000
0100
0000
0000
0001
0000
1000
0000
0000
0010
0000
0000
0001
0000
,  // measure 16
1000
0000
0000
0100
0000
0000
0001
0000
0020
0000
0000
0000
1030
0000
0000
0000
,  // measure 17
0001
0000
1000
0000
0010
0000
0100
0010
0000
1000
0000
0010
0100
0000
0001
0000
,  // measure 18
0010
0000
0100
0000
1000
0000
0001
1000
0000
1000
0001
0000
0100
0000
0010
0000
,  // measure 19
1000
0000
0100
1000
0010
1000
0100
0010
,  // measure 20
0001
0100
0001
0010
0200
0000
1300
0000
,  // measure 21
0001
0000
1000
0010
0000
0010
1000
0000
1001
0000
0000
0000
0011
0000
0000
0000
,  // measure 22
0010
0000
0100
0010
0000
0010
0100
0000
1000
0000
0001
0000
0011
0000
0000
0000
,  // measure 23
0001
0000
1000
0000
0010
0000
0100
0010
0000
1000
0000
0010
0100
0000
0001
0000
,  // measure 24
0010
0000
0100
0000
1000
0000
0001
1000
0000
1000
0001
0000
1000
0000
0100
0000
,  // measure 25
0010
0000
0001
0000
0100
0000
0001
0000
0010
0000
0100
0000
1000
0001
0000
1000
,  // measure 26
0000
0010
0000
1000
0100
0000
0010
0001
0000
1000
0001
0000
0100
0000
0100
0000
,  // measure 27
0010
0000
1000
0000
0010
0000
0001
0000
0010
0000
1000
0000
0100
1000
0000
0010
,  // measure 28
0000
1000
0001
0000
0010
0000
0001
1000
0000
0010
1000
0000
0100
0000
0010
0000
,  // measure 29
0001
0000
1000
0100
0000
1000
0100
0000
0010
0000
0001
0000
1000
0000
0000
0000
,  // measure 30
0001
0100
0000
0001
0100
0000
0010
0000
1000
0000
0001
0000
1001
0000
0000
0000
,  // measure 31
1000
0000
0001
1000
0000
0010
0000
1000
0100
0000
0010
0001
0000
0000
0000
0000
,  // measure 32
1000
0001
0000
0001
1000
0000
0010
0000
0100
0000
0100
0000
0100
0000
0000
0000
,  // measure 33
0001
0000
0010
0001
0000
1000
0000
0100
1000
0000
0010
0100
0000
0000
0000
0000
,  // measure 34
0001
1000
0000
1000
0001
0000
0100
0000
0010
0000
0010
0000
0010
0000
0100
0000
,  // measure 35
0001
0000
0000
0010
0000
0000
1000
0000
0001
0000
0000
0100
0000
0000
1000
0000
,  // measure 36
0001
0000
0000
0010
0000
0000
1000
0000
0200
0000
0000
0000
0301
0000
0000
0000
,  // measure 37
1000
0000
0001
0000
0100
0000
0010
0100
0000
0001
0000
0100
0010
0000
1000
0000
,  // measure 38
0100
0000
0010
0000
0001
0000
1000
0001
0000
0001
1000
0000
0010
0000
0100
0000
,  // measure 39
0001
0000
0010
0001
0100
0001
0010
0100
,  // measure 40
1000
0010
1000
0100
0020
0000
0031
0000
,  // measure 41
1000
0000
0001
0100
0000
0001
1000
0000
1001
0000
0000
0000
1010
0000
0000
0000
,  // measure 42
0010
0000
0100
0001
0000
0100
0010
0000
1000
0000
0001
0000
1001
0000
0000
0000
,  // measure 43
1000
0000
0100
0010
0000
0100
1000
0000
1001
0000
0000
0000
0101
0000
0000
0000
,  // measure 44
0100
0010
0100
0010
0000
1000
0010
0000
0100
0000
0001
0000
1001
0000
0000
0000
,  // measure 45
0001
0000
0100
0010
0000
0100
0001
0000
2000
0000
0000
0000
3001
0000
1000
0100
,  // measure 46
1000
0000
0100
0010
0000
0001
0010
0000
0110
0000
0000
0000
1100
0000
0000
0000
,  // measure 47
1000
0000
0001
0100
0000
0001
1000
0000
1001
0000
0000
0000
1010
0000
0000
0000
,  // measure 48
1000
0000
0010
0100
0000
0010
1000
0000
0001
0000
0100
0000
0220
0000
0000
0000
,  // measure 49
0330
0000
0000
0000
;

//---------------dance-single - ----------------
#NOTES:
     dance-single:
     :
     Beginner:
     1:
     0.097,0.112,0.000,0.000,0.000:
0000
0000
0000
0000
,
0000
0000
0000
0000
,
1000
0000
0000
0000
,
0001
0000
0000
0000
,
0100
0000
0000
0000
,
0010
0000
0000
0000
,
1000
0000
0000
0000
,
0100
0000
0000
0000
,
0010
0000
0000
0000
,
0001
0000
0000
0000
,
1000
0000
0000
0000
,
0001
0000
0000
0000
,
0100
0000
0000
0000
,
0010
0000
0000
0000
,
1000
0000
0000
0000
,
0001
0000
0000
0000
,
0100
0000
0000
0000
,
0010
0000
0010
0000
,
0010
0000
0000
0000
,
1000
0000
1000
0000
,
1000
0000
0000
0000
,
0001
0000
0000
0000
,
0100
0000
0000
0000
,
0010
0000
0010
0000
,
0010
0000
0000
0000
,
1000
0000
1000
0000
,
1000
0000
0000
0000
,
0001
0000
0001
0000
,
0001
0000
0000
0000
,
0100
0000
0100
0000
,
0100
0000
0000
0000
,
0010
0000
0000
0000
,
1000
0000
0000
0000
,
0001
0000
0001
0000
,
0001
0000
0000
0000
,
1000
0000
0000
0000
,
0100
0000
0000
0000
,
0010
0000
0010
0000
,
0010
0000
0000
0000
,
0001
0000
0001
0000
,
0001
0000
0000
0000
,
1000
0000
0000
0000
,
0010
0000
0000
0000
,
0100
0000
0100
0000
,
0100
0000
0000
0000
,
0001
0000
0000
0000
,
1000
0000
0000
0000
,
0010
0000
0010
0010
;

//---------------dance-single - ----------------
#NOTES:
     dance-single:
     :
     Easy:
     4:
     0.314,0.280,0.059,0.023,0.000:
0000
0000
0000
0000
,
0000
0000
0000
0000
,
1000
0100
1000
1000
,
0001
0100
0001
0001
,
1000
0010
1000
1000
,
0001
0010
0001
0001
,
1000
0100
0020
0030
,
0001
0100
0010
1001
,
1000
0001
1000
1000
,
0001
1000
0001
1001
,
1000
0010
1000
0010
,
0100
0001
0100
0001
,
1000
0100
1000
0100
,
0010
0001
0010
0001
,
1000
1000
0001
0001
,
0100
0100
0010
0010
,
1000
0100
0001
0100
,
1000
0010
0001
0010
,
1000
0001
0100
0001
,
1000
0010
1000
0001
,
0010
0001
0100
0100
,
0010
1000
0100
0100
,
1000
0100
0010
0001
,
1000
0010
0100
0001
,
1000
0100
0001
0100
,
1000
0010
0001
0010
,
1000
0100
1000
0010
,
0100
0001
0100
0010
,
1000
0001
0010
0001
,
1001
0000
0000
0000
,
1000
0010
0100
0010
,
1000
0100
0010
0100
,
1000
0001
0010
0001
,
0100
0010
0100
1001
,
1000
1000
0001
0001
,
0100
0100
0010
0010
,
1000
0100
0001
0100
,
1000
0010
0001
0010
,
1000
1000
0001
0001
,
0100
0100
0010
0010
,
1000
0001
0100
0100
,
0001
1000
0010
0010
,
1000
0100
0001
0001
,
0100
1000
0010
0010
,
0001
0010
2000
3000
,
0001
0100
1000
1001
,
1000
0010
0100
0001
,
1000
0000
0100
0000
0010
0001
0010
0000
;

//---------------dance-single - ----------------
#NOTES:
     dance-single:
     :
     Medium:
     6:
     0.451,0.421,0.164,0.023,0.000:
0000
0000
0000
0000
,
0000
0000
0000
0000
,
1000
0000
0001
0100
0010
0000
0110
0000
,
0010
0000
1000
0100
0010
0010
0010
0000
,
0100
0000
1000
0001
0010
0000
0011
0000
,
0001
0000
0100
0010
1000
1000
1000
0000
,
0001
0000
0100
0010
0100
0000
1001
0000
,
1000
0000
0100
0010
0100
0000
1001
0000
,
1000
0000
0010
0100
0001
0000
0101
0000
,
0001
0000
0010
0100
1000
1000
1000
0000
,
0001
0000
0100
0000
0010
1000
0010
0000
,
1000
0000
0100
0000
0010
0001
0010
0000
,
0001
0000
0100
0000
1000
0100
0001
0000
,
1000
0000
0001
0000
1000
0010
0001
0000
,
1000
0000
0001
0100
0010
0000
0010
1000
,
0100
0000
0100
0010
0001
0000
1001
0000
,
1000
0100
1000
0000
0001
0100
0001
0000
,
1000
0010
1000
0000
0001
0010
0001
0000
,
1000
0100
0001
0010
,
1000
0001
0100
0010
2000
0000
3001
0000
,
1000
0000
0100
0010
0001
0000
0011
0000
,
0001
0000
0100
0010
1000
1000
1000
0000
,
0001
0100
0001
0000
0100
0010
0100
0000
,
0010
1000
0010
0000
1000
0100
1000
0000
,
0001
1000
0001
0000
0010
0001
0010
0000
,
0001
0100
0001
0000
0100
0010
0100
0000
,
0010
1000
0100
0000
0010
0001
0100
0000
,
0010
1000
0001
0000
0100
0001
1000
0000
,
0100
1000
0010
0001
0010
1000
0100
0000
,
0001
0100
1000
0010
0001
0010
1000
0000
,
0001
0000
0100
0000
0010
1000
0010
0000
,
1000
0000
0100
0000
0010
0001
0010
0000
,
0001
0000
0100
0000
1000
0010
0001
0000
,
1000
0000
0100
0000
0001
0100
1000
0000
,
0001
0000
0100
0010
1000
0000
1000
0100
,
0010
0000
0010
0001
1000
0000
1001
0000
,
1000
0100
0001
0000
0001
0100
1000
0000
,
1000
0010
0001
0000
0001
0010
1000
0000
,
0001
0100
0010
1000
,
0100
0010
0001
0010
0200
0000
1300
0000
,
0001
0000
0100
0010
1000
0000
1010
0000
,
0010
0000
1000
0100
1000
1000
1000
0000
,
0001
0000
0100
0010
1000
0000
1010
0000
,
0010
0000
1000
0100
0010
0010
0010
0000
,
0100
0000
1000
0001
0010
0000
1001
0000
,
0001
0000
0100
0010
1000
0000
1001
0000
,
1000
0000
0100
0010
0001
0000
0011
0000
,
0001
0000
0100
0010
1000
0001
1001
0000
;
