#TITLE:HELL SCAPER;
#SUBTITLE:;
#ARTIST:L.E.D LIGHT-G;
#TITLETRANSLIT:;
#SUBTITLETRANSLIT:;
#ARTISTTRANSLIT:;
#CREDIT:dominatorstrangeman8;
#BANNER:[DDR Artists] - HELL SCAPER.png;
#BACKGROUND:[DDR Artists] - HELL SCAPER-bg.png;
#LYRICSPATH:;
#CDTITLE:;
#MUSIC:[DDR Artists] - HELL SCAPER.mp3;
#OFFSET:-0.360;
#SAMPLESTART:29.980;
#SAMPLELENGTH:12.000;
#SELECTABLE:YES;
#BPMS:0.000=190.000,32.000=47.500,34.000=95.000,36.000=190.001,114.500=195.000,122.500=200.000;
#STOPS:48.000=0.666
,159.000=0.560
,162.000=0.340
,169.000=0.320
,174.000=0.300
,175.000=0.300
,176.000=0.840
,209.000=4.500
;
#BGCHANGES:;

//---------------dance-single - ----------------
#NOTES:
     dance-single:
     :
     Beginner:
     1:
     0.148,0.196,0.012,0.000,0.000:
0000
0000
0000
0000
,
0000
0000
0000
0000
,
0100
0000
0000
0000
,
0100
0000
0000
0000
,
0001
0000
0001
0000
,
0001
0000
0000
0000
,
1000
0000
1000
0000
,
1000
0000
0000
0000
,
0100
0100
0010
0000
,
0010
0000
0000
0000
,
0010
0000
0000
0000
,
0001
0000
0000
0000
,
0001
0000
0100
0000
,
0100
0000
0100
0000
,
0000
0000
0010
0000
,
0010
0000
0010
0000
,
0000
0000
1000
0000
,
1000
0000
1000
0000
,
0000
0000
0001
0000
,
0001
0000
0001
0000
,
0000
0000
0100
0000
,
0000
0000
0000
0100
0000
0000
0000
0000
,
0000
0000
0001
0000
,
0000
0000
0000
0001
0000
0000
0000
0000
,
0000
0000
0010
0000
,
0000
0000
0000
0010
0000
0000
0000
0000
,
0000
0000
0100
0000
,
0000
0000
0000
0100
0000
0000
0000
0000
,
0000
0000
1000
0000
,
0000
0000
0000
1000
0000
0000
0000
0000
,
0100
0000
0000
0010
0000
0000
0000
0000
,
0000
0000
0000
0010
0000
0000
0000
0000
,
0000
0001
0100
0000
,
0000
0000
0000
0100
0000
0000
0000
0000
,
0010
0000
0000
1000
0000
0000
0000
0000
,
1000
0000
0001
0001
,
0001
0001
0000
0100
,
0000
0100
0000
0001
,
0000
0001
0000
0010
,
0000
0010
0100
0000
,
1000
0000
0000
0000
1000
0100
0000
0000
,
0000
0010
0000
0010
,
0000
0000
0001
0100
0000
0000
0000
0000
,
0010
0000
0010
0010
,
0010
0100
0000
0001
,
0000
1000
0000
0000
,
0000
0100
0000
1000
,
0000
0001
0000
0000
,
0000
0010
0000
0001
,
0000
1000
0000
0000
,
0000
0010
0000
1000
,
0000
0001
0000
0000
,
0000
0010
1001
0000
;

//---------------dance-single - ----------------
#NOTES:
     dance-single:
     :
     Easy:
     3:
     0.255,0.262,0.025,0.050,0.000:
0000
0000
0000
0000
,
0000
0000
0000
0000
,
0100
0000
0000
0000
,
0010
0000
0010
0000
,
0001
0000
0001
0100
,
0010
0000
0010
1000
,
0100
0000
0100
0010
,
0001
0001
0100
0010
,
1000
0001
0010
0010
,
0100
0000
1000
0000
,
0001
0000
0000
0000
,
0100
0000
0001
0000
,
1000
0000
0100
0100
,
0010
0010
0001
0100
,
0010
0000
0100
0100
,
0001
0001
1000
0100
,
0010
0000
0001
0001
,
1000
1000
0010
0100
,
0001
0000
1000
1000
,
0001
0001
0010
0100
,
1000
0000
1000
0000
,
1000
0000
0100
0000
,
0010
0010
0010
0000
,
0001
0000
0100
0000
,
0010
0000
0010
0000
,
0100
0000
0001
0000
,
1000
1000
1000
0000
,
0100
0000
1000
0000
,
0000
0000
0000
0000
0000
0001
0000
1000
,
0000
0000
0000
0010
0000
0000
0000
0100
,
0000
0001
0000
0001
0000
0000
0000
0001
,
0000
0000
0000
0010
0000
0000
0000
0100
,
0000
0000
0000
0000
0000
1000
0000
0000
,
0000
0001
0000
0000
0000
0100
0000
0010
,
0000
0000
1000
0000
,
1000
0000
0001
0001
,
0001
0001
0000
0100
,
0000
0000
0100
0000
0000
0010
0000
0010
,
0000
1000
0000
1000
0000
0001
0000
0001
,
0000
0010
0000
0000
0010
0000
0100
0000
,
1000
0000
0000
0000
1000
0100
0000
0100
,
0000
0010
0000
0010
,
0000
0000
0001
0100
0000
0100
0000
0000
,
0010
0000
0010
0010
,
1001
0100
0000
0100
,
0000
2000
0001
3001
,
0000
0100
0000
0010
,
0000
2000
0100
3100
,
0000
0010
0000
0001
,
0000
0200
0010
0310
,
0000
1000
0000
0100
,
0000
0010
0001
0100
,
0010
2010
3001
0000
;

//---------------dance-single - ----------------
#NOTES:
     dance-single:
     :
     Medium:
     5:
     0.422,0.589,0.449,0.012,0.019:
0000
0000
0000
0000
,
0000
0000
0000
0000
,
0110
0000
0000
0000
,
1001
0000
0010
0100
,
1000
1000
0001
0100
,
0010
0010
0001
0010
,
1000
1000
0100
0010
,
0001
0000
0001
0000
0100
0010
0100
0000
,
0001
1000
0010
0100
,
0001
0000
1000
0100
,
0010
0000
0000
0000
,
0100
0000
1000
0001
,
0100
0000
0010
0010
,
1000
0000
1000
0000
0100
0010
0100
0000
,
0001
0000
0100
0100
,
1000
0000
1000
0000
0010
0100
0010
0000
,
1000
0000
0001
0001
,
0010
0000
0010
0000
0100
1000
0100
0000
,
0010
0000
0001
0001
,
0100
0000
0100
0000
0010
1000
0010
0000
,
0100
0001
0100
0000
0000
0010
0000
0010
,
0000
0100
0000
0100
0000
0001
0000
0001
,
1000
0001
0000
0001
0000
0100
0000
0100
,
0000
1000
0000
1000
0000
0100
0000
0100
,
0000
0010
1000
0010
0000
1000
0000
1000
,
0000
0001
0000
0001
0000
0010
0000
0010
,
0100
0000
0000
0100
0000
0000
1000
0000
0000
0000
0001
0000
0000
0000
0001
0000
,
0000
0100
0000
0100
0000
0010
0000
0010
,
0000
1000
0100
0010
0000
0011
0000
0011
,
0000
1010
0000
1010
0000
1001
0000
0100
,
1000
0000
0000
1000
0000
0000
0001
0000
0000
0000
0101
0000
0000
0000
0101
0000
,
0000
0110
0000
0110
0000
1010
0000
1010
,
0000
0010
1000
0010
0000
0100
0000
0100
,
0000
0101
0000
0101
0000
1001
0000
1000
,
0100
0000
0000
0100
0000
0000
0010
0000
0001
0000
0000
0000
0000
0000
0000
0000
,
0001
0000
1000
0100
,
0010
0001
0000
0001
,
0000
0000
0101
0000
0000
1000
0000
0100
,
0000
1000
0000
0001
0000
0100
0000
0001
,
0000
1000
0000
0100
0100
0000
1001
0000
,
1001
0000
1001
0000
1001
0110
0000
0110
,
0000
1010
1010
1001
,
1001
0000
0110
1100
0000
1100
0000
0000
,
0011
0011
1001
1001
,
1001
0100
0100
0010
,
0010
0000
0001
1000
0001
0000
0100
0000
,
0000
0100
0100
0010
,
0010
0000
1000
0001
1000
0000
0100
0000
,
0000
0010
0010
0001
,
0001
0000
0100
0010
0100
0000
1000
0000
,
0000
0100
0100
0001
,
0001
0000
0010
0100
0010
0000
0001
0000
,
0100
0210
0310
0000
;

//---------------dance-single - ----------------
#NOTES:
     dance-single:
     :
     Hard:
     8:
     0.536,0.589,0.337,0.037,0.019: // measure 1
0000
0000
0000
0000
,  // measure 2
0000
0000
0000
0000
,  // measure 3
0110
0000
0000
0000
,  // measure 4
1001
0000
0010
0001
,  // measure 5
1000
1000
0010
0100
,  // measure 6
0001
0000
0001
0000
0010
0000
0100
1000
,  // measure 7
0001
0001
0100
0010
,  // measure 8
1000
0000
1000
0000
0100
0010
0100
0010
,  // measure 9
0001
0000
0000
1000
0000
0000
0020
0000
0000
0230
0300
0000
,  // measure 10
0101
0100
0010
0010
,  // measure 11
1000
0000
0000
0000
,  // measure 12
1100
0010
0001
0001
,  // measure 13
1000
0010
0100
0100
,  // measure 14
0001
0100
0001
0000
1000
0100
0010
0001
,  // measure 15
0000
0100
0010
0100
0010
0000
0010
0000
,  // measure 16
1000
0100
1000
0000
0001
0100
0001
1000
,  // measure 17
0000
0100
0010
0100
0010
0000
0010
0000
,  // measure 18
0001
0100
0010
0000
1000
0100
0010
0001
,  // measure 19
0000
0100
0010
1000
0100
0000
0100
0000
,  // measure 20
0010
0001
0100
0000
1000
0100
0001
1000
,  // measure 21
0100
0001
0100
0010
0000
0010
0000
0010
,  // measure 22
0000
0001
0100
0001
0000
1000
0000
0100
,  // measure 23
0010
0001
0100
0010
0000
0010
0000
0010
,  // measure 24
0000
1000
0100
0010
0000
0001
0000
0001
,  // measure 25
0000
0100
0010
1000
0000
0100
0000
0100
,  // measure 26
0000
0010
0001
1000
0000
0010
0000
0100
,  // measure 27
0001
0000
0000
1000
0000
0000
0100
0000
0000
0000
0010
0000
0000
0000
0010
0000
,  // measure 28
0000
0001
0000
0001
0000
0100
0000
0100
,  // measure 29
0000
0010
1000
0100
0000
0011
0000
0011
,  // measure 30
0000
1010
0000
1010
0000
1001
0000
1000
,  // measure 31
0100
0000
0000
0010
0000
0000
0001
0000
0000
0000
0101
0000
0000
0000
0101
0000
,  // measure 32
0000
1010
0000
1010
0000
1001
0000
1001
,  // measure 33
0000
1000
0010
0100
0000
0001
0000
0001
,  // measure 34
0000
1001
0000
1001
0000
1000
0000
1000
,  // measure 35
0100
0000
0000
0010
0000
0000
0010
0000
0001
0000
0000
0000
0000
0000
0000
0000
,  // measure 36
0001
0000
1000
0010
,  // measure 37
0100
0001
1000
1100
,  // measure 38
1000
0000
1100
0000
0001
0100
0000
0010
,  // measure 39
0100
0010
1000
0100
1000
0010
0100
0001
,  // measure 40
0010
1000
0001
0100
1000
0000
0010
0000
,  // measure 41
0100
0001
0100
0001
0100
1001
0000
1001
,  // measure 42
0000
0100
1000
0100
1000
0001
0100
0001
,  // measure 43
0100
0001
1000
1001
0000
1001
0000
0100
,  // measure 44
0010
0100
0010
1000
1010
0000
1001
0000
,  // measure 45
0110
0000
0001
0010
0100
1000
0001
1000
,  // measure 46
0010
0100
0001
1000
0100
0010
0000
0100
,  // measure 47
1000
0001
0100
0010
0100
0010
1000
0100
,  // measure 48
0010
0001
0100
0010
1000
0100
0000
0010
,  // measure 49
0001
0100
0010
1000
0100
1000
0001
0100
,  // measure 50
0010
1000
0100
0010
0001
0100
0000
0010
,  // measure 51
1000
0100
1000
0001
0100
0010
1000
0100
,  // measure 52
0010
0001
0100
1000
0001
0010
1000
0100
,  // measure 53
0010
0001
2001
0000
3010
0000
0000
0000
;
