#TITLE:Gay Bar;
#SUBTITLE:;
#ARTIST:Electric Six;
#TITLETRANSLIT:;
#SUBTITLETRANSLIT:;
#ARTISTTRANSLIT:;
#CREDIT:;
#BANNER:;
#BACKGROUND:;
#LYRICSPATH:;
#CDTITLE:;
#MUSIC:Gay Bar.mp3;
#OFFSET:-5.620;
#SAMPLESTART:11.180;
#SAMPLELENGTH:11.160;
#SELECTABLE:YES;
#BPMS:0.000=172.000;
#STOPS:;
#BGCHANGES:;

//---------------dance-single - ----------------
#NOTES:
     dance-single:
     :
     Hard:
     8:
     0.597,0.598,0.455,0.118,0.000: // measure 1
1000
0100
1000
0001
,  // measure 2
1000
0001
0100
0010
,  // measure 3
1000
0001
1000
0100
,  // measure 4
0010
0001
0100
0010
,  // measure 5
2002
0000
3003
0000
0001
0100
0001
0000
,  // measure 6
1000
0000
0001
0010
0000
0100
1000
0100
,  // measure 7
0010
0000
0100
0000
1000
0001
1000
0000
,  // measure 8
0001
0000
0100
0010
0000
0100
0001
1000
,  // measure 9
0100
0000
0010
0100
0010
0001
0010
0000
,  // measure 10
0001
0000
1000
0001
0000
0001
1000
0000
,  // measure 11
1010
0000
0000
0101
0000
0000
0011
0000
,  // measure 12
0000
1100
0000
0000
1001
0000
0110
0000
,  // measure 13
1001
0000
1000
0000
0001
0100
1000
0100
,  // measure 14
0001
0000
1000
0000
0001
0010
0100
0000
,  // measure 15
0010
0000
0001
0000
1000
0100
0001
0100
,  // measure 16
1000
0000
0001
0000
1000
0010
1000
0010
,  // measure 17
0100
0000
0001
0000
0010
0001
0100
1000
,  // measure 18
0100
0000
0001
0010
0000
0010
0001
1000
,  // measure 19
1001
0000
0000
0101
0000
0000
1100
0000
,  // measure 20
0000
1010
0000
0000
0011
0000
1001
0000
,  // measure 21
0110
0000
1010
0000
1000
0010
0100
0002
,  // measure 22
0000
0103
0001
0000
1000
0100
1000
0000
,  // measure 23
1001
0000
0011
0000
0010
0001
0100
0020
,  // measure 24
0000
1030
0010
0000
1000
0100
0010
0100
,  // measure 25
1000
0000
0001
0000
1000
0010
0100
0002
,  // measure 26
0000
1003
0100
0000
0010
0100
1000
0000
,  // measure 27
0001
0000
1000
0000
0010
1000
0100
2000
,  // measure 28
0000
3010
0100
0001
1000
0000
1001
0000
,  // measure 29
0110
0000
0110
0000
0010
1000
0100
0010
,  // measure 30
0000
0010
0100
0000
0010
0001
0100
0000
,  // measure 31
1010
0000
1010
0000
0010
1000
0001
1000
,  // measure 32
0000
0001
0010
0000
0001
0010
0100
1000
,  // measure 33
1100
0000
1100
0000
0010
0001
0100
0010
,  // measure 34
0000
0100
0001
0000
1000
0100
0010
0000
,  // measure 35
1001
0000
1001
0000
1000
0001
1000
0002
,  // measure 36
0000
0103
0001
0100
0010
1000
0010
1000
,  // measure 37
1002
0000
1003
0000
1000
0100
0001
0100
,  // measure 38
1000
0000
0001
1000
0000
0001
1000
0000
,  // measure 39
2001
0000
3001
0000
0001
0010
1000
0010
,  // measure 40
0001
0000
1000
0001
0000
1000
0001
0100
,  // measure 41
0120
0000
0130
0000
0010
1000
0001
1000
,  // measure 42
0100
0000
0010
0001
0000
0010
0001
0000
,  // measure 43
0101
0000
0000
0110
0000
0000
1100
0000
,  // measure 44
0000
0110
0000
0000
0101
0000
1001
0000
,  // measure 45
1000
0100
0100
0001
0100
0100
0010
0001
,  // measure 46
0001
1000
0001
0001
1000
0010
1010
0000
,  // measure 47
1001
0000
0001
0001
0100
0010
0000
0100
,  // measure 48
0000
0001
0100
0100
0010
1000
0100
0000
,  // measure 49
0010
0000
0100
0100
1000
0100
0010
0001
,  // measure 50
0000
0100
0010
0010
0100
0001
1000
0000
,  // measure 51
1001
0000
0001
0001
0010
0001
0000
0100
,  // measure 52
0000
0010
1000
1000
0100
0001
0100
1000
,  // measure 53
0001
0000
0100
0100
0010
1000
0100
0020
,  // measure 54
0000
0100
0100
0100
0100
0100
0130
0000
,  // measure 55
1001
0000
0110
0000
0010
1000
0001
0100
,  // measure 56
0000
0100
0001
0000
1000
0100
1000
0000
,  // measure 57
0011
0000
0101
0000
0010
1000
0100
0010
,  // measure 58
0000
0100
0010
0100
1000
0001
0100
0000
,  // measure 59
0101
0000
1001
0000
1000
0100
0010
0001
,  // measure 60
0000
0010
0001
0000
0100
0010
1000
0000
,  // measure 61
1010
0000
0101
0000
0010
1000
0100
0010
,  // measure 62
0000
0100
1000
0001
0100
0010
1000
0000
,  // measure 63
0001
0100
0010
1000
0100
0010
0001
0100
,  // measure 64
0000
0100
0001
0010
0100
0010
0001
0000
,  // measure 65
1000
0010
0100
0010
1000
0001
0100
0010
,  // measure 66
0000
0010
0100
0001
1000
0100
0010
0000
,  // measure 67
0100
1000
0001
0010
0100
0010
0001
0100
,  // measure 68
0000
0100
0010
1000
0100
0010
0100
0000
,  // measure 69
0010
0001
0100
0001
1000
0010
0100
0001
,  // measure 70
0010
1000
0010
0001
0101
0000
1010
0000
,  // measure 71
2002
0000
0000
0000
,  // measure 72
0000
0000
0000
0000
,  // measure 73
0000
0000
0000
0000
,  // measure 74
3003
0000
0000
0000
;

//---------------dance-single - ----------------
#NOTES:
     dance-single:
     :
     Medium:
     6:
     0.450,0.465,0.337,0.218,0.000: // measure 1
1000
1000
1000
1000
,  // measure 2
0001
0001
0001
0001
,  // measure 3
0100
0100
0100
0100
,  // measure 4
0010
0010
0010
0010
,  // measure 5
0220
0330
0010
1000
,  // measure 6
0001
0000
0010
0000
0100
1000
0100
0000
,  // measure 7
1000
2000
0000
3001
,  // measure 8
0100
0000
0010
0000
0100
0010
0100
0000
,  // measure 9
0001
0002
0000
1003
,  // measure 10
0100
0000
0010
0000
0001
1000
0001
0000
,  // measure 11
1001
0000
0000
1001
0000
0000
0110
0000
,  // measure 12
0000
0110
0000
0000
1001
0000
0110
0000
,  // measure 13
1001
0001
0100
0010
,  // measure 14
1000
0000
0100
0000
1000
0001
1000
0000
,  // measure 15
0100
0010
0001
0100
,  // measure 16
0010
0000
1000
0000
0001
0010
0001
0000
,  // measure 17
1000
0010
0100
0001
,  // measure 18
0010
0100
1000
0001
,  // measure 19
0101
0000
0000
1010
0000
0000
0101
0000
,  // measure 20
0000
1010
0000
0000
1100
0000
0011
0000
,  // measure 21
1001
0000
1000
0000
0100
0000
0010
0002
,  // measure 22
0000
0010
1000
0103
,  // measure 23
0001
0000
0100
0000
0010
0000
1000
0020
,  // measure 24
0000
0001
1000
0031
,  // measure 25
0100
0000
0010
0000
1000
0000
0100
2000
,  // measure 26
0000
0010
0001
3100
,  // measure 27
1000
0000
0001
0000
0010
0000
0100
0020
,  // measure 28
0000
0000
0001
0001
0001
0000
0130
0000
,  // measure 29
0001
0000
1000
0000
0001
0100
0000
0001
,  // measure 30
0000
0100
0001
0000
0100
0000
0010
0000
,  // measure 31
1000
0000
0001
0000
1000
0100
0000
1000
,  // measure 32
0000
0100
1000
0000
0001
0010
0001
0000
,  // measure 33
1000
0000
0001
0000
0100
0010
0000
0100
,  // measure 34
0000
0010
0100
0000
0001
0000
1000
0000
,  // measure 35
0001
0000
1000
0000
0100
0010
0000
1002
,  // measure 36
0000
1000
1000
0000
0100
0000
1003
0000
,  // measure 37
2002
3003
0001
0100
,  // measure 38
0010
0000
1000
0010
1000
0000
0001
0000
,  // measure 39
2002
3003
1000
0100
,  // measure 40
0010
0000
0001
0010
0001
0000
1000
0000
,  // measure 41
2002
3003
0001
0100
,  // measure 42
1000
0000
0100
0001
0100
0000
0010
0000
,  // measure 43
1010
0000
0000
1100
0000
0000
0011
0000
,  // measure 44
0000
0101
0000
0000
0110
0000
1001
0000
,  // measure 45
0110
0000
0000
0110
0000
0000
1001
0000
,  // measure 46
0000
1001
0000
0000
0110
0000
1001
0000
,  // measure 47
0120
0000
0100
0100
0000
0000
0100
0000
,  // measure 48
0000
0000
1000
1000
0000
0000
1000
0000
,  // measure 49
0000
0000
0001
0001
0000
0000
0001
0000
,  // measure 50
0000
0000
0100
0100
0000
0000
0130
0000
,  // measure 51
2000
0000
0010
0010
0000
0000
0010
0000
,  // measure 52
0000
0000
0001
0001
0000
0000
0001
0000
,  // measure 53
0000
0000
0100
0100
0000
0000
0100
0000
,  // measure 54
0000
3001
1001
0110
,  // measure 55
1001
0000
1000
0000
0100
0000
0010
0001
,  // measure 56
0000
0001
0010
0000
0001
0000
1000
0000
,  // measure 57
0001
0000
0100
0000
0010
0000
1000
0010
,  // measure 58
0000
0010
1000
0000
0001
0100
0001
0000
,  // measure 59
1000
0000
0100
0000
0010
0000
0001
1000
,  // measure 60
0000
0001
1000
0000
0001
0000
0100
0000
,  // measure 61
0010
0000
1000
0000
0100
0000
0010
0200
,  // measure 62
0000
0010
0010
0000
0010
0000
0310
0000
,  // measure 63
1001
0000
1000
0000
0001
1000
0001
2000
,  // measure 64
0000
0010
0001
3100
,  // measure 65
1000
0000
0001
0000
0100
0010
0100
0020
,  // measure 66
0000
0001
0100
1030
,  // measure 67
0001
0000
1000
0000
0001
0010
0001
0020
,  // measure 68
0000
1000
0100
0031
,  // measure 69
1000
0000
0001
0000
0100
0010
0100
0020
,  // measure 70
0000
1000
1000
0000
0100
0000
1030
0000
,  // measure 71
2002
0000
0000
0000
,  // measure 72
0000
0000
0000
0000
,  // measure 73
0000
0000
0000
0000
,  // measure 74
3003
0000
0000
0000
;

//---------------dance-single - ----------------
#NOTES:
     dance-single:
     :
     Easy:
     4:
     0.307,0.332,0.091,0.109,0.000: // measure 1
1000
0000
0001
0000
,  // measure 2
1000
0000
0001
0000
,  // measure 3
0100
0000
0010
0000
,  // measure 4
0100
0010
0100
0010
,  // measure 5
0220
0000
0330
0000
,  // measure 6
0010
1000
0010
1000
,  // measure 7
0001
0000
1000
0000
,  // measure 8
0001
0010
0001
0010
,  // measure 9
0100
0000
0010
0000
,  // measure 10
0001
1000
0001
1000
,  // measure 11
0001
0000
0000
0001
0000
0000
1000
0000
,  // measure 12
0000
1000
0000
0000
0010
0000
0100
0000
,  // measure 13
0110
0000
0010
1000
,  // measure 14
0001
1000
0001
1000
,  // measure 15
0100
0000
0010
0001
,  // measure 16
1000
0001
1000
0001
,  // measure 17
0100
0000
0010
0100
,  // measure 18
0001
1000
0100
0010
,  // measure 19
0100
0000
0000
0100
0000
0000
0010
0000
,  // measure 20
0000
0010
0000
0000
0001
0000
1000
0000
,  // measure 21
1001
0000
0001
0000
,  // measure 22
0100
0001
0100
0000
,  // measure 23
0001
0000
1000
0000
,  // measure 24
0100
1000
0001
0100
,  // measure 25
0010
0000
0100
0000
,  // measure 26
0010
0100
0010
0000
,  // measure 27
1000
0000
0001
0000
,  // measure 28
1000
0100
0010
0001
,  // measure 29
1002
0100
0000
1000
,  // measure 30
0000
0010
0000
1003
,  // measure 31
2000
0010
0000
0001
,  // measure 32
0000
0100
0000
3001
,  // measure 33
0002
0010
0000
1000
,  // measure 34
0000
0100
0000
1003
,  // measure 35
2000
0010
0000
3001
,  // measure 36
0220
0000
0000
0330
,  // measure 37
2002
0000
3003
0000
,  // measure 38
0001
0100
0010
0100
,  // measure 39
0001
0000
1000
0100
,  // measure 40
0010
0001
0100
0010
,  // measure 41
1000
0000
0010
1000
,  // measure 42
0001
1000
0100
0010
,  // measure 43
0100
0000
0000
0010
0000
0000
0100
0000
,  // measure 44
0000
0010
0000
0000
0001
0000
1000
0000
,  // measure 45
0001
0000
0000
1000
0000
0000
0001
0000
,  // measure 46
0000
1000
0000
0000
1001
0000
1001
0000
,  // measure 47
1001
0000
0001
0000
,  // measure 48
0100
0000
0001
0100
,  // measure 49
0001
0000
1000
0000
,  // measure 50
0001
0000
1000
0100
,  // measure 51
1000
0000
0100
0000
,  // measure 52
0010
0000
0100
0010
,  // measure 53
0100
0000
0010
0000
,  // measure 54
0001
1000
0001
1000
,  // measure 55
0001
0100
0010
1000
,  // measure 56
0100
0000
0010
0100
,  // measure 57
1000
0100
0010
0001
,  // measure 58
0100
0000
0010
0100
,  // measure 59
0001
1000
0100
0010
,  // measure 60
0001
0000
1000
0010
,  // measure 61
1000
0010
0100
0001
,  // measure 62
0100
0000
0001
0100
,  // measure 63
0001
0010
0001
0010
,  // measure 64
0100
1000
0100
1000
,  // measure 65
0010
1000
0010
1000
,  // measure 66
0001
0100
0001
0100
,  // measure 67
0010
1000
0100
0001
,  // measure 68
0100
1000
0010
0100
,  // measure 69
0001
0010
1000
0010
,  // measure 70
0001
0100
0010
1000
,  // measure 71
2002
0000
0000
0000
,  // measure 72
0000
0000
0000
0000
,  // measure 73
0000
0000
0000
0000
,  // measure 74
3003
0000
0000
0000
;

//---------------dance-single - ----------------
#NOTES:
     dance-single:
     :
     Beginner:
     2:
     0.155,0.266,0.100,0.018,0.000: // measure 1
1001
0000
0000
0000
,  // measure 2
0000
0000
0000
0000
,  // measure 3
0000
0000
0000
0000
,  // measure 4
0000
0000
0000
0000
,  // measure 5
1001
0000
0000
0000
,  // measure 6
0001
0000
0100
0000
,  // measure 7
0001
0000
0000
0000
,  // measure 8
1000
0000
0100
0000
,  // measure 9
1000
0000
0000
0000
,  // measure 10
0001
0000
0010
0000
,  // measure 11
0100
0000
0000
0000
,  // measure 12
0000
0000
0000
0000
,  // measure 13
1001
0000
0000
0000
,  // measure 14
1000
0000
0010
0000
,  // measure 15
0100
0000
0000
0000
,  // measure 16
0001
0000
0010
0000
,  // measure 17
0100
0000
0000
0000
,  // measure 18
0010
0000
0001
0000
,  // measure 19
1000
0000
0000
0000
,  // measure 20
0000
0000
0000
0000
,  // measure 21
1001
0000
0000
0000
,  // measure 22
0001
0000
0001
0000
,  // measure 23
0001
0000
0000
0000
,  // measure 24
0100
0000
0100
0000
,  // measure 25
0100
0000
0000
0000
,  // measure 26
0010
0000
0010
0000
,  // measure 27
0010
0000
0000
0000
,  // measure 28
1001
0000
0000
0000
,  // measure 29
0110
0000
0010
0000
,  // measure 30
1000
0000
0001
0000
,  // measure 31
1000
0000
0100
0000
,  // measure 32
0010
0000
0001
0000
,  // measure 33
1000
0000
0010
0000
,  // measure 34
0100
0000
0010
0000
,  // measure 35
1000
0000
0001
0001
,  // measure 36
0001
0000
0000
0000
,  // measure 37
1001
0000
0000
0000
,  // measure 38
1000
0000
0100
0000
,  // measure 39
1000
0000
0000
0000
,  // measure 40
0001
0000
0010
0000
,  // measure 41
0001
0000
0000
0000
,  // measure 42
1000
0000
0001
0000
,  // measure 43
1001
0000
0000
0000
,  // measure 44
0000
0000
0000
0000
,  // measure 45
0110
0000
0000
0000
,  // measure 46
0000
0000
0000
0000
,  // measure 47
1001
0000
0000
0000
,  // measure 48
1000
0000
0100
0000
,  // measure 49
1000
0000
0000
0000
,  // measure 50
0001
0000
0100
0000
,  // measure 51
0001
0000
0000
0000
,  // measure 52
1000
0000
0001
0000
,  // measure 53
1000
0000
0000
0000
,  // measure 54
0001
0000
0010
0000
,  // measure 55
0001
0000
1000
0000
,  // measure 56
0001
0000
0100
0000
,  // measure 57
0010
0000
0100
0000
,  // measure 58
0001
0000
1000
0000
,  // measure 59
0100
0000
1000
0000
,  // measure 60
0001
0000
0010
0000
,  // measure 61
0100
0000
0010
0000
,  // measure 62
0001
0000
1000
0000
,  // measure 63
0001
0000
0001
0000
,  // measure 64
0100
0000
0100
0000
,  // measure 65
0010
0000
0010
0000
,  // measure 66
1000
0000
1000
0000
,  // measure 67
0100
0000
0100
0000
,  // measure 68
0010
0000
0010
0000
,  // measure 69
0100
0000
0100
0000
,  // measure 70
1000
1000
0001
0001
,  // measure 71
2002
0000
0000
0000
,  // measure 72
0000
0000
0000
0000
,  // measure 73
0000
0000
0000
0000
,  // measure 74
3003
0000
0000
0000
;
