#TITLE:FREAK ;
#SUBTITLE:;
#ARTIST:MEG;
#TITLETRANSLIT:;
#SUBTITLETRANSLIT:;
#ARTISTTRANSLIT:;
#GENRE:Electro;
#CREDIT:Frozen_Heat/Azn_Punk_07/GuardianFrozen;
#MENUCOLOR:#58369e;
#METERTYPE:DDR;
#BANNER:FREAK yasutaka nakata remix-bn.png;
#BACKGROUND:FREAK yasutaka nakata remix-bg.png;
#LYRICSPATH:FREAK yasutaka nakata remix.lrc;
#CDTITLE:!cdtitle.png;
#MUSIC:FREAK yasutaka nakata remix.mp3;
#OFFSET:-0.064;
#SAMPLESTART:13.619;
#SAMPLELENGTH:23.762;
#SELECTABLE:YES;
#LISTSORT:;
#BPMS:0.000=140.980;
#STOPS:;
#BGCHANGES:;
#ATTACKS:;

//---------------dance-single - ----------------
#NOTES:
     dance-single:
     :
     Hard:
     7:
     0.427,0.466,0.223,0.261,0.000: // measure 1
0000
0000
0000
0000
,  // measure 2
0000
0000
0000
0000
,  // measure 3
0000
0000
0000
0000
,  // measure 4
0000
0000
0000
0000
,  // measure 5
0000
0000
0000
0000
,  // measure 6
0000
0000
0000
0000
,  // measure 7
0000
0000
0000
0000
,  // measure 8
0001
0010
0001
0010
0100
1000
0100
1000
,  // measure 9
0001
0000
0010
0000
0001
0100
0001
0000
,  // measure 10
1000
0001
1000
0000
0010
1000
0100
0000
,  // measure 11
1000
0100
0010
0000
0001
0100
0010
0000
,  // measure 12
1000
0100
0010
0000
0001
0100
0010
0000
,  // measure 13
1000
0001
1000
0001
0010
0001
1000
0000
,  // measure 14
0001
0100
0001
0000
1000
0010
0100
0000
,  // measure 15
0010
0000
0110
0000
0001
0010
0000
0010
,  // measure 16
0000
0100
1100
1000
,  // measure 17
1001
0000
0000
0000
,  // measure 18
0100
0000
0000
0000
,  // measure 19
0010
0000
0000
0000
0000
0000
0000
1000
,  // measure 20
0000
0000
0000
0000
0000
0001
0010
0000
,  // measure 21
0001
0000
0100
0010
0010
0000
1000
0000
,  // measure 22
0100
0000
1000
0001
0000
0100
0001
0000
,  // measure 23
1000
0000
0010
0100
0100
0000
0001
0000
,  // measure 24
1000
0100
1000
1000
0001
0100
0010
0000
,  // measure 25
0110
0000
0001
1000
0001
0000
0100
0000
,  // measure 26
0001
0000
1000
0100
0000
0100
1000
0000
,  // measure 27
0010
0000
0100
0001
0100
0000
0010
0000
,  // measure 28
1000
0000
0001
0010
0000
0010
0001
0000
,  // measure 29
0110
0000
0101
0000
0110
0000
0010
1000
,  // measure 30
0100
0000
1100
0000
0110
0000
1000
0001
,  // measure 31
1000
0010
0100
0000
0001
0010
0100
1000
,  // measure 32
0002
0000
0203
0000
0320
0000
1030
0100
,  // measure 33
0010
0000
0001
0100
0010
0000
1000
0100
,  // measure 34
0010
0000
0001
0100
0010
0000
1000
0000
,  // measure 35
1000
0000
0010
0100
0000
0100
0000
0001
,  // measure 36
0100
0001
0000
1000
0100
1000
0001
0010
,  // measure 37
0100
0000
1000
0010
0100
0000
0001
0010
,  // measure 38
0100
0000
1000
0010
0100
0000
0001
0000
,  // measure 39
0001
0000
1000
0010
0000
0010
0000
0100
,  // measure 40
0010
0100
0000
0001
1000
0001
0000
0000
,  // measure 41
1100
1001
0100
0010
,  // measure 42
0101
0110
1000
0001
,  // measure 43
0011
0110
1000
0001
,  // measure 44
1010
0000
1001
0000
0100
0000
0001
0010
,  // measure 45
0011
0000
1001
0000
0100
0000
0010
1000
,  // measure 46
1100
0000
0110
0000
0010
0000
0001
1000
,  // measure 47
1001
0000
0101
0000
0010
0000
1000
0001
,  // measure 48
2002
0000
3003
0000
0001
0010
0100
1000
,  // measure 49
0002
0203
0320
2030
,  // measure 50
3200
0302
0023
2030
,  // measure 51
3002
0203
2300
3200
,  // measure 52
0320
2030
3002
0203
,  // measure 53
0302
0023
2030
3200
,  // measure 54
0302
0203
0320
2030
,  // measure 55
3200
0302
0203
0320
,  // measure 56
0031
1000
0002
0000
0000
0000
0003
0000
,  // measure 57
1000
0100
0010
0000
0001
0100
0010
0000
,  // measure 58
1000
0100
0010
0000
0001
0100
0010
0000
,  // measure 59
0010
1000
0100
1000
0010
0100
0001
0000
,  // measure 60
1000
0100
0010
0001
0010
0100
1000
0000
,  // measure 61
0001
0010
0100
0000
1000
0010
0100
0000
,  // measure 62
0001
0010
0100
0000
1000
0010
0100
0000
,  // measure 63
0100
0010
1000
0100
0010
0001
1000
0000
,  // measure 64
0001
0100
0001
1000
0100
0010
0001
0000
,  // measure 65
1000
0010
0100
0001
0000
0100
0000
0010
,  // measure 66
1000
0100
0010
0000
0100
0000
1000
0000
,  // measure 67
0001
0100
0010
1000
0000
0001
0000
1000
,  // measure 68
0100
0010
0100
0000
1000
0000
0001
0000
,  // measure 69
0110
0000
1010
0000
0110
0000
0100
0001
,  // measure 70
0010
0110
0011
0100
,  // measure 71
1000
0001
0100
0001
0000
1000
0000
0001
,  // measure 72
0010
0100
1000
0000
0000
0000
0000
0000
;

//---------------dance-single - LIFTS----------------
#NOTES:
     dance-single:
     LIFTS:
     Edit:
     8:
     0.526,0.685,0.661,0.123,0.023: // measure 1
0000
0000
0000
0000
,  // measure 2
0000
0000
0000
0000
,  // measure 3
0002
0203
0320
2030
,  // measure 4
3200
0320
0032
2003
,  // measure 5
3002
0003
0000
0000
,  // measure 6
0000
0000
0000
0000
,  // measure 7
0001
1000
0010
0000
1000
0001
0010
0000
,  // measure 8
1000
1000
0001
0001
0100
0100
0010
0010
,  // measure 9
1000
0000
0100
0000
1000
0000
0001
0000
0100
0000
0010
0100
0000
0000
0000
0000
,  // measure 10
0001
0000
1000
0010
0000
0100
0010
0000
0100
0000
0001
0000
1000
0000
0000
0000
,  // measure 11
0100
0L00
00L1
0000
0100
0L00
10L0
0000
,  // measure 12
0001
000L
01L0
0000
1000
L000
01L0
0000
,  // measure 13
0001
0000
0010
0000
0100
0000
0010
0000
0001
0000
1000
0010
0000
0000
0000
0000
,  // measure 14
0100
0000
0001
1000
0000
1000
0001
0000
0010
0000
0100
0000
1000
0000
0000
0000
,  // measure 15
0001
0000
1000
0000
0010
0010
0000
0100
,  // measure 16
0000
0110
0001
1000
,  // measure 17
L001
0000
0000
0000
,  // measure 18
000L
0000
0000
0000
,  // measure 19
00L0
0000
0000
0000
0000
0000
0000
0L00
,  // measure 20
0000
0000
0000
0000
0000
L000
01L0
0000
,  // measure 21
0001
0000
1000
0100
1000
0000
0010
0000
,  // measure 22
0100
0000
0001
0010
000L
0000
0100
0000
,  // measure 23
1000
0000
0010
1000
0010
0000
0100
0000
,  // measure 24
0001
1000
0001
1000
0100
0010
0100
0010
,  // measure 25
0001
200L
00L0
300L
,  // measure 26
0100
0000
0010
0001
00L0
1000
0010
0000
,  // measure 27
1000
L002
0L00
L003
,  // measure 28
0100
0000
0010
1000
00L0
0001
0010
0100
,  // measure 29
1000
0000
1100
0000
1001
0000
0001
0100
,  // measure 30
0101
1001
0100
0010
,  // measure 31
1000
0000
0100
0000
0010
0001
1000
0001
,  // measure 32
0200
0000
0320
0000
2030
0000
3001
000L
,  // measure 33
0L10
0000
1000
L000
0L10
0000
0001
000L
,  // measure 34
01L0
0000
1000
L000
01L0
0000
0001
0000
,  // measure 35
1000
0001
1000
0010
0100
0001
1000
0000
,  // measure 36
0100
0000
0110
0000
0010
0001
1000
L000
,  // measure 37
01L0
0000
0001
000L
01L0
0000
1000
L000
,  // measure 38
0L10
0000
0001
000L
0L10
0000
1000
0000
,  // measure 39
0001
0010
0001
0100
0010
1000
0100
0000
,  // measure 40
0010
0001
1000
0010
0100
0001
0010
0100
,  // measure 41
1100
0000
1100
0010
0001
0000
1000
0001
,  // measure 42
0101
0000
0101
0000
0010
0000
0100
0010
,  // measure 43
1010
0000
1010
0100
0001
0000
1000
0100
,  // measure 44
0011
0000
0011
0000
0100
0000
1000
0010
,  // measure 45
1001
0000
1001
0100
0001
0000
0001
0010
,  // measure 46
1001
0000
1001
0000
0100
0000
0001
1000
,  // measure 47
0110
0000
0110
0000
0110
0000
0100
0001
,  // measure 48
0110
0000
0110
0000
1000
0100
0010
0001
,  // measure 49
1000
L000
00L1
000L
10L0
L000
0L01
000L
,  // measure 50
1L00
L000
00L1
000L
10L0
L000
0L01
000L
,  // measure 51
1L00
L000
01L0
0L00
100L
L000
0L10
00L0
,  // measure 52
100L
L000
01L0
0L00
100L
L000
100L
0000
,  // measure 53
0001
010L
0L00
L100
0L00
001L
00L0
L010
,  // measure 54
00L0
010L
0L00
L100
0L00
001L
00L0
L010
,  // measure 55
00L0
010L
0L00
10L0
L000
001L
00L0
1L00
,  // measure 56
L000
010L
0L20
0000
0000
0000
0030
0000
,  // measure 57
0000
L000
0L10
0000
0000
000L
0L10
0000
,  // measure 58
0000
L000
01L0
0000
0000
000L
01L0
0000
,  // measure 59
1000
L000
00L0
0L00
000L
L000
0L00
00L1
,  // measure 60
000L
L000
00L0
0L00
000L
L001
100L
0000
,  // measure 61
0000
000L
01L0
0000
0000
L000
01L0
0000
,  // measure 62
0000
000L
0L10
0000
0000
L000
0L10
0000
,  // measure 63
0001
000L
0L00
00L0
L000
000L
00L0
1L00
,  // measure 64
L000
000L
0L00
00L0
L000
100L
L001
0010
,  // measure 65
0001
0100
0001
0010
0000
0010
0000
0010
,  // measure 66
0100
1000
0001
0000
0000
0000
0000
0000
,  // measure 67
1000
0010
1000
0100
0000
0100
0000
0100
,  // measure 68
0010
0001
1000
0000
0000
0000
0000
0000
,  // measure 69
0101
0000
1010
0000
0101
0000
1000
0100
,  // measure 70
0020
0L00
0000
0130
,  // measure 71
1000
0001
1000
0001
0000
1001
0000
0100
,  // measure 72
0010
0L00
00L0
0000
0000
0000
0000
0000
;

//---------------dance-single - ----------------
#NOTES:
     dance-single:
     :
     Medium:
     5:
     0.334,0.466,0.062,0.323,0.000: // measure 1
0000
0000
0000
0000
,  // measure 2
0000
0000
0000
0000
,  // measure 3
0000
0000
0000
0000
,  // measure 4
0000
0000
0000
0000
,  // measure 5
0000
0000
0000
0000
,  // measure 6
0000
0000
0000
0000
,  // measure 7
0000
0000
0000
0000
,  // measure 8
0000
0000
0000
0000
,  // measure 9
1000
0000
1000
0000
0100
0010
0100
0000
,  // measure 10
1000
0001
1000
0000
0010
0100
0010
0000
,  // measure 11
0000
1000
0100
0000
0000
0100
0010
0000
,  // measure 12
0000
0010
0001
0000
0000
0001
1000
0000
,  // measure 13
0001
0000
0001
0000
0100
0010
0100
0000
,  // measure 14
0001
1000
0001
0000
0010
0100
0010
0000
,  // measure 15
0001
0000
0001
0000
1000
0001
0000
0001
,  // measure 16
0000
1000
0100
0010
,  // measure 17
0001
0000
0000
0000
,  // measure 18
1000
0000
0000
0000
,  // measure 19
0100
0000
0000
0000
0000
0000
0000
0010
,  // measure 20
0000
0000
0000
0001
,  // measure 21
0001
0100
0010
0100
,  // measure 22
0001
0000
1000
0000
0100
0010
0100
0000
,  // measure 23
1000
0010
0100
0010
,  // measure 24
1000
0100
1000
0000
0001
0100
0001
0000
,  // measure 25
1000
2002
0000
0000
,  // measure 26
0000
0000
0000
0000
3003
0000
0010
0100
,  // measure 27
0010
0200
0000
0020
0000
0000
0000
0330
,  // measure 28
0000
0001
0010
0100
1000
0000
0001
0000
,  // measure 29
1001
0000
1001
0000
1001
0000
1000
0001
,  // measure 30
2002
0000
0000
3003
,  // measure 31
1000
0000
0001
0000
1000
0001
1000
0001
,  // measure 32
2000
3200
0320
0032
,  // measure 33
1003
0000
0000
1000
0100
0000
0000
0100
,  // measure 34
0010
0000
0000
0010
0001
0000
0100
0000
,  // measure 35
0001
1000
0000
0001
0000
0000
0100
0000
,  // measure 36
0110
0100
0001
1000
,  // measure 37
0001
0000
0000
0001
0010
0000
0000
0010
,  // measure 38
0100
0000
0000
0100
1000
0000
0001
0000
,  // measure 39
1000
0001
0000
1000
0000
0000
0010
0000
,  // measure 40
0110
0010
0100
0100
,  // measure 41
0002
0010
0100
1000
,  // measure 42
0023
0001
0100
1000
,  // measure 43
0230
0010
1000
0001
,  // measure 44
2300
0100
0001
0010
,  // measure 45
3002
1000
0100
0010
,  // measure 46
2003
0100
0010
0001
,  // measure 47
3200
0010
0001
1000
,  // measure 48
0320
0001
1000
0100
,  // measure 49
0032
0203
2300
3200
,  // measure 50
0302
0023
0230
0320
,  // measure 51
0032
0203
2300
3200
,  // measure 52
0302
0023
0230
0300
,  // measure 53
2000
3020
0032
0023
,  // measure 54
2030
3200
0320
0230
,  // measure 55
2300
3010
0100
0001
,  // measure 56
1000
0001
1000
0000
0000
0000
0000
0000
,  // measure 57
0000
0001
0100
0000
0000
0100
0010
0000
,  // measure 58
0000
0010
1000
0000
0000
1000
0100
0000
,  // measure 59
0010
0001
0010
0000
0100
1000
0100
0000
,  // measure 60
1000
0010
1000
0000
0001
0100
0001
0000
,  // measure 61
0000
1000
0010
0000
0000
0010
0100
0000
,  // measure 62
0000
0100
0001
0000
0000
0001
1000
0000
,  // measure 63
0001
0010
0001
0000
1000
0100
1000
0000
,  // measure 64
0010
1000
0010
0000
0100
0001
0100
0000
,  // measure 65
0010
0000
0010
1000
0000
1000
0000
0001
,  // measure 66
0010
0010
0000
0000
,  // measure 67
0100
0000
0100
1000
0000
1000
0000
0001
,  // measure 68
0100
0100
0000
0000
,  // measure 69
0010
0000
0010
0000
0010
0000
0010
1000
,  // measure 70
0100
0100
0100
0100
,  // measure 71
0100
0000
0010
0001
0000
1000
0000
0001
,  // measure 72
0100
0110
0000
0000
;

//---------------dance-single - ----------------
#NOTES:
     dance-single:
     :
     Beginner:
     1:
     0.094,0.164,0.100,0.000,0.000: // measure 1
0000
0000
0000
0000
,  // measure 2
0000
0000
0000
0000
,  // measure 3
0000
0000
0000
0000
,  // measure 4
0000
0000
0000
0000
,  // measure 5
0000
0000
0000
0000
,  // measure 6
0000
0000
0000
0000
,  // measure 7
0000
0000
0000
0000
,  // measure 8
0000
0000
0000
0000
,  // measure 9
1000
0000
0000
0000
,  // measure 10
0001
0000
0000
0000
,  // measure 11
1000
0000
0000
0000
,  // measure 12
0001
0000
0000
0000
,  // measure 13
0010
0000
0000
0000
,  // measure 14
0100
0000
0000
0000
,  // measure 15
0010
0000
0000
0000
,  // measure 16
0100
0000
0000
0000
,  // measure 17
1000
0000
0000
0000
,  // measure 18
0000
0000
0000
0000
,  // measure 19
0001
0000
0000
0000
,  // measure 20
0000
0000
0000
0000
,  // measure 21
1000
1000
0000
0000
,  // measure 22
0010
0000
0000
0000
,  // measure 23
0001
0001
0000
0000
,  // measure 24
0010
0000
0000
0000
,  // measure 25
0100
0100
0000
0000
,  // measure 26
0000
0000
0000
0000
,  // measure 27
0010
0010
0000
0000
,  // measure 28
0000
0000
0000
0000
,  // measure 29
1000
0000
0000
0000
,  // measure 30
0001
0000
0000
0000
,  // measure 31
1000
0000
0001
0000
,  // measure 32
1001
0000
0000
0000
,  // measure 33
0010
0000
0010
0000
,  // measure 34
0100
0000
0100
0000
,  // measure 35
0000
0000
0000
0000
,  // measure 36
0000
0000
0000
0000
,  // measure 37
1000
0000
1000
0000
,  // measure 38
0001
0000
0001
0000
,  // measure 39
0000
0000
0000
0000
,  // measure 40
0000
0000
0000
0000
,  // measure 41
1001
0000
0000
0000
,  // measure 42
1001
0000
0000
0000
,  // measure 43
0110
0000
0000
0000
,  // measure 44
0110
0000
0000
0000
,  // measure 45
1001
0000
0000
0000
,  // measure 46
1001
0000
0000
0000
,  // measure 47
0110
0000
0000
0000
,  // measure 48
0110
0000
0000
0000
,  // measure 49
0001
0000
0001
0000
,  // measure 50
1000
0000
1000
0000
,  // measure 51
0001
0000
0001
0000
,  // measure 52
1000
0000
0000
0000
,  // measure 53
0010
0000
0010
0000
,  // measure 54
0100
0000
0100
0000
,  // measure 55
0010
0000
0010
0000
,  // measure 56
0100
0000
0000
0000
,  // measure 57
0001
0000
0000
0000
,  // measure 58
1000
0000
0000
0000
,  // measure 59
0001
0000
0001
0000
,  // measure 60
1000
0000
0000
0000
,  // measure 61
0100
0000
0000
0000
,  // measure 62
0010
0000
0000
0000
,  // measure 63
0100
0000
0100
0000
,  // measure 64
0010
0000
0000
0000
,  // measure 65
0001
0000
0000
0000
,  // measure 66
1001
0000
0000
0000
,  // measure 67
1000
0000
0000
0000
,  // measure 68
1001
0000
0000
0000
,  // measure 69
0100
0000
0000
0000
,  // measure 70
0110
0000
0000
0000
,  // measure 71
0010
0000
0000
0000
,  // measure 72
0110
0000
0000
0000
;

//---------------dance-single - ----------------
#NOTES:
     dance-single:
     :
     Easy:
     3:
     0.277,0.466,0.215,0.361,0.000: // measure 1
0000
0000
0000
0000
,  // measure 2
0000
0000
0000
0000
,  // measure 3
0000
0000
0000
0000
,  // measure 4
0000
0000
0000
0000
,  // measure 5
0000
0000
0000
0000
,  // measure 6
0000
0000
0000
0000
,  // measure 7
0000
0000
0000
0000
,  // measure 8
0000
0000
0000
0000
,  // measure 9
1000
0100
0010
0000
,  // measure 10
0001
0100
0010
0000
,  // measure 11
1000
0010
0001
0010
,  // measure 12
1000
0010
0001
0010
,  // measure 13
1000
0100
0010
0000
,  // measure 14
0001
0100
0010
0000
,  // measure 15
1000
0100
0010
0001
,  // measure 16
1000
0000
0001
0000
,  // measure 17
2002
0000
0000
0000
,  // measure 18
3003
0000
0000
0000
,  // measure 19
0200
0000
0000
0000
0000
0000
0000
0300
,  // measure 20
0000
0000
0000
0000
,  // measure 21
0001
0001
0000
1000
,  // measure 22
0000
0100
0000
0010
,  // measure 23
0100
0100
0000
1000
,  // measure 24
0000
0001
0001
1000
,  // measure 25
1001
1001
0000
0000
,  // measure 26
0010
0000
0000
0000
,  // measure 27
0110
0110
0000
0000
,  // measure 28
0001
0000
1000
0000
,  // measure 29
1001
1001
1001
0000
,  // measure 30
0010
0000
0000
0000
,  // measure 31
0100
0100
0000
1000
,  // measure 32
1000
0100
0010
0001
,  // measure 33
2000
3020
0230
0302
,  // measure 34
2003
3020
0230
0302
,  // measure 35
0003
0000
0000
0000
,  // measure 36
0000
0000
0000
0000
,  // measure 37
0002
0023
0230
2300
,  // measure 38
3020
0230
0302
2003
,  // measure 39
3000
0000
0000
0000
,  // measure 40
0000
0000
0000
0000
,  // measure 41
1001
1001
0000
0000
,  // measure 42
0110
0110
0000
0000
,  // measure 43
1001
1001
0000
0000
,  // measure 44
0110
0110
0000
0000
,  // measure 45
1001
1001
0000
0000
,  // measure 46
0110
0110
0000
0000
,  // measure 47
1001
1001
1001
0110
,  // measure 48
1001
1001
1001
1001
,  // measure 49
0020
0230
0320
0230
,  // measure 50
0302
2003
3002
2003
,  // measure 51
3020
0230
0320
0230
,  // measure 52
0302
2003
3002
0003
,  // measure 53
2000
3002
2003
3002
,  // measure 54
0023
0230
0320
0230
,  // measure 55
2300
3002
2003
3002
,  // measure 56
0023
0030
0000
0000
,  // measure 57
1000
0100
0001
0100
,  // measure 58
1000
0100
0001
0100
,  // measure 59
1000
1000
0001
0001
,  // measure 60
0100
0100
0010
1000
,  // measure 61
0001
0010
1000
0010
,  // measure 62
0001
0010
1000
0010
,  // measure 63
0001
0001
1000
1000
,  // measure 64
0010
0010
0100
0001
,  // measure 65
1000
0100
1000
0000
,  // measure 66
0001
0100
0000
0000
,  // measure 67
0010
1000
0001
0000
,  // measure 68
1000
0010
0000
0000
,  // measure 69
0100
0100
0100
0010
,  // measure 70
0100
0100
0100
0100
,  // measure 71
0001
1000
0100
0010
,  // measure 72
0001
1000
0000
0000
;
