#TITLE:Early in the Morning;
#SUBTITLE:(we like the captain);
#ARTIST:Captain Jack;
#TITLETRANSLIT:;
#SUBTITLETRANSLIT:;
#ARTISTTRANSLIT:;
#CREDIT:;
#BANNER:EARLY IN THE MORNING (we like the captain)-bn.PNG;
#BACKGROUND:Early in the Morning (We like the Captain)-bg.PNG;
#LYRICSPATH:;
#CDTITLE:;
#MUSIC:Early in the Morning (We like the Captain).mp3;
#OFFSET:0.070;
#SAMPLESTART:64.816;
#SAMPLELENGTH:14.000;
#SELECTABLE:YES;
#BPMS:0.000=134.030;
#STOPS:;
#BGCHANGES:;

//---------------dance-single - ----------------
#NOTES:
     dance-single:
     :
     Medium:
     6:
     0.408,0.409,0.017,0.111,0.000:
0000
0000
0000
0000
,
0000
0000
0000
0000
,
0000
1000
0001
0100
,
0010
0000
1000
0001
1000
0001
2000
0000
,
3020
0000
1030
0000
0001
0000
1000
0010
,
1000
0000
0001
0000
1000
0000
0100
1000
,
0100
0000
0010
0000
0001
0000
0100
0010
,
1000
0000
0001
0001
1000
0000
0020
0000
,
1030
0000
1001
0000
0000
1000
1000
0000
,
0000
0001
0001
0000
0000
0100
0100
0000
,
0000
0010
0010
0000
0000
1000
1000
0000
,
0000
0000
0001
1000
0001
1000
0001
0000
,
1000
0000
0010
0000
0000
1000
1000
0000
,
0000
0100
0100
0000
0000
0010
0010
0000
,
0000
0001
0001
0000
0000
0100
0100
0000
,
0000
0010
0010
0000
1000
0000
0001
0000
,
0100
0000
2010
0000
3010
0000
0100
0001
,
0100
0000
0020
0000
1030
0000
0100
0010
,
0100
0000
0020
0000
0031
0000
0100
0010
,
0100
0000
1000
0001
1000
0000
0010
0000
,
1000
0000
0001
0000
0001
0000
0100
0100
,
0100
0000
0010
0000
1000
0000
0100
0100
,
0100
0000
0010
0000
0001
0000
0100
0100
,
0100
0000
0010
1000
0010
0000
1000
0000
,
0001
0000
1000
0100
0001
0100
1000
0000
,
0010
0000
0001
0100
1000
0100
0001
0000
,
0010
0000
0001
0010
1000
0010
0001
0000
,
0100
0000
0010
1000
0010
0000
1000
0000
,
0001
0000
2000
0000
3020
0000
0130
0001
,
0100
0000
0020
0000
2030
0000
3100
0010
,
0100
0000
0020
0000
0032
0000
0103
0010
,
1000
1000
1000
0001
,
0100
0000
0010
1000
0010
1000
0010
0000
,
1000
0000
0001
0100
0001
0100
0001
0000
,
0010
0000
0100
1000
0100
1000
0100
0000
,
0010
0000
0001
1000
0001
1000
0001
0000
,
1000
0000
0010
0100
0010
0000
0100
0010
,
0100
0000
0010
1000
0010
0000
1000
0010
,
1000
0000
0001
1000
0001
0000
1000
0001
,
1000
0000
0010
0010
1000
0000
0001
0000
,
0100
0000
0010
1000
0010
0000
1000
0000
,
1000
0000
0001
0010
0001
0000
1000
0000
,
1000
0000
0001
0100
0001
0000
1000
0000
,
1000
0000
0010
0010
1000
1000
0001
0000
,
0100
0000
0010
1000
0010
0000
1000
0000
,
0001
0000
0010
0100
0010
0000
0001
0000
,
1000
0000
0010
0100
0010
0000
1000
0000
,
0001
0000
0010
0010
0100
0100
1000
0000
,
0001
0000
1000
0010
1000
0000
0001
0000
,
1000
0000
0010
0100
0010
0000
1000
0000
,
0001
0000
0010
0100
0010
0000
0001
1000
,
0001
1000
0010
1000
,
0001
0000
1000
1000
0001
0000
0100
0000
,
0010
0000
1000
1000
0100
0000
0010
0000
,
0001
0000
0100
0100
0010
0000
1000
0100
,
1000
0000
0001
0100
0001
1000
0010
0000
,
1000
0000
0001
1000
0001
0000
1000
1000
,
1000
0000
0010
0100
0010
0000
1000
1000
,
1000
0000
0100
0010
0100
0000
0010
0010
,
0010
0000
0001
0001
0100
0100
0010
0000
,
1000
0002
1003
0010
,
0100
0000
0001
1000
0001
0000
1000
0000
,
0010
0000
0100
0001
0100
0000
0010
0000
,
1000
0000
0001
0100
1000
0100
0001
0000
,
0100
0000
0000
0000
;

//---------------dance-single - ----------------
#NOTES:
     dance-single:
     :
     Easy:
     4:
     0.286,0.245,0.000,0.034,0.000:
0000
0000
0000
0000
,
0000
0000
0000
0000
,
0000
1000
0000
0001
,
0000
0100
0010
0100
,
0000
0001
1000
0001
,
1000
0010
0100
0010
,
0100
0001
0010
0100
,
1000
0001
0010
0100
,
1000
0001
1000
0001
,
1000
0100
0010
0100
,
0010
1000
0001
1000
,
0001
0100
0100
0010
,
0100
1000
0001
1000
,
0001
0010
0100
0010
,
0100
1000
0001
1000
,
0001
0100
0001
0100
,
0000
0010
1000
0010
,
1000
0001
0100
0001
,
0100
0100
1000
0100
,
1000
0001
0010
0001
,
0010
0100
1000
0001
,
1000
0001
0100
0001
,
0100
0010
1000
0010
,
1000
0100
1000
0100
,
1000
0001
0010
0001
,
0010
0100
1000
0100
,
1000
0001
0010
0001
,
0010
0100
1000
0100
,
1000
0002
0000
1003
,
0010
0200
0000
0301
,
0010
0200
0000
1300
,
0001
0100
0010
1000
,
0000
0001
1000
0001
,
1000
0001
1000
0001
,
1000
0001
0100
0010
,
1000
0001
0010
0100
,
1000
0001
1000
0001
,
1000
0010
1000
0010
,
1000
0100
0001
0100
,
0001
1000
1000
0010
,
0010
0100
0001
0100
,
0001
1000
0010
1000
,
0010
0100
0001
0100
,
0001
1000
0010
1000
,
0010
1000
0001
1000
,
0001
1000
0010
1000
,
0010
0100
0001
0100
,
0001
1000
1000
0010
,
0010
1000
0001
1000
,
0001
0100
0010
0100
,
0010
1000
0001
1000
,
0001
2000
0000
0000
,
3000
0001
0100
1000
,
0100
0001
0010
1000
,
0010
0001
0100
0010
,
1000
0001
0100
0010
,
1000
0100
0010
0100
,
0000
0010
0001
0010
,
0000
0100
1000
0100
,
0000
0010
0001
0010
,
0001
1000
0000
0001
,
1000
0010
0000
0100
,
0001
1000
0000
0100
,
0100
0010
0010
0001
,
0001
0000
0000
0000
;

//---------------dance-single - Copied from Copied f----------------
#NOTES:
     dance-single:
     Copied from Copied f:
     Hard:
     8:
     0.550,0.463,0.043,0.213,0.102:
0000
0000
0000
0000
,
0000
0000
0000
0000
,
0000
0000
1000
0001
1000
0001
1000
0000
,
0010
0000
1000
0001
0100
0010
1000
0000
,
0100
0000
0010
0001
0010
0001
0100
0000
,
0010
0000
1000
0100
0010
0001
0100
0000
,
0010
0000
1000
0100
0010
0001
0100
0000
,
0010
0000
1000
0100
0010
0001
0200
0000
,
0320
0000
1030
0001
1000
0010
0100
0010
,
1000
0000
0001
0010
0100
1000
0001
0100
,
0010
0000
1000
0100
0010
0001
0100
0010
,
1000
0100
0010
0001
0010
0001
0020
0000
,
0032
0000
1003
0010
0100
0010
1000
0010
,
0100
0000
0001
0010
0100
1000
0010
0100
,
0010
0000
1000
0100
0010
0001
0100
0010
,
1000
0100
0010
0010
0001
0001
2000
0000
,
3010
0000
1001
0000
1010
0000
1000
0100
,
0010
0001
0200
0000
0310
0000
1000
0001
,
0100
0010
2000
0000
3100
0000
0010
0001
,
0100
0010
1000
1000
0010
0010
0100
0000
,
0001
0000
1000
0100
1000
0100
1000
0100
,
1000
0100
0010
0001
0010
0001
0010
0001
,
0010
0001
0100
0010
0100
0010
0100
0010
,
0100
0010
1000
0100
0001
0100
1000
0000
,
0010
0000
1000
0100
0001
0100
1000
0010
,
0100
0001
1000
0010
0001
0010
1000
0100
,
1000
0100
1000
0010
0001
0010
1000
0100
,
0010
0001
0100
0010
0010
1000
0001
0000
,
1000
0000
0002
0000
2003
0000
3010
0100
,
0010
0100
0020
0000
2030
0000
3100
0010
,
0001
0010
0002
0000
0203
0000
0310
1000
,
0010
0100
0010
0010
1000
1000
0200
0000
,
0310
0000
0001
1000
1001
0000
1000
0010
,
1000
0001
0100
0001
0101
0000
0010
1000
,
0010
0100
0010
0100
0110
0000
0001
0010
,
0100
1000
0001
0001
0100
0100
0020
0000
,
1030
0000
0001
0100
1000
0000
1000
0100
,
0001
0100
0010
1000
0010
0000
0100
0001
,
0010
0100
1000
0100
1000
0000
0001
0100
,
0010
1000
0010
0010
1000
1000
0001
0000
,
0100
0000
0001
0010
0001
0100
0010
1000
,
0010
0000
0100
0001
0010
0100
1000
0100
,
0010
0000
0001
0100
0010
1000
0010
0100
,
0001
0010
0100
0100
1000
1000
0002
0000
,
1003
0000
0000
0000
0000
0000
0000
0000
0000
0000
0001
1000
0001
0000
0000
0000
,
0000
0000
1000
0100
1000
0000
0000
0000
0000
0000
0001
0010
0001
0000
0000
0000
,
0000
0000
1000
0001
1000
0000
0000
0000
0000
0000
0010
1000
0010
0000
0000
0000
,
0000
0000
1000
0001
1000
0000
0000
0000
0000
0000
0001
0100
0001
0000
1000
0001
,
1000
0000
0000
0000
0001
0000
1000
0000
0010
0000
0000
0010
1000
0000
0001
0000
,
0100
0000
0010
0000
1000
0000
0100
0000
0010
0000
0000
0010
0001
0000
0001
0000
,
1000
0000
0010
0000
0100
0000
0010
0000
1000
0000
0000
1000
0010
0000
0100
0000
,
0001
0100
0010
1000
0100
0010
0002
0000
,
2003
0000
3020
0000
0230
0000
0301
0010
,
0100
0010
0200
0000
2300
0000
3010
0100
,
0010
0100
0020
0000
2030
0000
3001
0100
,
0010
1000
0100
0100
0010
0010
0002
0000
,
0103
0000
0000
0000
0010
0000
0000
0000
1000
0000
0001
1000
0001
0000
0000
0000
,
1000
0000
0010
1000
0010
0000
0000
0000
0100
0000
0001
0100
0001
0000
0000
0000
,
1000
0000
0010
1000
0010
0000
0000
0000
0100
0000
0001
0010
0100
0000
0000
0000
,
1000
0100
0010
0001
0010
0100
1000
1000
,
0001
0000
0001
0000
1000
0000
0010
0000
1000
0000
0000
0010
1000
0000
0010
0000
,
0100
0000
0000
0100
0001
0000
0100
0000
0010
0000
0000
0010
1000
0000
0010
0000
,
0100
0000
0000
0001
0100
0000
0010
0000
1000
0000
0000
1000
0001
0000
0100
0000
,
0010
0000
0000
1000
0010
0000
0100
0000
0001
0000
0000
0001
0100
0000
0000
0100
,
0010
0000
0000
0000
;

//---------------dance-single - Copied from Copied f----------------
#NOTES:
     dance-single:
     Copied from Copied f:
     Challenge:
     9:
     0.654,0.602,0.111,0.281,0.298:
0000
0000
0000
0000
,
0000
0000
0000
0000
,
0000
0000
0000
0000
,
0000
0000
0000
0000
,
0000
0000
0000
0000
1000
0000
0001
0000
1000
0000
0100
0010
0100
0000
1000
0000
,
0001
0000
1000
0000
0001
0000
0010
0000
0001
0000
1000
0100
0010
0000
0001
0000
,
0100
0000
0010
0000
1000
0000
0010
0000
0100
0000
0001
0010
0100
0000
1000
0000
,
0001
0100
0010
1000
0100
0010
0110
0000
,
0011
0000
0000
0000
0001
0000
0010
0000
0100
0000
1000
0010
1000
0000
0100
0000
,
0010
0000
0001
0100
0001
0000
0010
0000
0100
0000
1000
0001
1000
0000
0010
0000
,
0100
0000
0001
0100
0010
0000
1000
0000
0010
0000
0100
0001
0100
0000
0010
0000
,
1000
0000
0100
0010
0001
0000
0010
0000
0100
0000
1000
0010
1000
0000
0100
0010
,
0001
0000
0100
0000
0010
0000
1000
0000
0100
0000
0010
0001
0010
0000
0100
0000
,
1000
0000
0010
1000
0010
0000
0100
0000
0001
0000
0010
0100
1000
0000
0010
0000
,
1000
0000
0001
0100
0001
0000
0010
0000
0100
0000
1000
0010
1000
0000
0001
0000
,
0100
0000
0001
0010
0100
0000
1000
0000
0001
0000
0100
0000
0101
0000
0000
0000
,
0110
0000
2010
0000
3100
0000
0010
0001
,
0100
0010
2000
0000
3002
0000
0013
1000
,
0010
0001
0200
0000
0320
0000
1030
0100
,
0001
0100
1000
0010
0100
0001
0200
0000
,
0320
0000
0000
0000
1030
0000
0000
0000
0000
0000
0100
0010
0100
0000
0000
0000
,
0000
0000
0010
0001
0010
0000
0000
0000
0000
0000
0100
0010
0100
0000
0000
0000
,
0000
0000
1000
0010
1000
0000
0000
0000
0000
0000
0001
0100
0001
0000
0000
0000
,
0000
0000
1000
0100
0010
0000
0001
0000
0100
0000
0010
1000
0010
0000
0100
0001
,
0100
0000
0010
0000
1000
0000
0001
0010
0100
0000
1000
0100
0010
0000
0001
0000
,
0100
0000
0010
0000
1000
0000
0100
0010
0001
0000
0010
0100
1000
0000
0010
0000
,
0100
0000
0001
0000
0100
0000
0010
1000
0100
0000
0010
0001
0010
0000
0100
0000
,
1000
0010
0100
0001
1000
0001
1001
0000
,
1100
0000
0020
0000
0032
0000
0103
1000
,
0100
0001
0020
0000
2030
0000
3010
0001
,
0100
0010
2000
0000
3200
0000
0310
0001
,
0100
0010
1000
0010
0100
0001
0020
0000
,
0230
0000
0000
0000
1300
0000
0001
0010
0001
0000
1000
0010
1000
0000
0001
0000
,
0100
0000
0010
0000
1000
0000
0001
0010
0001
0000
1000
0010
1000
0000
0001
0000
,
0100
0000
0010
0000
1000
0000
0010
0100
0001
0000
0100
0010
1000
0000
0100
0000
,
0010
0001
0010
0100
1000
0010
1010
0000
,
0110
0000
0200
0000
0302
0000
0013
0100
,
1000
0100
0020
0000
0032
0000
0103
0010
,
1000
0100
0020
0000
0032
0000
0013
0100
,
1000
0001
1000
0100
0010
0001
0011
0000
,
0110
0000
0000
0000
0010
0000
0100
0000
1000
0000
0100
0010
0001
0000
0100
0000
,
0010
0000
1000
0010
0100
0000
0001
0000
0010
0000
0100
1000
0100
0000
0010
0000
,
0001
0000
0100
0010
1000
0000
0010
0000
0100
0000
0001
0100
0010
0000
1000
0000
,
0100
0000
0010
0001
0100
0000
0010
0000
1000
0000
0010
0100
0001
0000
0010
0100
,
1000
0000
0100
0000
0010
0000
0001
0000
0100
0000
0010
1000
0010
0000
0100
0000
,
0001
0000
0010
0100
1000
0000
0001
0000
0100
0000
0010
1000
0010
0000
0100
0000
,
0001
0000
0010
0100
1000
0000
0010
0000
1000
0000
0001
1000
0001
0000
1000
0000
,
0010
0000
1000
0010
0100
0000
0001
0000
0100
0000
0010
1000
0100
0000
0010
0001
,
0100
0000
0010
0000
1000
0000
0100
0000
0010
0000
0000
0010
0001
0000
0100
0000
,
1000
0000
0100
0000
0001
0000
0010
0000
1000
0000
0000
1000
0010
0000
0001
0000
,
0100
0000
0010
0000
1000
0000
0100
0000
0010
0000
0000
0010
0001
0000
0100
0000
,
0010
1000
0010
0100
0001
0010
0200
0000
,
2300
0000
3020
0000
0230
0000
0301
0010
,
0100
1000
0200
0000
0320
0000
0031
0100
,
0010
1000
0020
0000
0230
0000
0301
0010
,
0100
1000
0010
0100
0001
0010
0200
0000
,
2300
0000
0000
0000
3010
0000
0100
0000
0001
0000
0010
0100
1000
0000
0100
0000
,
0010
0000
0001
0100
0001
0000
1000
0000
0010
0000
1000
0100
0010
0000
0001
0000
,
0100
0000
0010
1000
0010
0000
0100
0000
0001
0000
0010
0100
1000
0000
0100
0000
,
0010
0000
0001
0100
0010
0000
1000
0000
0010
0000
0100
0001
0010
0000
0100
1000
,
0100
0000
0010
0000
0001
0000
0100
0000
0010
0000
1000
0100
0010
0000
0001
0000
,
0100
0000
0010
1000
0010
0000
0100
0000
0001
0000
0010
0100
1000
0000
0010
0000
,
0100
0000
0001
0100
0010
0000
1000
0000
0010
0000
0100
0001
0100
0000
0010
0000
,
1000
0000
0100
0010
0001
0000
1000
0000
0001
0000
0010
0000
0011
0000
0000
0000
,
2002
3003
0000
0000
;

//---------------dance-single - Copied from----------------
#NOTES:
     dance-single:
     Copied from:
     Beginner:
     2:
     0.180,0.217,0.034,0.034,0.000: // measure 1
0000
0000
0000
0000
,  // measure 2
0000
0000
0000
0000
,  // measure 3
0000
0000
0000
0000
,  // measure 4
0000
0000
0000
0000
,  // measure 5
0000
1000
0000
0001
,  // measure 6
0000
1000
0000
0001
,  // measure 7
0000
1000
0000
0001
,  // measure 8
0000
1000
0000
0001
,  // measure 9
0000
1000
0000
1000
,  // measure 10
0000
0001
0000
0001
,  // measure 11
0000
0010
0000
0010
,  // measure 12
0000
0100
0100
0100
,  // measure 13
0000
1000
0000
0001
,  // measure 14
0000
1000
0000
0001
,  // measure 15
0000
1000
0000
1000
,  // measure 16
0000
0001
0000
1000
,  // measure 17
0000
1001
0000
1000
,  // measure 18
1000
1000
0000
0010
,  // measure 19
0010
0010
0000
0100
,  // measure 20
0000
0001
0000
1000
,  // measure 21
1000
0001
0000
1000
,  // measure 22
0000
0010
0010
1000
,  // measure 23
0000
0001
0001
0100
,  // measure 24
0000
1000
0000
0001
,  // measure 25
0000
0100
0100
0100
,  // measure 26
0000
0010
0010
0010
,  // measure 27
0000
1000
0000
1000
,  // measure 28
0000
0001
1000
0001
,  // measure 29
0000
1000
0000
0001
,  // measure 30
0000
0100
0000
0010
,  // measure 31
0000
1000
0000
1000
,  // measure 32
0000
0001
0001
0001
,  // measure 33
0000
1000
1000
1000
,  // measure 34
0000
0010
0010
0010
,  // measure 35
0000
1000
0000
1000
,  // measure 36
0000
0001
0001
0001
,  // measure 37
0000
1000
0000
1000
,  // measure 38
0000
1000
0000
1000
,  // measure 39
0000
0001
0001
0001
,  // measure 40
0000
1000
1000
1000
,  // measure 41
0000
0010
0000
1000
,  // measure 42
0000
0010
0000
1000
,  // measure 43
0000
0010
0000
1000
,  // measure 44
0000
0001
0001
0001
,  // measure 45
0000
2000
0000
0000
,  // measure 46
3000
0002
0000
0000
,  // measure 47
0003
0200
0000
0000
,  // measure 48
0300
0020
0000
0000
,  // measure 49
0030
1000
0000
0000
,  // measure 50
0000
0001
0000
0000
,  // measure 51
0000
1000
0000
0000
,  // measure 52
0000
0100
0000
0010
,  // measure 53
0010
1000
0000
1000
,  // measure 54
0000
0001
0000
0001
,  // measure 55
0000
0010
0010
0100
,  // measure 56
0100
1000
1000
0001
,  // measure 57
0001
1000
0000
1000
,  // measure 58
0000
0001
0000
0001
,  // measure 59
0000
1000
1000
1000
,  // measure 60
0010
0010
0100
0100
,  // measure 61
0001
0000
0000
1001
,  // measure 62
0000
1001
0000
1001
,  // measure 63
0000
0010
0010
0100
,  // measure 64
0100
0010
0010
0100
;
