#TITLE:chilblain;
#SUBTITLE:;
#ARTIST:Glaring Radiokids;
#TITLETRANSLIT:;
#SUBTITLETRANSLIT:;
#ARTISTTRANSLIT:;
#CREDIT:;
#BANNER:banner.png;
#BACKGROUND:bg.png;
#LYRICSPATH:;
#CDTITLE:;
#MUSIC:chilblain.ogg;
#OFFSET:-0.532;
#SAMPLESTART:31.144;
#SAMPLELENGTH:12.000;
#SELECTABLE:YES;
#BPMS:0.000=196.000;
#STOPS:;
#BGCHANGES:;

//---------------dance-single - Ama-tan----------------
#NOTES:
     dance-single:
     Ama-tan:
     Hard:
     9:
     0.500,0.653,0.200,0.300,0.000: // measure 1
2000
0000
0000
0000
,  // measure 2
0000
0000
0000
0000
,  // measure 3
3002
0000
0000
0000
,  // measure 4
0000
0000
0000
0000
,  // measure 5
0023
0000
0000
0000
,  // measure 6
0230
0000
0000
0000
,  // measure 7
2300
0000
0000
0000
,  // measure 8
3020
0000
0000
0000
,  // measure 9
0130
0001
0100
0010
,  // measure 10
1000
0100
0000
0000
,  // measure 11
0010
0001
0100
0001
,  // measure 12
1000
0100
1000
0001
,  // measure 13
0010
0000
0000
0000
,  // measure 14
1001
0000
0000
0000
,  // measure 15
0100
0000
0000
0000
,  // measure 16
0110
0000
0000
0000
,  // measure 17
0001
0100
0010
0100
,  // measure 18
0001
1000
0010
0000
,  // measure 19
0100
0010
0001
0010
,  // measure 20
0100
0001
0010
0100
,  // measure 21
2000
0000
0000
3000
,  // measure 22
0020
0000
0000
0030
,  // measure 23
0200
0000
0000
0300
,  // measure 24
0002
0000
0000
0003
,  // measure 25
1000
0100
0000
0001
0100
0000
1000
0010
,  // measure 26
0000
0100
0001
0010
0100
1000
0001
0100
,  // measure 27
0010
1000
0000
0001
0100
0000
0010
1000
,  // measure 28
0000
0100
0010
0000
1001
0000
0110
0000
,  // measure 29
1000
0100
0000
1000
0100
0000
0010
0001
,  // measure 30
0000
0010
0001
0010
0100
1000
0010
0100
,  // measure 31
0001
0100
0000
1000
0010
0000
0001
0100
,  // measure 32
0000
1000
0100
0000
0011
0000
1100
0000
,  // measure 33
1000
0010
0100
0010
1000
0010
0100
0010
,  // measure 34
1000
0100
0010
0001
0010
0100
1000
0001
,  // measure 35
0100
0010
0100
0010
1000
0001
1000
0100
,  // measure 36
0010
0001
0010
0100
1000
0001
0010
0100
,  // measure 37
1000
0100
1000
0000
0001
0100
0001
0000
,  // measure 38
1000
0010
1000
0000
0001
0010
0001
0000
,  // measure 39
1000
0100
0010
0001
0100
0010
0100
0001
,  // measure 40
0010
0100
1000
0001
0100
0010
0100
0001
,  // measure 41
1000
0100
0001
0100
1000
0100
0001
0100
,  // measure 42
1000
0010
0001
0010
1000
0010
0001
0010
,  // measure 43
1000
0100
0010
0100
1000
0100
0010
0100
,  // measure 44
1000
0010
0100
0010
1000
0010
0100
0010
,  // measure 45
1000
0100
0001
0000
1000
0100
0001
0000
,  // measure 46
1000
0010
0001
0000
1000
0010
0001
0000
,  // measure 47
1000
0100
1000
0100
0010
0001
0010
0001
,  // measure 48
1000
0010
1000
0010
0100
0001
0100
0000
,  // measure 49
0101
0101
0000
0000
,  // measure 50
1010
1010
0000
0000
,  // measure 51
1100
1100
0000
0000
,  // measure 52
0101
0000
0101
0000
0001
0010
0100
1000
,  // measure 53
0002
0000
0000
0000
0003
0000
0010
0100
,  // measure 54
2000
0000
0000
0000
,  // measure 55
3001
0001
0002
0000
,  // measure 56
0203
0320
0000
0000
,  // measure 57
1030
1000
2000
0000
,  // measure 58
3002
0203
0000
0000
,  // measure 59
0310
0010
0020
0000
,  // measure 60
2030
3002
0000
0000
,  // measure 61
0203
0000
0000
0000
,  // measure 62
0320
0000
0000
0000
,  // measure 63
1030
0100
1000
0100
0020
0000
0000
0000
,  // measure 64
0031
0200
0000
0000
,  // measure 65
0301
0100
0001
0100
0020
0000
0000
0000
,  // measure 66
1030
0200
0000
0000
,  // measure 67
1300
0100
1000
0100
0002
0000
0000
0000
,  // measure 68
0203
0320
0000
0000
,  // measure 69
0032
1000
0100
1000
,  // measure 70
0023
0100
1000
0130
,  // measure 71
1000
0100
1000
0100
1000
0100
1000
0100
,  // measure 72
0001
0100
0001
0100
0001
0100
0001
0100
,  // measure 73
0001
0010
0001
0010
0001
0010
0001
0010
,  // measure 74
1000
0010
1000
0010
1000
0010
1000
0010
,  // measure 75
0100
0001
0010
0100
1000
0010
0100
0001
,  // measure 76
1000
0100
0010
0001
1000
0100
0001
0100
,  // measure 77
1000
0001
0010
0100
1000
0001
0100
0010
,  // measure 78
1000
0010
0001
0010
1000
0001
0100
0010
,  // measure 79
1000
1100
0000
0001
0101
0000
1000
1010
,  // measure 80
0000
0001
0011
0000
1000
0001
1000
0000
,  // measure 81
0001
0101
0000
1000
1100
0000
0001
0011
,  // measure 82
0000
1000
1010
0000
1000
0100
1000
0000
,  // measure 83
0010
0110
0000
1000
1100
0000
0001
0101
,  // measure 84
0000
0100
0110
0000
1000
0100
1000
0001
,  // measure 85
0010
0100
1000
0100
0001
0100
1000
0010
,  // measure 86
0100
0001
0010
1000
0010
0001
1000
0100
,  // measure 87
0002
0000
0000
0000
,  // measure 88
0000
0000
0000
0000
,  // measure 89
0203
0000
0000
0000
,  // measure 90
0000
0000
0000
0000
,  // measure 91
0320
0000
0000
0000
,  // measure 92
2030
0000
0000
0000
,  // measure 93
3002
0000
0000
0000
,  // measure 94
0023
0000
0000
0000
,  // measure 95
0200
0000
0000
0000
,  // measure 96
0000
0000
0000
0000
,  // measure 97
0000
0000
0000
0000
,  // measure 98
0000
0000
0000
0000
,  // measure 99
0000
0000
0000
0000
,  // measure 100
0000
0000
0000
0000
,  // measure 101
0330
0000
0000
0000
;

//---------------dance-single - fffff----------------
#NOTES:
     dance-single:
     fffff:
     Easy:
     2:
     0.122,0.237,0.108,0.084,0.000:
0000
0000
0000
0000
,
0000
0000
0000
0000
,
0000
0000
0000
0000
,
0000
0000
0000
0000
,
1000
0000
0000
0000
,
0001
0000
0000
0000
,
0100
0000
0000
0000
,
0010
0000
0000
0000
,
1000
0000
0000
0000
,
0000
0000
0000
0000
,
0001
0000
0000
0000
,
0000
0000
1000
0001
,
0100
0000
0000
0000
,
0000
0000
0000
0000
,
0001
0000
0000
0000
,
0010
0000
0000
0000
,
0100
0000
1000
0000
,
0100
0000
0000
0000
,
0001
0000
0100
0000
,
0001
0000
0000
0000
,
0010
0000
0000
0000
,
0100
0000
0000
0000
,
1000
0000
0000
0000
,
0001
0000
0000
0000
,
2000
0000
0000
0000
,
3000
0000
0000
0000
,
0020
0000
0000
0000
,
0030
0000
0000
0000
,
0200
0000
0000
0000
,
0300
0000
0000
0000
,
0002
0000
0000
0000
,
0003
0000
0000
0000
,
1000
0000
0100
0000
,
0001
0000
0000
0000
,
0100
0000
1000
0000
,
0010
0000
0000
0000
,
0001
0000
0010
0000
,
1000
0000
0000
0000
,
0011
0000
0000
0000
,
1100
0000
0000
0000
,
1000
0000
0000
0000
,
0001
0000
0000
0000
,
0100
0000
0000
0000
,
0010
0000
0000
0000
,
1000
0000
0000
0000
,
1000
0000
0000
0000
,
0001
0000
0000
0000
,
0001
0000
0000
0000
,
1000
0000
0000
0000
,
0001
0000
0000
0000
,
0100
0000
0000
0000
,
0010
0000
1000
0000
,
0010
0000
0000
0000
,
0100
0000
0000
0000
,
0001
0000
0000
0000
,
0000
0000
0000
0000
,
0001
0000
0000
0000
,
0000
0000
0000
0000
,
1000
0000
0000
0000
,
0000
0000
0000
0000
,
1000
0000
0000
0000
,
0000
0000
0000
0000
,
1001
0000
0000
0000
,
0100
0000
0000
0000
,
1001
0000
0000
0000
,
0010
0000
0000
0000
,
1100
0000
0000
0000
,
0001
0000
0000
0000
,
0101
0000
0000
0000
,
1000
0000
0000
0000
,
1000
0000
0000
0000
,
0100
0000
0000
0000
,
0001
0000
0000
0000
,
0010
0000
0000
0000
,
1000
0000
0000
0000
,
0100
0000
0000
0000
,
0001
0000
0000
0000
,
0010
0000
0000
0000
,
1100
0000
0000
0000
,
0101
0000
0000
0000
,
0011
0000
0000
0000
,
1010
0000
0000
0000
,
1100
0000
0000
0000
,
0101
0000
0000
0000
,
0011
0000
0000
0000
,
1010
0000
0000
0000
,
2000
0000
0000
0000
,
3000
0000
0000
0000
,
0020
0000
0000
0000
,
0030
0000
0000
0000
,
0200
0000
0000
0300
,
0002
0000
0000
0003
,
2000
0000
0000
3000
,
0020
0000
0000
0000
,
2000
0000
0000
0000
,
0000
0000
0000
0000
,
0000
0000
0000
0000
,
0000
0000
0000
0000
,
0000
0000
0000
0000
,
0000
0000
0000
0000
,
0000
0000
0000
0000
,
0000
0000
0000
0000
,
0000
0000
0000
0000
,
3030
0000
0000
0000
;

//---------------dance-single - ffff----------------
#NOTES:
     dance-single:
     ffff:
     Medium:
     5:
     0.273,0.427,0.084,0.307,0.000:
0000
0000
0000
0000
,
0000
0000
0000
0000
,
0000
0000
0000
0000
,
0000
0000
0000
0000
,
2000
0000
0000
0000
,
3020
0000
0000
0000
,
0230
0000
0000
0000
,
0302
0000
0000
0000
,
1003
0000
1000
0000
,
0001
0000
0001
0000
,
0100
0000
0100
0000
,
0010
0000
0010
0000
,
1000
0000
0000
0000
,
0001
0000
0000
0000
,
1000
0000
0000
0000
,
0100
0000
0000
0000
,
0010
0000
0010
0000
,
0001
0000
0001
0000
,
1000
0000
1000
0000
,
0010
0000
0010
0000
,
0100
0000
0000
0000
,
0001
0000
0000
0000
,
1000
0000
0000
0000
,
0001
0000
0000
0000
,
1000
0000
0000
0100
0000
0000
0001
0000
,
0000
0100
0000
0000
1000
0000
0000
0000
,
0001
0000
0000
0100
0000
0000
1000
0000
,
0000
0100
0000
0000
0001
0000
0000
0000
,
1000
0000
0000
0010
0000
0000
0001
0000
,
0000
0010
0000
0000
1000
0000
0000
0000
,
0001
0000
0000
0010
0000
0000
1000
0000
,
0000
0010
0000
0000
0001
0000
0000
0000
,
1000
0100
1000
0100
,
0010
0100
1000
0000
,
0001
0100
0001
0100
,
0010
0100
0001
0000
,
1000
1000
1000
0000
,
0001
0001
0001
0000
,
0200
0000
0000
0000
,
0320
0000
0000
0000
,
1030
1000
1000
0100
,
0001
0100
1000
0000
,
0001
0001
0001
0100
,
1000
0100
0001
0100
,
0010
0000
0000
0000
,
1000
0000
0000
0000
,
0100
0000
0000
0000
,
0010
0000
0000
0000
,
0001
0101
0000
0000
,
1000
1100
0000
0000
,
0010
0110
0000
0000
,
0001
1001
0000
0000
,
1000
0100
1000
0000
,
0001
0100
0001
0000
,
0200
0000
0320
0000
,
2030
3200
0000
0000
,
0320
0000
0032
0000
,
0203
0320
0000
0000
,
2030
3200
2300
0000
,
3002
0023
0000
0000
,
0230
0000
0000
0000
,
2300
0000
0000
0000
,
3001
0100
0010
0100
,
0001
0020
0000
0000
,
0130
1000
0001
0100
,
0010
0200
0000
0000
,
1300
0001
0010
0001
,
0100
0002
0000
0000
,
0023
0000
0000
0000
,
0230
0000
0000
0000
,
1300
0100
1000
0100
,
1000
0100
1000
0100
,
0001
0100
0001
0100
,
0001
0100
0001
0100
,
0010
0001
0010
0001
,
0010
0001
0010
0001
,
0010
1000
0010
1000
,
0010
1000
0010
1000
,
0100
0000
0000
0010
0000
0000
0001
0000
,
0000
1000
0000
0000
0100
0000
0000
0000
,
1000
0000
0000
0010
0000
0000
0100
0000
,
0000
0001
0000
0000
1000
0000
0000
0000
,
0001
0000
0000
0010
0000
0000
0100
0000
,
0000
1000
0000
0000
0001
0000
0000
0000
,
0100
0000
0000
0010
0000
0000
0100
0000
,
0000
0001
0000
0000
1000
0000
0001
0000
,
2002
0000
0000
0000
,
0000
0000
3003
0000
,
0220
0000
0000
0000
,
0000
0000
0330
0000
,
2200
0000
3300
0000
,
0202
0000
0303
0000
,
0220
0000
0330
0000
,
2002
0000
3003
0000
,
0220
0000
0000
0000
,
0000
0000
0000
0000
,
0000
0000
0000
0000
,
0000
0000
0000
0000
,
0000
0000
0000
0000
,
0000
0000
0000
0000
,
0000
0000
0000
0000
,
0330
0000
0000
0000
;
