#TITLE:Boyfriend;
#SUBTITLE:;
#ARTIST:Justin Bieber;
#TITLETRANSLIT:;
#SUBTITLETRANSLIT:;
#ARTISTTRANSLIT:;
#CREDIT:;
#BANNER:;
#BACKGROUND:;
#LYRICSPATH:;
#CDTITLE:;
#MUSIC:Boyfriend.ogg;
#OFFSET:0.120;
#SAMPLESTART:74.252;
#SAMPLELENGTH:17.800;
#SELECTABLE:YES;
#BPMS:0.000=97.000;
#STOPS:;
#BGCHANGES:;

//---------------dance-single - ----------------
#NOTES:
     dance-single:
     :
     Hard:
     8:
     0.514,0.441,0.272,0.136,0.387:
0000
0000
0000
0000
0000
0000
1000
0001
,
1001
0000
1000
0010
1010
0000
0100
0001
,
0101
0000
0000
0000
0001
0000
1000
0000
1001
0000
0000
0000
1000
0001
1000
0001
,
1000
0000
0010
1000
0010
0000
1000
0001
1000
0000
0001
0000
0100
0000
0010
0000
,
1010
0000
1000
0001
0110
0000
1000
1000
,
0001
0000
0001
0000
0100
0010
0100
0010
0100
0000
0001
0000
1000
0010
1000
0010
,
1000
0000
0001
0000
0100
0010
0100
0010
0100
0000
0001
0000
1000
0000
0010
0000
,
0010
1000
0100
0001
0010
1000
1000
1000
,
0010
0100
0001
0010
0100
1000
0001
0100
,
0102
0000
1003
0010
0120
0000
1030
0001
,
0201
0000
0310
1000
0101
0000
1000
1000
,
0101
0000
0000
0000
0001
0000
0001
0000
1100
0000
1000
0001
1000
0000
0001
0100
,
0000
0000
0000
0000
1000
0000
0001
0000
1001
0000
0000
0000
1000
0001
1000
0001
,
1000
0000
0000
0000
0001
0010
0001
0010
0001
0000
0000
0000
1000
0010
1000
0010
,
1000
0000
0000
0000
0001
0100
0001
0100
0001
0000
0000
0000
1000
0010
1000
0010
,
1000
0000
0000
0000
0001
0100
0010
1000
0100
0000
0000
0000
1000
0001
0010
0001
,
1000
0000
0000
0000
0001
1000
0010
0100
0001
0000
1000
0001
1000
0100
1000
0100
,
1000
0000
0000
0000
0001
0100
0001
0100
0001
0000
0000
0000
1000
0010
1000
0010
,
0100
0000
0000
0000
0001
0100
0001
0100
0010
0000
1000
0020
0000
0000
0130
0000
,
0101
0000
0000
0000
0002
0000
0100
0000
0103
0000
0010
1000
0010
0000
1000
0000
,
1001
0000
0000
0000
0001
0000
0100
0000
0010
0000
1000
0010
1000
0000
0001
0000
,
0101
0000
0000
0010
1000
0000
0001
0000
1000
0000
0100
0000
0001
0000
0100
0000
,
0010
0000
0000
0010
0001
0000
0010
0000
0100
0000
2000
0000
0000
0000
0000
0000
,
3001
0000
0200
0000
0000
0000
0000
0300
0010
0000
1000
0010
1000
0000
0001
1000
,
0001
0000
1000
0010
1000
0001
0100
0001
0100
0000
0001
0000
1000
0000
0010
0000
,
0110
0000
0000
0100
0001
0000
0001
0000
1001
0000
0010
0000
1000
0000
0010
0000
,
0110
0000
0001
1000
0010
0200
0000
0000
,
0301
2000
0000
3000
1001
0000
0001
0100
,
0010
0000
1000
0000
0001
0000
1000
0000
0000
0000
0000
0000
0001
1000
0001
1000
,
0001
0000
0000
0000
1000
0100
1000
0100
1000
0000
0000
0000
0001
0010
0001
0010
,
0001
0000
0000
0000
1000
0010
1000
0010
1000
0000
0000
0000
0001
0100
0001
0100
,
0001
0000
0000
0000
1000
0010
0100
0001
0010
0000
0000
0000
0100
1000
0010
0100
,
0001
0000
0000
0000
0001
1000
0010
1000
0100
0000
0010
0000
0001
1000
0010
1000
,
0001
0010
0001
0000
1000
0000
0010
0000
0101
0000
0000
0000
0001
0000
0100
0000
,
1010
0000
0000
0000
1000
0000
0100
0000
0011
0000
0001
0000
1000
0010
1000
0010
,
1000
0000
0000
0000
0001
0000
0100
0000
0101
0000
0000
0000
1000
0010
1000
0010
,
1000
0000
0000
0000
0001
0000
0100
0000
0010
0000
1000
0001
1000
0010
1000
0010
,
1000
0000
0000
0000
0001
0100
0001
0000
0101
0000
0000
0000
1000
0001
1000
0000
,
1001
0000
0000
0000
0010
1000
0010
0000
1010
0000
2000
0000
0000
0000
3002
0000
,
0000
0000
0003
0000
0100
0010
0100
0000
0020
0000
0000
0000
1030
0001
1000
0000
,
0002
0000
0000
0000
1003
0100
0010
0000
0001
0000
1000
0010
0000
0000
1000
0000
,
1010
0000
0000
0000
0001
0100
0001
0000
1001
0000
0000
0000
1000
0010
1000
0000
,
1001
0000
0000
0000
0001
0010
0100
0000
0110
0000
0020
0000
0001
0000
0031
0000
,
1001
0000
0000
0000
1000
0010
1000
0010
1000
0000
0000
0000
0001
0100
0010
1000
,
0001
0000
0000
0000
1000
0100
0010
0100
1000
0000
0001
2000
0000
0000
0020
0000
,
0000
3030
0000
0000
0000
0000
0000
0000
;

//---------------dance-single - ----------------
#NOTES:
     dance-single:
     :
     Medium:
     7:
     0.423,0.420,0.527,0.085,0.060:
0000
0000
0000
0000
0000
0000
1000
0100
,
1100
0100
0010
0100
0110
0010
0001
0010
,
1001
0001
0100
0001
0101
0010
1000
0010
,
1010
1000
0001
1000
1001
0001
0100
0010
,
0110
0010
1000
0100
0110
0010
0001
0001
,
1001
0010
0100
0010
1001
0100
0010
0001
,
1001
0010
0100
0010
1010
0100
1000
0100
,
0110
0010
0001
0100
0110
0001
1000
0010
,
1010
1000
0100
0010
0110
0001
1000
0010
,
0101
0000
0001
0010
1100
0000
0001
0100
,
1010
0000
0100
1000
1100
0000
0001
1000
,
1001
0000
0000
0000
0001
0000
1000
0000
1001
0000
0001
1000
0001
0000
1000
0001
,
0000
0000
1000
0001
1000
0000
0010
0100
,
0110
0000
1000
0001
1001
0000
1000
0010
,
0101
0000
0001
0010
1100
0000
0001
0100
,
1010
0000
1000
0100
0011
0000
1000
0001
,
1001
0000
0100
0100
1001
0000
1000
0001
,
1001
0000
0010
1000
0101
0000
0001
0100
,
1010
0000
1000
0100
0011
0000
0001
0010
,
1100
0000
0100
0001
1010
0000
1000
1000
,
0101
0000
0001
0001
1100
0000
1000
0001
,
2000
0000
0000
0000
0000
0000
0000
0000
0000
0000
0000
0000
0000
0000
0000
0000
0000
0000
0000
0000
0000
0000
0000
0000
0000
0000
0000
0000
0000
0000
0000
0000
0000
0000
0000
0000
0000
0000
0000
0000
0000
0000
0000
0000
0000
0000
0000
0000
3010
0000
0000
0000
0000
0000
0000
0000
0000
0000
0000
0000
0000
0000
0000
0000
0000
0000
0000
0000
0000
0000
0000
0000
0100
0000
0000
0000
0000
0000
0000
0000
0000
0000
0000
0000
0000
0000
0000
0000
0000
0000
0000
0000
0000
0000
0000
0000
0002
0003
0000
0000
0000
0000
0000
0000
0000
0000
0000
0000
0000
0000
0000
0000
0000
0000
0000
0000
0000
0000
0000
0000
0200
0000
0000
0000
0000
0000
0000
0000
0000
0000
0000
0000
0000
0000
0000
0000
0000
0000
0000
0000
0000
0000
0000
0000
0000
0000
0000
0000
0000
0000
0000
0000
0000
0000
0000
0000
0000
0000
0000
0000
0000
0000
0000
0000
0000
0000
0000
0000
0000
0000
0000
0000
0000
0000
0000
0000
0000
0000
0000
0000
0000
0000
0000
0000
0000
0000
0000
0000
0000
0000
0000
0000
,
0000
0000
0310
1000
0100
0020
0000
0000
,
0000
0002
0000
0033
0000
1000
1000
0001
,
0001
0100
0100
0010
1000
0001
1000
1000
,
1001
0000
0010
0100
0110
0000
0001
0010
,
0011
0000
0001
0100
1010
0000
1000
1000
,
0101
0000
0010
0010
1001
0000
1000
1000
,
0001
0100
2000
0000
0000
0000
3001
0100
,
0101
0000
0010
1000
1010
0000
0001
1000
,
1001
0000
0010
0010
1001
0000
0100
0100
,
1001
0000
0001
0001
0110
0000
0001
0001
,
0110
0000
1000
1000
0110
0000
1000
1000
,
0110
0000
0001
0001
0101
0000
1000
1000
,
1010
0000
0001
1000
1001
0000
0010
1000
,
1010
0000
0100
0001
0101
0000
0010
1000
,
1010
0000
1000
1000
1001
0000
1000
0000
,
0000
0000
0000
0000
0001
0100
0001
0000
0000
0000
0000
0000
1000
0010
1000
0000
,
0000
0000
0000
0000
0001
1000
0001
0000
0000
0000
2000
0000
0000
0000
3020
0000
,
0000
0000
0030
0000
1000
0001
1000
0000
0000
0000
0000
0000
0010
0100
0010
0000
,
0000
0000
0000
0000
1000
0001
1000
0000
0000
0000
0000
0000
0001
0000
1000
0000
,
1001
0000
0000
0000
0010
1000
0010
0000
0000
0000
0000
0000
1000
0001
1000
0000
,
0000
0000
0000
0000
0001
0100
0001
0000
0000
0000
2000
0000
0000
0000
3000
0000
,
1001
0000
0000
0000
1000
0001
1000
0000
0000
0000
0000
0000
0010
1000
0010
0000
,
0000
0000
0000
0000
0001
0000
1000
0000
0010
0002
0000
0000
0000
0000
1003
0000
;

//---------------dance-single - ----------------
#NOTES:
     dance-single:
     :
     Easy:
     5:
     0.284,0.269,0.179,0.136,0.004:
0000
0000
0000
0000
,
1001
0000
0110
0000
,
0011
0000
1100
0000
,
1001
0000
1100
0000
,
0011
0000
1001
1000
,
1000
0001
0001
0100
,
0100
0010
0010
1000
,
1000
0001
0100
1000
,
0010
0001
0100
0001
,
1000
0001
1001
0010
,
1010
1000
1100
1000
,
1001
0001
1001
2000
,
0000
0000
3001
0000
1000
0000
0001
1000
,
0001
0000
1000
0100
1000
0000
0001
1000
,
0010
0000
0100
0010
0100
0000
0001
1000
,
0001
0000
1000
1000
1000
0000
0001
0001
,
0001
0000
1000
0010
1000
0000
0001
0100
,
0001
0000
1000
0001
1000
0000
0010
1000
,
0010
0000
1000
0001
1000
0000
0001
0100
,
0010
0000
1000
0010
1000
0000
0001
1000
,
0001
0000
1000
0010
1000
0000
0002
0000
,
1003
2000
3010
0200
,
0301
0020
0130
2000
,
3001
0000
1000
0000
0001
0000
1000
0100
,
1000
0000
0001
0100
0001
1000
0001
0010
,
1000
0020
1030
0200
,
0310
0002
0103
0020
,
1030
0200
0310
0002
,
1003
0000
0000
1000
,
1001
0001
0101
0100
,
0110
0010
1010
1000
,
1001
0000
0001
0000
0101
0000
0010
1000
,
0001
0000
1000
1000
0010
0000
0100
0100
,
0010
0000
1000
1000
0010
0000
1000
1000
,
0001
0000
0100
0100
0010
0000
0001
0001
,
1000
0000
0001
0100
0010
0000
1000
0001
,
0100
0000
0010
1000
0001
0000
0010
0000
,
1001
0000
1000
1000
0000
0000
0001
0001
,
0000
0000
0100
0100
0000
0020
0000
1030
,
0000
0000
0001
0001
0000
0000
1000
1000
,
0000
0000
0010
0010
0000
0000
1000
0000
,
1001
0000
0010
0010
0000
0000
0100
0100
,
0000
0000
0001
0001
0000
2000
0000
3000
,
0001
0000
1000
1000
0000
0000
0010
0010
,
0000
0000
0000
0000
0100
0000
0000
0000
0001
0000
0000
2000
0000
0000
0002
0000
,
0000
3003
0000
0000
;

//---------------dance-single - ----------------
#NOTES:
     dance-single:
     :
     Beginner:
     1:
     0.060,0.091,0.026,0.000,0.000:
0000
0000
0000
0000
,
1000
0000
0000
0000
,
0001
0000
0000
0000
,
1000
0000
0000
0000
,
0001
0000
0000
0000
,
0100
0000
0000
0000
,
0010
0000
0000
0000
,
1000
0000
0000
0000
,
0001
0000
0000
0000
,
1000
0000
0001
0000
,
0100
0000
0010
0000
,
1000
0000
0001
0000
,
0000
0000
0000
1000
,
0000
0000
0000
0000
,
1000
0000
0000
0000
,
0010
0000
0000
0000
,
0100
0000
0000
0000
,
0001
0000
0000
0000
,
1000
0000
0000
0000
,
0010
0000
0000
0000
,
0100
0000
0000
0000
,
1000
0000
1000
0000
,
1000
0000
0001
0000
,
0001
0000
0001
0000
,
1000
0000
1000
0000
,
0001
0000
0000
0000
,
1000
0000
0000
0000
,
0010
0000
0000
0000
,
0100
0000
0000
0000
,
1001
0000
0000
0000
,
1001
0000
0000
0000
,
0010
0000
0000
0000
,
0100
0000
0000
0000
,
1001
0000
0000
0000
,
1000
0000
0000
0000
,
0001
0000
0000
0000
,
1000
0000
0000
0000
,
0010
0000
0000
0000
,
0000
0000
0000
0000
,
1000
0000
0000
0000
,
0000
0000
0000
0000
,
0001
0000
0000
0000
,
0000
0000
0000
0000
,
1000
0000
0000
0000
;

//---------------dance-single - ----------------
#NOTES:
     dance-single:
     :
     Challenge:
     9:
     0.621,0.537,0.187,0.085,0.714: // measure 1
0000
0000
0000
0000
0000
0000
0000
0000
0000
0000
0000
0000
1000
0100
0010
0001
,  // measure 2
1000
0000
0001
0000
0010
0100
0010
0001
0010
0000
0100
1000
0100
0010
0100
0000
,  // measure 3
0110
0000
0010
0000
0001
0010
0100
1000
0001
0000
1000
0100
0010
0001
1000
0001
,  // measure 4
1000
0000
0010
1000
0010
0000
1000
0001
1000
0000
0001
0100
0010
1000
0010
0000
,  // measure 5
1010
0000
1000
0001
0010
0100
1000
0100
0010
0000
0002
0000
1000
0000
1003
0000
,  // measure 6
1001
0000
0001
0000
0100
0010
0100
0010
0100
0000
0001
0000
1000
0010
1000
0010
,  // measure 7
1000
0000
0001
1000
0100
0010
0001
0001
0010
0000
0100
0000
1000
0000
0001
0100
,  // measure 8
0101
0000
0010
1000
0010
0000
0100
0001
0010
0000
0100
0000
1000
0000
0001
0000
,  // measure 9
1001
1000
0001
0010
0100
0000
1000
0100
0010
0000
0001
0000
1000
0001
0000
0000
,  // measure 10
0102
0000
1003
0010
0120
0000
1030
0001
,  // measure 11
0101
0000
0010
1000
0010
0000
0100
0000
0101
0000
0000
0000
1000
0000
1000
0000
,  // measure 12
0101
0000
0000
0000
0001
0000
0001
0000
1100
0000
1000
0001
1000
0000
0001
0010
,  // measure 13
0000
0000
0000
0000
0100
0000
1000
0000
1001
0000
0001
0010
0100
1000
0100
1000
,  // measure 14
0100
0000
0000
0000
0010
0001
0010
0001
0010
0000
0100
1000
0001
1000
0001
1000
,  // measure 15
0001
0000
0000
0000
1000
0100
0010
0001
0010
0000
0100
1000
0010
0100
0010
0100
,  // measure 16
0010
0000
0000
1000
0001
0100
0010
1000
0100
0000
0010
0001
1000
0001
0010
0001
,  // measure 17
1000
0000
0000
0000
0001
1000
0010
0100
0001
0000
1000
0001
1000
0100
1000
0100
,  // measure 18
1000
0000
0000
0000
0001
0100
0001
0100
0001
0000
1000
0010
1000
0001
1000
0010
,  // measure 19
0100
0000
0000
0000
0001
0100
0001
0100
0010
0000
1000
0010
0100
0001
0100
0010
,  // measure 20
1000
0000
0000
0000
0001
0100
0010
1000
0010
0000
1000
0010
0100
0001
1000
0100
,  // measure 21
0010
0000
0000
0001
0100
0010
1000
0010
0100
0000
0001
0100
0001
0000
0001
0000
,  // measure 22
1001
0000
0000
0010
1000
0010
1000
0000
0001
0000
0100
0000
0001
0000
0100
0000
,  // measure 23
0201
0000
0000
0310
1000
0000
0001
0000
0100
0000
0020
0000
1000
0000
1030
0000
,  // measure 24
1001
0000
0001
1000
0000
1000
0010
0000
1010
0000
1000
0010
0001
0000
0001
0010
,  // measure 25
1000
0000
0001
0100
1000
0100
0001
0100
0010
0000
1000
0000
1000
0000
0010
0000
,  // measure 26
0110
0000
0000
0100
0001
0000
0001
0000
1001
0000
0010
0000
1000
0000
0010
0000
,  // measure 27
0110
0000
0001
1000
1001
0002
0100
0103
,  // measure 28
0101
0000
0001
0100
0000
0100
0001
0000
1001
0000
1000
0000
0001
0000
0100
0000
,  // measure 29
0010
0000
1000
0000
0001
0000
1000
0000
0100
0000
0010
0001
1000
0100
0001
0100
,  // measure 30
1000
0000
0000
0000
0001
0010
1000
0010
0001
0000
1000
0100
0010
0001
1000
0100
,  // measure 31
0010
0000
0000
0000
1000
0010
0001
0010
1000
0000
0001
0100
1000
0100
0010
0100
,  // measure 32
0001
0000
0000
1000
0001
0010
0100
1000
0010
0000
0100
0001
1000
0100
0010
0100
,  // measure 33
0001
0000
0000
0001
0100
1000
0100
1000
0001
0000
1000
0001
0010
0100
1000
0010
,  // measure 34
0001
0010
0001
0000
0010
1000
0010
0100
0001
0000
1000
0100
0001
0100
0010
0001
,  // measure 35
1000
0000
0000
0000
1000
0100
0010
0001
0010
0000
0100
1000
0001
0010
1000
0010
,  // measure 36
0001
0000
0000
1000
0100
0001
0100
0010
0001
0000
1000
0010
0100
0001
0100
1000
,  // measure 37
0100
0000
0000
0000
0001
0100
0010
1000
0010
0000
1000
0100
0010
0001
0010
0100
,  // measure 38
1000
0000
0000
0000
1000
0100
0001
0100
0010
0000
0000
0000
0001
0100
1000
0100
,  // measure 39
0010
0000
0000
0000
1000
0100
0001
0100
0010
0000
0002
0000
0000
0000
2003
0000
,  // measure 40
0000
0000
3000
0000
0001
0010
1000
0010
0100
0000
0000
0000
1000
0100
0001
0100
,  // measure 41
0010
0000
0000
0000
0100
1000
0100
0010
0001
0000
1000
0010
1000
0100
0001
0100
,  // measure 42
1000
0000
0000
0000
0001
0100
1000
0100
0001
0000
0000
0000
1000
0010
0001
0010
,  // measure 43
0100
0000
0000
0000
0001
0100
1000
0100
0010
0000
1000
0000
0001
0100
1000
0001
,  // measure 44
0010
0000
0000
0000
1000
0100
0001
1000
0010
0000
0000
0000
0001
0100
1000
0100
,  // measure 45
0001
0000
0000
0000
1000
0100
0010
0100
1000
0000
0001
2000
0000
0000
0020
0000
,  // measure 46
0000
3030
0000
0000
0000
0000
0000
0000
;
