#TITLE:AquaSphere;
#SUBTITLE:;
#ARTIST:Sanxion7;
#TITLETRANSLIT:;
#SUBTITLETRANSLIT:;
#ARTISTTRANSLIT:;
#CREDIT:;
#BANNER:AquaSphere_bn.png;
#BACKGROUND:;
#LYRICSPATH:;
#CDTITLE:XeniSys 87 Logo.png;
#MUSIC:AquaSphere.mp3;
#OFFSET:-0.100;
#SAMPLESTART:66.120;
#SAMPLELENGTH:12.000;
#SELECTABLE:YES;
#BPMS:0.000=72.500,32.000=145.000,96.500=72.500,97.000=145.000,98.000=72.500,98.500=145.001,99.500=72.500,100.000=145.000,101.000=72.500,101.500=290.000,126.500=145.000;
#STOPS:97.000=0.840
,98.500=0.840
,100.000=0.840
,101.500=0.800
,126.500=1.440
;
#BGCHANGES:;

//---------------dance-single - ----------------
#NOTES:
     dance-single:
     :
     Easy:
     3:
     0.219,0.207,0.000,0.237,0.000:
0000
0000
0000
0000
,
0000
0000
0000
0000
,
1000
0000
0001
0000
,
0100
0000
0010
0000
,
1000
0000
0010
0000
,
0100
0000
0001
0000
,
0100
0000
0010
0000
,
1000
0000
0001
0000
,
2000
0000
0000
0000
,
3002
0000
0103
0010
,
2000
0000
0000
0000
,
3020
0000
0130
0001
,
0020
0000
0000
0000
,
0230
0000
1300
0001
,
0200
0000
0000
0000
,
0320
0000
1030
0001
,
0020
0000
0001
0000
,
0032
0000
1003
0001
,
0200
0000
0010
0000
,
0320
0000
1030
0010
,
2000
0000
0001
0000
,
3002
0000
0103
0001
,
0020
0000
0100
0000
,
0230
0000
1300
0010
,
0100
0000
0000
0010
0000
0000
1000
0000
,
0000
0001
0000
0000
0000
1000
0000
0000
,
0000
0001
0000
0000
0000
1000
0000
0000
,
0000
0001
0000
0000
0000
0100
0000
0000
,
0000
0010
0000
0000
0000
0100
0000
0000
,
0000
0010
0000
0000
0000
1000
0000
0000
,
0000
0010
0000
0000
0000
0100
0000
0000
,
0000
0001
0000
0000
0000
1000
0001
0000
,
0100
0001
1000
0010
,
1000
0001
0100
0000
,
0010
1000
0010
0100
,
0001
0010
0001
0000
,
1000
0010
0100
0001
,
0100
0010
1000
0000
,
0010
0100
0001
0100
,
0010
1000
0001
0000
,
1000
0010
0100
0001
,
1000
0100
1000
0000
,
0001
0100
0001
1000
,
0010
0100
0001
0000
,
1000
0100
1000
0010
,
0100
0001
0010
0002
,
0000
0000
0000
2003
,
0000
0010
0010
3020
,
0000
0030
0100
0100
,
0010
1000
0001
2000
,
0000
0000
3001
0100
,
0001
0001
1000
0020
,
0000
0000
0130
0100
,
0001
1000
0100
2000
,
0000
3200
0000
0320
,
0000
0032
0000
2003
,
0000
0000
0000
3000
;

//---------------dance-single - Copied from----------------
#NOTES:
     dance-single:
     Copied from:
     Medium:
     6:
     0.395,0.440,0.073,0.338,0.160:
0000
0000
0000
0000
,
0000
0000
0000
0000
,
1000
0100
0010
0001
0100
0010
1000
0001
,
0001
0100
0010
1000
0100
0010
0001
1000
,
1000
0010
0100
0001
0010
0100
1000
0001
,
0001
0100
0010
1000
0100
0010
0001
0100
,
0100
0010
1000
0001
0001
0100
0010
1000
,
1000
0010
0100
0001
1000
0010
0100
0010
,
2000
0000
0000
0000
3020
0000
0000
0030
,
0200
0000
0000
0000
0301
0000
0010
0001
,
0200
0000
0320
0000
,
2030
0000
0000
0000
3001
0000
1000
0001
,
0200
0000
0302
0000
,
0023
0000
0000
0000
0031
0000
0100
0010
,
2000
0000
3200
0000
,
0320
0000
0000
0000
0031
0000
0100
0010
,
2000
0010
0001
3010
,
0002
0000
0013
0000
1000
0000
0010
0100
,
0002
0010
1000
0013
,
2000
0000
0010
0000
3001
0000
1000
0010
,
0200
0010
1000
0310
,
0002
0000
0010
0000
1003
0000
0001
0100
,
0020
0000
0100
0000
0001
0000
0100
0030
,
2000
0000
0010
0000
3001
0000
0001
1000
,
0100
0100
0100
0010
0010
0010
0001
0001
,
0001
1000
1000
1000
0000
0010
0000
0100
,
0000
0010
0000
0000
0000
1000
0000
0001
,
0000
1000
0000
0000
0000
0001
0000
0010
,
0000
0001
0000
0000
0000
1000
0000
0100
,
0000
1000
0000
0000
0000
0001
0000
0100
,
0000
0010
0000
0000
0000
1000
0000
0010
,
0000
0000
0100
0000
0000
0000
0001
0000
0000
0000
2000
0000
3000
0001
0000
0000
,
0001
0000
0000
0100
0000
0000
0100
0000
0000
0010
0000
0000
0010
0000
0000
1000
,
0000
0000
1000
0000
0000
0001
0000
0000
0001
0000
1000
0000
0000
0010
0000
0000
,
0010
0000
0000
0100
0000
0000
0100
0000
0000
0001
0000
0000
0001
0000
0000
1000
,
0000
0000
1000
0000
0000
0010
0000
0000
0010
0000
0100
0000
0000
0001
0000
0000
,
0010
0000
0000
0001
0000
0000
0010
0000
0000
0100
0000
0000
1000
0000
0000
0100
,
0000
0000
1000
0000
0000
0010
0000
0000
0100
0000
0010
0000
0000
1000
0000
0000
,
0010
0000
0000
1000
0000
0000
0010
0000
0000
0100
0000
0000
0001
0000
0000
0100
,
0000
0000
0001
0000
0000
0010
0000
0000
0001
0000
0010
0000
0000
0001
0000
0000
,
0100
0000
0000
0010
0000
0000
1000
0000
0000
0100
0000
0000
1000
0000
0000
0010
,
0000
0000
0100
0000
0000
0001
0000
0000
0010
0000
0001
0000
0000
1000
0000
0000
,
0010
0000
0000
0100
0000
0000
0001
0000
0000
0010
0000
0000
0100
0000
0000
1000
,
0000
0000
0010
0000
0000
0100
0000
0000
0001
0000
1000
0000
0000
0010
0000
0000
,
0100
0000
0000
0001
0000
0000
0010
0000
0000
0100
0000
0000
1000
0000
0000
0010
,
0000
0000
0100
0000
0000
0001
0000
0000
1000
0000
0001
0000
2000
0000
0000
0000
,
0000
3002
0000
0203
,
0310
0002
1003
1001
,
1000
0010
0200
0000
0301
0020
0000
0230
,
0000
2300
0000
3010
0100
0000
0110
0000
,
1000
0001
1000
0000
0010
0200
0000
0302
,
0000
0023
0000
0130
0010
0000
0011
0000
,
0001
1000
0001
0000
0100
0020
0000
2030
,
0000
3200
0000
0310
0100
0000
1100
0000
,
0000
1001
0000
0011
,
0000
1001
0000
0220
,
0000
0000
0000
0330
;

//---------------dance-single - Copied from Copied f----------------
#NOTES:
     dance-single:
     Copied from Copied f:
     Hard:
     9:
     0.587,0.621,0.328,0.292,0.534: // measure 1
0000
0000
0000
0000
,  // measure 2
0000
0000
0000
0000
,  // measure 3
0001
0000
0100
0000
0010
0000
1000
0000
0100
0000
0010
0000
0001
0000
0100
0010
,  // measure 4
0100
0000
0010
0000
1000
0000
0001
0000
0010
0000
0100
0000
1000
0000
0010
0100
,  // measure 5
0010
0000
0100
0000
0001
0000
1000
0001
1000
0000
0001
0000
0100
0000
0010
1000
,  // measure 6
0010
0000
0100
0000
0001
0000
0010
0000
0110
0000
0100
0000
1000
0000
0010
0100
,  // measure 7
0001
0000
0010
0000
0100
0000
1000
0010
0100
0000
0001
0000
1000
0000
0100
0010
,  // measure 8
0001
0000
0100
0000
0010
0000
1000
0001
1000
0000
0010
0100
0001
0000
0010
0000
,  // measure 9
0210
0000
0000
0000
,  // measure 10
0310
0000
0000
0001
0000
0000
0011
0000
0000
0001
0000
0000
1000
0000
0010
0000
,  // measure 11
1020
0000
0000
0000
,  // measure 12
1030
0000
0000
0010
0000
0000
1010
0000
0000
1000
0000
0000
0001
0000
0010
0000
,  // measure 13
0012
0000
0000
0000
,  // measure 14
1003
0000
0000
0010
0000
0000
0110
0000
0000
0100
0000
0000
0001
0000
1000
0000
,  // measure 15
2010
0000
0000
0000
,  // measure 16
3001
0000
0000
0100
0000
0000
0101
0000
0000
0001
0000
0000
1000
0000
0010
0000
,  // measure 17
1020
0000
0000
0000
1000
0000
0000
1000
0000
0000
1000
0000
0000
1000
0000
0000
,  // measure 18
1030
0000
0000
0010
0000
0000
0110
0000
0000
0100
0000
0000
0001
0000
0010
0000
,  // measure 19
0021
0000
0000
0000
0001
0000
0000
0001
0000
0000
0001
0000
0000
0001
0000
0000
,  // measure 20
0031
0000
0000
0100
0000
0000
0110
0000
0000
0010
0000
0000
1000
0000
0001
0000
,  // measure 21
1002
0000
0000
0000
0010
0000
0000
0010
0000
0000
0010
0000
0000
0010
0000
0003
,  // measure 22
2001
0000
0000
0100
0000
0000
0100
0000
0000
3100
0000
0000
0010
0000
0001
1000
,  // measure 23
0002
0000
0000
0000
1003
0000
0000
2000
0000
0000
3200
0000
0000
0310
0000
0000
,  // measure 24
0011
0000
0000
0001
0000
0000
0100
0000
0000
0010
0000
0000
0110
0000
1000
0001
,  // measure 25
1000
0000
0000
0000
0100
0000
0000
0000
0120
0030
0000
0000
0001
0000
0000
0000
0100
0000
0000
0000
0120
0030
0000
0000
1000
0000
0000
0000
0001
0000
0000
0000
,  // measure 26
2001
3000
0000
0000
0010
0000
0000
0000
0100
0000
0000
0000
0120
0030
0000
0000
0000
0000
0000
0000
1000
0000
0000
0000
0000
0000
0000
0000
0010
0000
0000
0000
,  // measure 27
0000
0100
0000
0001
0000
0010
0000
0100
,  // measure 28
0000
1000
0000
0100
0000
0010
0000
0001
,  // measure 29
0000
0100
0000
0010
0000
1000
0000
0001
,  // measure 30
0000
0100
0000
0010
0000
1000
0100
1000
,  // measure 31
0000
0001
0100
0001
0000
1000
0010
0100
,  // measure 32
0001
0000
0010
0000
0100
0000
1000
0000
0001
0000
0200
0000
0310
1000
0000
0010
,  // measure 33
1000
0000
0010
0100
0000
0010
0100
0000
0001
0010
0000
0001
0010
0000
0001
1000
,  // measure 34
0000
0100
1000
0000
0100
1000
0000
0010
0100
0000
0010
0001
0000
0010
0001
0000
,  // measure 35
0010
0001
0000
0100
0010
0000
0100
0010
0000
1000
0010
0000
1000
0010
0000
1000
,  // measure 36
0001
0000
1000
0001
0000
0100
0010
0000
0100
0001
0100
0001
0000
1000
0010
0000
,  // measure 37
1000
0010
0000
0100
0001
0000
0100
0001
0000
0010
0001
0000
0010
0001
0000
0100
,  // measure 38
0010
0000
0100
0010
0000
1000
0010
0000
1000
0010
1000
0001
0000
0010
0001
0000
,  // measure 39
0100
0010
0000
1000
0010
0000
0100
0010
0000
0100
0001
0000
0010
0100
0000
0010
,  // measure 40
0001
0000
0100
0010
0000
1000
0100
0000
0100
0010
0001
0010
0001
0010
0000
0001
,  // measure 41
0100
0000
0010
1000
0000
0100
0010
0000
0001
0100
0000
0010
1000
0000
0010
0100
,  // measure 42
0000
0001
0010
0000
0100
1000
0000
0010
0100
0000
0001
0010
0001
1000
0000
0001
,  // measure 43
0010
0000
0001
0100
0000
0010
1000
0000
0100
1000
0000
0010
0100
0000
0001
0010
,  // measure 44
0000
0100
1000
0000
0010
0100
0000
0001
0010
0100
0010
0100
0000
1000
0010
0000
,  // measure 45
1000
0100
0000
0001
0010
0000
0001
0100
0000
0010
1000
0000
0100
1000
0000
0001
,  // measure 46
0100
0000
0001
0010
0000
0001
1000
0000
0100
1000
0001
0100
0020
0000
0000
0000
,  // measure 47
0130
0000
0000
0000
2000
0000
0000
0000
3001
0000
0000
0000
0021
0000
0000
0030
,  // measure 48
0210
0000
0000
0300
2100
0000
0000
3000
1002
0000
0000
0003
1000
0000
0010
0000
,  // measure 49
0100
0002
0000
0013
0100
2000
0000
3100
,  // measure 50
0010
0002
0000
0103
0010
0000
2001
0000
,  // measure 51
3010
0100
0002
0000
0103
0020
0000
2030
,  // measure 52
0000
3200
0000
1300
0010
0000
0110
0000
,  // measure 53
0100
0001
0010
0000
0100
1100
0000
1010
,  // measure 54
0000
0000
0101
0000
0000
0000
0011
0000
0001
0000
0000
0000
1001
0000
0000
1000
,  // measure 55
0000
0000
0001
0000
1001
0000
0000
0001
0000
0000
1000
0000
0110
0000
0000
0100
,  // measure 56
0000
0000
0010
0000
0110
0000
0000
0010
0000
0000
0100
0000
2002
0000
0000
0000
,  // measure 57
0000
0000
0000
3003
;
