#TITLE:conflict;
#SUBTITLE:;
#ARTIST:siromaru + cranky;
#TITLETRANSLIT:;
#SUBTITLETRANSLIT:;
#ARTISTTRANSLIT:;
#GENRE:;
#CREDIT:;
#MENUCOLOR:;
#METERTYPE:DDR;
#BANNER:conflict.png;
#BACKGROUND:conflict-bg.png;
#LYRICSPATH:;
#CDTITLE:;
#MUSIC:conflict.mp3;
#OFFSET:0.400;
#SAMPLESTART:116.910;
#SAMPLELENGTH:13.000;
#SELECTABLE:YES;
#LISTSORT:;
#BPMS:0.000=160.000,164.000=80.000,180.000=160.000;
#STOPS:;
#BGCHANGES:-0.025=[Crossovers] - conflict.mpg=1.000=1=1=0,
99999=-nosongbg-=1.000=0=0=0 // don't automatically add -songbackground-
;
#ATTACKS:;

//---------------dance-single - ----------------
#NOTES:
     dance-single:
     :
     Hard:
     10:
     0.738,0.787,0.488,0.140,0.558: // measure 1
0000
0000
0000
0000
,  // measure 2
0000
0000
0000
0000
,  // measure 3
0000
0000
0000
0000
,  // measure 4
0000
0000
0000
0000
,  // measure 5
0000
0000
0000
0000
,  // measure 6
1010
0101
0011
0110
,  // measure 7
1100
1010
0110
0101
,  // measure 8
0011
1100
1010
0101
,  // measure 9
1000
0010
1000
0000
0001
0100
0001
0000
1000
0001
1000
0001
1000
0001
1000
0001
,  // measure 10
1000
0000
0000
0010
0100
0000
0000
0000
1000
0000
0000
0100
0001
0000
0000
0000
,  // measure 11
0010
0000
0000
0100
0010
0000
0000
0000
0001
0000
0100
0000
1000
0000
0100
0000
,  // measure 12
0001
0000
0000
0010
0100
0000
0000
0000
1000
0000
0000
0010
0100
0000
0000
0000
,  // measure 13
0010
0000
0000
0001
0010
0000
0000
0000
0100
0000
0010
0000
0100
0000
0001
0000
,  // measure 14
1000
0000
0000
0100
1000
0000
0000
0000
0001
0000
0010
0000
1000
0000
0010
0000
,  // measure 15
0001
0000
0000
0100
0010
0000
0000
0000
0100
0000
0001
0000
0010
0000
0100
0000
,  // measure 16
0010
0000
0000
0001
0010
0000
0000
0010
1000
0000
0000
1000
0100
0000
0000
0100
,  // measure 17
0001
0000
0000
0010
0100
0000
0000
1000
0010
0000
0000
0100
0001
0000
0000
0100
,  // measure 18
0010
0000
0100
0000
1000
0100
0000
0001
0010
0000
0100
0000
1000
0010
0000
1000
,  // measure 19
0100
0000
0010
0000
1000
0010
0000
0001
0100
0000
0010
0000
0100
0000
0001
0000
,  // measure 20
0010
0000
0100
0000
0010
1000
0000
0010
0001
0000
0100
0000
0010
0100
0000
1000
,  // measure 21
0100
0000
0001
0000
1000
0100
0000
1000
0001
0000
0010
0000
0100
0000
0010
0000
,  // measure 22
0001
0000
0100
0000
0010
0100
0000
1000
0100
0000
0001
0000
0010
0100
0000
0010
,  // measure 23
0001
0000
0100
0000
0010
1000
0000
0100
1000
0000
0001
0000
0100
0000
0010
0000
,  // measure 24
0100
0000
1000
0000
0100
0001
0000
0010
0100
0000
1000
0000
0010
1000
0000
0001
,  // measure 25
0100
1000
0100
0001
0010
0100
0010
0000
,  // measure 26
2001
0000
0000
3100
0010
0000
0002
0000
0000
0013
1000
0000
0020
0000
0000
0031
,  // measure 27
0100
0000
0020
0000
0000
0130
1000
0000
0100
0000
0001
0000
0010
0000
0100
0000
,  // measure 28
0020
0000
0000
0031
0100
0000
2000
0000
0000
3100
0001
0000
0020
0000
0000
0130
,  // measure 29
0010
0000
0002
0000
0000
0103
0010
0000
0100
0001
0100
0000
0001
0000
1000
0000
,  // measure 30
0200
0000
0000
1300
0010
0000
0200
0000
0000
1300
0100
0000
0002
0000
0000
0013
,  // measure 31
0100
0000
0020
0000
0000
0031
0100
0000
0010
1000
0010
0000
1000
0000
0100
0000
,  // measure 32
0020
0000
0000
1030
0010
0000
0002
0000
0000
0103
0010
0000
0200
0000
0000
0301
,  // measure 33
2000
0000
3010
0000
0010
0001
0010
0000
0010
0100
1000
0100
0010
0100
1000
0100
,  // measure 34
0010
0001
0001
0001
0010
1010
0000
1000
,  // measure 35
1001
0000
0000
0000
0101
0000
0001
0000
0010
0100
1000
0010
0100
0000
0000
0000
,  // measure 36
0010
0100
0100
0100
0001
1001
0000
1000
,  // measure 37
1010
0000
0000
0000
1000
0100
1000
0000
1000
0010
0001
0010
1000
0000
0000
0000
,  // measure 38
0100
0010
0010
0010
0001
0101
0000
0100
,  // measure 39
0110
0000
0000
0000
1100
0000
1000
0000
0001
0100
0010
0100
0001
0000
0000
0000
,  // measure 40
1000
0100
1000
0000
0001
0010
0001
0000
0100
0010
0100
0010
0100
0010
0100
0000
,  // measure 41
0101
0000
0000
1001
0000
0000
1010
0000
0000
0110
0000
0000
1100
0000
0000
0000
,  // measure 42
1000
0000
0001
0000
0101
0000
0000
0000
0100
0001
0010
0000
0110
0000
0000
0000
,  // measure 43
0100
0000
1000
0000
1010
0000
0000
0000
0010
1000
0001
0100
0010
0000
0000
0000
,  // measure 44
0100
0000
0001
0000
0011
0000
0000
0000
0010
0100
1000
0000
1100
0000
0000
0000
,  // measure 45
1000
0000
0001
0000
0101
0000
0000
0000
0100
0001
0010
0100
2000
0000
0000
0000
,  // measure 46
3001
0010
0100
0001
,  // measure 47
0100
1000
0010
0100
,  // measure 48
1000
0100
0010
1000
,  // measure 49
0100
0010
0001
0100
,  // measure 50
0001
0010
1000
0001
,  // measure 51
0100
1000
0010
0100
,  // measure 52
0010
0001
0010
1000
,  // measure 53
0001
0010
0100
1000
,  // measure 54
0010
0000
0000
0000
0100
0000
0010
0000
0000
0001
0000
0000
0010
0000
0000
1000
,  // measure 55
0000
0000
0100
0000
0000
0010
0000
0000
0100
0000
1000
0000
0010
0000
0000
0000
,  // measure 56
0100
0000
0010
0000
0000
0001
0000
0000
0010
0000
0000
1000
0000
0000
0100
0000
,  // measure 57
0000
0010
0000
0000
0100
0000
1000
0000
0010
0000
0000
0000
0100
0000
0010
0000
,  // measure 58
0000
0001
0000
0000
0010
0000
0000
1000
0000
0000
0100
0000
0000
0010
0000
0000
,  // measure 59
0100
0000
1000
0000
0010
0000
0000
0000
0110
0000
0010
1000
0020
0000
0000
0000
,  // measure 60
0130
0001
0100
0000
0001
0010
0100
1000
0200
0000
0000
0000
1300
0000
0010
0100
,  // measure 61
0010
0000
1000
0000
0010
0100
0010
0001
,  // measure 62
0010
0000
1010
0000
1100
0000
0100
0010
,  // measure 63
0001
0000
0100
0001
0100
0010
0100
0000
,  // measure 64
1010
0000
0101
0000
0001
0010
0100
0000
,  // measure 65
0001
0100
1000
0010
0100
0000
1001
0000
,  // measure 66
0011
0000
0001
0010
1000
0100
0001
0010
,  // measure 67
1000
0000
0100
0000
0001
0000
0010
0000
0110
0000
1000
0100
0010
0100
1000
0000
,  // measure 68
0001
1000
0001
1000
0000
0000
1010
0000
0000
1100
0000
0000
0101
0000
0000
0011
,  // measure 69
0000
0000
0110
0000
0000
0101
0000
0000
0001
1000
0001
1000
0001
0000
0000
0101
,  // measure 70
0000
0000
1010
0000
0000
1100
0000
0000
0011
0000
0000
0101
0000
0000
1010
0000
,  // measure 71
0000
0110
0000
0000
0010
0100
0010
0100
0010
0000
0000
1010
0000
0000
0101
0000
,  // measure 72
0000
0011
0000
0000
1100
0000
0000
0101
0000
0000
1100
0000
0000
1010
0000
0000
,  // measure 73
0100
0010
0100
0010
0200
0000
0000
0000
0310
0000
1000
0100
0010
0001
0010
0100
,  // measure 74
1000
0000
0001
0000
0101
0000
0000
0011
0000
0000
1010
0000
0000
0110
0000
0000
,  // measure 75
1100
0000
0000
0000
0001
0000
0100
0000
0010
0000
0001
0010
1000
0000
0100
0000
,  // measure 76
0010
0000
0001
0100
0010
0000
1000
0000
0100
0000
0010
0100
0001
0000
0100
0000
,  // measure 77
1000
0000
0010
0100
1000
0000
0100
0000
0010
0000
1000
0001
0010
0000
0100
0000
,  // measure 78
1000
0000
0100
0001
0100
0000
1000
0000
0010
0000
0100
0010
1000
0000
0100
0000
,  // measure 79
0010
0001
0100
0010
1000
0000
0010
0000
0100
0000
0010
0001
0010
0000
1000
0000
,  // measure 80
0100
0000
0010
0001
0100
0000
0010
0000
1000
0000
0100
0010
0100
0000
1000
0000
,  // measure 81
0010
0000
0100
0010
0001
0000
0010
0000
1010
0000
0000
0000
0101
0000
0000
0000
,  // measure 82
1100
0000
1001
0000
0001
0100
1000
0010
,  // measure 83
0001
0000
1000
0000
0001
0000
1000
0000
0010
0000
0100
0010
1000
0000
0100
0000
,  // measure 84
0010
0000
0100
0001
0100
0000
1000
0000
0010
0000
0100
0001
0010
0000
0100
0000
,  // measure 85
1000
0000
0010
0100
0010
0000
1000
0000
0010
0000
0001
0010
1000
0000
0001
0000
,  // measure 86
0010
0000
0100
1000
0100
0000
0001
0000
0100
0000
1000
0010
0100
0000
0010
0000
,  // measure 87
1000
0100
0010
0001
0100
0000
0010
0000
1000
0000
0010
0001
0010
0000
1000
0000
,  // measure 88
0100
0000
0010
0001
0100
0000
0010
0000
1000
0000
0100
0010
0100
0000
1000
0000
,  // measure 89
0010
0000
0100
1000
0100
0000
0010
0000
1000
0000
0001
0010
0100
0000
1000
0000
,  // measure 90
0100
0000
0001
0100
1000
0000
0010
0000
0100
0000
0010
1000
0001
0000
0100
0000
,  // measure 91
0010
1000
0001
0011
0000
1001
0000
1010
,  // measure 92
0000
0000
1100
0000
0000
0000
0001
1000
0000
0000
0001
0100
0000
0000
0010
1000
,  // measure 93
0000
0000
0100
0010
0000
0001
0010
0001
0100
1000
0100
0001
0010
0100
0010
0001
,  // measure 94
0010
1000
0001
0100
2000
0000
0000
0000
0000
0000
0000
0000
0000
0000
0000
0000
,  // measure 95
0000
3000
0000
0000
;

//---------------dance-single - ----------------
#NOTES:
     dance-single:
     :
     Medium:
     7:
     0.546,0.567,0.528,0.174,0.124: // measure 1
0000
0000
0000
0000
,  // measure 2
0000
0000
0000
0000
,  // measure 3
0000
0000
0000
0000
,  // measure 4
0000
0000
0000
0000
,  // measure 5
0000
0000
0000
0000
,  // measure 6
1100
0100
0110
0010
,  // measure 7
0011
0001
0101
0100
,  // measure 8
0110
0010
1010
1000
,  // measure 9
1100
0000
0011
0000
1000
0100
0010
0001
,  // measure 10
0010
0011
0001
1001
,  // measure 11
1000
0000
1010
0000
0010
0100
0001
0000
,  // measure 12
0100
0101
0001
0011
,  // measure 13
0010
0000
0110
0000
0100
1000
0010
0000
,  // measure 14
1000
0000
1010
0000
0010
0100
0001
0000
,  // measure 15
0100
0000
0101
0000
0001
0010
0100
0000
,  // measure 16
1100
1010
1001
0101
,  // measure 17
0011
0010
0100
1000
,  // measure 18
0001
0000
1001
0000
1000
0010
1000
0100
,  // measure 19
1000
0000
0110
0000
0100
0010
0001
0100
,  // measure 20
0001
0000
0101
0000
0001
1000
0010
1000
,  // measure 21
0100
0000
1100
0000
0100
0010
0001
0100
,  // measure 22
0001
0000
0101
0000
0001
1000
0010
0000
,  // measure 23
0100
0000
0110
0000
0010
1000
0100
0000
,  // measure 24
1100
0100
0011
0001
,  // measure 25
0101
0000
1010
0000
1000
0010
0100
0000
,  // measure 26
0210
0000
0000
0000
0310
0000
2000
0000
0000
3001
0000
0000
0200
0000
0000
0301
,  // measure 27
0000
0000
0020
0000
0000
0031
0000
0000
1000
0000
0100
0000
0010
0000
0000
0000
,  // measure 28
0200
0000
0000
0000
1300
0000
0020
0000
0000
0130
0000
0000
0020
0000
0000
1030
,  // measure 29
0000
0000
0200
0000
0000
0310
0000
0000
0001
0000
0100
0000
0010
0000
0000
0000
,  // measure 30
0200
0000
0000
0000
0310
0000
2000
0000
0000
3100
0000
0000
0020
0000
0000
0130
,  // measure 31
0000
0000
2000
0000
0000
3010
0000
0000
1000
0000
0010
0000
0200
0000
0000
0000
,  // measure 32
0302
0000
0000
0000
0013
0000
0200
0000
0000
1300
0000
0000
0020
0000
0000
0000
,  // measure 33
2030
0000
3001
0100
0010
0000
1002
0000
,  // measure 34
1003
0100
1000
0100
1000
0100
0000
0010
,  // measure 35
0001
0000
0110
0000
0100
1000
0100
0000
,  // measure 36
1000
0001
1000
0001
1000
0001
0000
0100
,  // measure 37
0010
0000
0010
1000
0100
0010
0001
0000
,  // measure 38
1000
0100
1000
0100
1000
0100
0000
1000
,  // measure 39
0001
0000
0101
0000
0100
0010
1000
0000
,  // measure 40
1001
0000
0110
0000
0100
0010
1000
0000
,  // measure 41
1100
0000
0000
0100
0000
0000
0010
0000
0000
0001
0000
0000
1001
0000
0000
0000
,  // measure 42
1000
0000
1010
0000
0010
0100
0101
0000
,  // measure 43
0001
0000
0000
0000
0011
0000
0000
0000
0010
0100
1000
0000
1100
0000
0000
0000
,  // measure 44
1000
0000
1001
0000
0001
0100
0110
0000
,  // measure 45
0010
0000
0000
0000
1010
0000
0000
0000
1000
0010
1000
0000
0002
0000
0000
0000
,  // measure 46
1003
0010
0100
0001
,  // measure 47
0010
0100
0010
0001
,  // measure 48
0100
0010
0100
0001
,  // measure 49
1000
0100
0010
0100
,  // measure 50
0010
0001
0100
0001
,  // measure 51
1000
0010
1000
0100
,  // measure 52
0010
0100
0010
0001
,  // measure 53
0100
0010
0100
0001
,  // measure 54
1000
0000
0000
0000
0010
0000
1000
0000
0000
0010
0000
0000
1000
0000
0000
0010
,  // measure 55
0000
0000
1000
0000
0000
0010
0000
0000
1000
0000
0001
0000
1000
0000
0000
0000
,  // measure 56
0001
0000
0010
0000
0000
0001
0000
0000
0010
0000
0000
0001
0000
0000
0010
0000
,  // measure 57
0000
0001
0000
0000
0010
0000
0100
0000
0010
0000
0000
0000
0100
0000
1000
0000
,  // measure 58
0000
0100
0000
0000
1000
0000
0000
0100
0000
0000
1000
0000
0000
0100
0000
0000
,  // measure 59
1000
0010
1000
0000
0020
0100
0230
0000
,  // measure 60
0302
0000
1003
0100
2000
0000
3001
1000
,  // measure 61
0001
0000
0100
0000
0010
0000
0100
0001
,  // measure 62
0010
0011
1100
1000
,  // measure 63
0010
0000
0100
0000
0001
0100
0001
0000
,  // measure 64
1001
1010
1000
0001
,  // measure 65
0100
0000
0001
0010
0100
0000
0110
0000
,  // measure 66
1100
0000
1000
0001
1000
0001
0100
0010
,  // measure 67
0100
0010
1000
0100
2000
0010
3010
0000
,  // measure 68
0110
0000
0000
1001
0000
0000
1000
0000
0000
1010
0000
0000
1000
0000
0000
1100
,  // measure 69
0000
0000
0100
0000
0000
0110
0000
0000
0010
0000
0001
0000
0100
0000
0000
0110
,  // measure 70
0000
0000
0010
0000
0000
1010
0000
0000
1000
0000
0000
1100
0000
0000
1000
0000
,  // measure 71
0000
1001
0000
0000
0001
0000
0100
0000
0010
0000
0000
0110
0000
0000
0010
0000
,  // measure 72
0000
1010
0000
0000
1000
0000
0000
1001
0000
0000
0001
0000
0000
0011
0000
0000
,  // measure 73
0001
1000
0002
0000
0000
1003
0100
0010
,  // measure 74
0001
0000
0000
0000
1010
0000
0000
1000
0000
0000
0001
0000
0000
0100
0000
0000
,  // measure 75
0110
0000
0100
0001
0010
0000
0100
0000
,  // measure 76
1000
0010
1000
0000
0001
0000
0100
0001
,  // measure 77
0010
0100
1000
0000
0010
0000
1000
0001
,  // measure 78
0100
0000
0001
0000
0010
0000
0100
0010
,  // measure 79
0001
0000
0100
0000
0010
0000
0100
0001
,  // measure 80
1000
0100
1000
0000
0010
0000
1000
0100
,  // measure 81
0010
0100
0010
0000
0011
0000
0101
0000
,  // measure 82
1010
0000
1100
0000
1000
0001
0100
0010
,  // measure 83
0100
0000
0001
0010
0100
0000
0010
0000
,  // measure 84
0100
0010
0001
0100
0010
0000
0100
0000
,  // measure 85
0001
1000
0100
1000
0010
0000
1000
0000
,  // measure 86
0001
0100
0010
0100
0001
0000
0010
0001
,  // measure 87
0010
0100
0010
0001
0100
0000
0010
0000
,  // measure 88
0100
0001
1000
0100
1000
0000
0010
0000
,  // measure 89
1000
0100
0010
0100
0010
0000
0100
0000
,  // measure 90
0010
0001
0100
0010
0100
0000
0001
0000
,  // measure 91
0100
0000
0010
1010
0000
1100
0000
1001
,  // measure 92
0000
0101
0000
0011
0000
0110
0000
1100
,  // measure 93
0000
1010
0000
1000
0100
0010
0001
0010
,  // measure 94
0100
1000
0020
0000
0000
0000
0000
0000
,  // measure 95
0000
0030
0000
0000
;

//---------------dance-single - ----------------
#NOTES:
     dance-single:
     :
     Easy:
     5:
     0.375,0.472,0.348,0.120,0.000: // measure 1
0000
0000
0000
0000
,  // measure 2
0000
0000
0000
0000
,  // measure 3
0000
0000
0000
0000
,  // measure 4
0000
0000
0000
0000
,  // measure 5
0000
0000
0000
0000
,  // measure 6
1000
0001
0100
0001
,  // measure 7
0010
0100
1000
0001
,  // measure 8
1000
0010
0100
0010
,  // measure 9
2000
3200
0310
0100
,  // measure 10
0010
0100
0001
1000
,  // measure 11
0010
1000
0000
0001
,  // measure 12
0010
0100
0010
0001
,  // measure 13
0100
0010
0000
0100
,  // measure 14
0001
1000
0100
1000
,  // measure 15
0010
1000
0000
0001
,  // measure 16
0100
0001
0010
0100
,  // measure 17
1000
1010
0110
0101
,  // measure 18
0001
1000
0010
0100
,  // measure 19
0001
0010
0000
0001
,  // measure 20
1000
0010
0100
0001
,  // measure 21
0010
0100
0000
0010
,  // measure 22
0001
0100
0010
0100
,  // measure 23
0001
1000
0010
1000
,  // measure 24
0001
0010
0100
0010
,  // measure 25
0002
2000
0000
3003
,  // measure 26
1000
0000
0010
0000
0000
0100
0000
0000
,  // measure 27
0001
0000
0000
0010
0000
0000
0100
0000
,  // measure 28
0010
0000
0000
0001
0000
0000
1000
0000
,  // measure 29
0000
0010
0000
0000
0100
0000
0001
0000
,  // measure 30
0010
0000
0000
0100
0000
0000
0010
0000
,  // measure 31
0000
0001
0000
0000
0100
0000
0010
0000
,  // measure 32
0100
0000
0000
0001
0000
0000
1000
0000
,  // measure 33
0002
1003
0010
0200
,  // measure 34
0310
0000
0100
0000
0101
0000
0000
1001
,  // measure 35
0000
1000
0001
0000
,  // measure 36
1000
0000
0010
0000
0110
0000
0000
0101
,  // measure 37
0000
0001
0010
0100
,  // measure 38
1000
0000
0010
0000
1010
0000
0000
0110
,  // measure 39
0000
0100
0001
0000
,  // measure 40
0010
0001
1001
0000
,  // measure 41
1010
0000
0000
0110
0000
0000
0101
0000
,  // measure 42
1001
0000
1010
0000
1000
0001
0101
0000
,  // measure 43
0010
0000
0110
0000
0010
1000
1100
0000
,  // measure 44
0001
0000
0011
0000
0010
0100
1100
0000
,  // measure 45
0001
0000
1001
0000
1000
0001
0201
0000
,  // measure 46
0310
0100
0001
0010
,  // measure 47
0100
0010
0001
1000
,  // measure 48
0010
1000
0100
1000
,  // measure 49
0001
0100
0010
0100
,  // measure 50
0001
0010
0100
1000
,  // measure 51
0100
1000
0010
0100
,  // measure 52
0001
0010
0100
1000
,  // measure 53
0001
0100
0010
0100
,  // measure 54
0002
0003
0000
0000
0000
0000
0000
0000
0000
0000
0000
0000
0000
0000
0000
0000
0000
0000
0000
0000
0000
0000
0000
0000
0000
0000
0000
0000
0000
0000
0000
0000
0000
0000
0000
0000
0000
0000
0000
0000
0000
0000
0000
0000
0000
0000
0000
0000
0000
0000
0000
0000
0000
0000
0000
0000
0000
0000
0000
0000
0000
0000
0000
0000
0000
0000
0000
0000
0000
0000
0000
0000
1000
0000
0000
0000
0000
0000
0000
0000
0000
0000
0000
0000
0000
0000
0000
0000
0000
0000
0000
0000
0000
0000
0000
0000
0000
0000
0000
0000
0000
0000
0000
0000
0000
0000
0000
0000
0000
0000
0000
0000
0000
0000
0000
0000
0000
0000
0000
0000
0000
0000
0000
0000
0000
0000
0000
0000
0000
0000
0000
0000
0000
0000
0000
0000
0000
0000
0000
0000
0000
0000
0000
0000
0010
0000
0000
0000
0000
0000
0000
0000
0000
0000
0000
0000
0000
0000
0000
0000
0000
0000
0000
0000
0000
0000
0000
0000
0000
0000
0000
0000
0000
0000
0000
0000
0000
0000
0000
0000
0000
0000
0000
0000
0000
0000
0000
0000
0000
0000
0000
0000
,  // measure 55
0000
0100
0000
0000
0001
0000
0010
0000
,  // measure 56
0000
0100
0000
0000
0010
0000
0000
0001
,  // measure 57
0000
0000
0100
0000
0010
0000
0000
1000
,  // measure 58
0000
0000
0001
0000
0000
1000
0000
0000
,  // measure 59
0010
0100
0002
1003
,  // measure 60
0020
0230
0302
0013
,  // measure 61
0001
1000
0010
1000
,  // measure 62
0100
1100
1010
1000
,  // measure 63
0001
0100
0001
0010
,  // measure 64
0011
0110
0100
0010
,  // measure 65
0001
0100
0010
1010
,  // measure 66
1001
0001
0010
0100
,  // measure 67
1000
0100
0020
0031
,  // measure 68
1010
0000
0000
1001
0000
0000
0101
0000
,  // measure 69
0000
0011
0000
0000
0110
0000
0110
0000
,  // measure 70
0000
0101
0000
0000
1001
0000
0000
1010
,  // measure 71
0000
0000
1100
0000
1010
0000
0000
0110
,  // measure 72
0000
0000
0101
0000
0000
0011
0000
0000
,  // measure 73
1001
2010
0000
3001
,  // measure 74
0100
0000
0110
0000
0000
0101
0000
0000
,  // measure 75
1001
1010
1000
0001
,  // measure 76
0010
0100
0010
0001
,  // measure 77
0100
0001
0010
0100
,  // measure 78
1000
0010
1000
0001
,  // measure 79
0100
0010
0100
0001
,  // measure 80
0010
0100
0010
0001
,  // measure 81
0100
0001
1000
0010
,  // measure 82
1000
0100
0010
0001
,  // measure 83
0100
0010
0100
0001
,  // measure 84
0010
0100
1000
0010
,  // measure 85
1000
0001
0100
0001
,  // measure 86
0010
0100
0010
0001
,  // measure 87
0100
0001
1000
0010
,  // measure 88
1000
0001
0010
0100
,  // measure 89
0010
0001
0100
0010
,  // measure 90
1000
0001
1000
0001
,  // measure 91
0100
0000
0000
0010
0000
0100
0000
0001
,  // measure 92
0000
1000
0000
1100
0000
1010
0000
0101
,  // measure 93
0000
0011
0000
0010
0002
0000
2003
0000
,  // measure 94
3020
0230
0000
0000
,  // measure 95
0000
0300
0000
0000
;
