#TITLE:When You Wish Upon A Star;
#SUBTITLE:;
#ARTIST:Lolita;
#TITLETRANSLIT:;
#SUBTITLETRANSLIT:;
#ARTISTTRANSLIT:;
#CREDIT:;
#BANNER:When You Wish Upon A Star.png;
#BACKGROUND:When You Wish Upon A Star-bg.png;
#LYRICSPATH:;
#CDTITLE:;
#MUSIC:When You Wish Upon A Star.mp3;
#OFFSET:-1.743;
#SAMPLESTART:27.290;
#SAMPLELENGTH:14.820;
#SELECTABLE:YES;
#BPMS:0.000=150.000;
#STOPS:;
#BGCHANGES:;

//---------------dance-single - ----------------
#NOTES:
     dance-single:
     :
     Hard:
     8:
     0.562,0.541,0.273,0.603,0.099:
0000
0000
0000
0000
,
0000
0000
0000
0000
,
0000
0000
0000
0000
,
0000
0000
0000
0000
,
0000
0000
0000
0000
,
0000
0000
0000
0000
,
0001
0000
0100
0020
0000
1030
0000
1001
,
0000
1000
0100
0110
0000
0010
0011
0000
,
0001
0100
0001
0100
0020
0000
0000
0000
1030
0000
0100
0000
0001
0000
0200
0000
,
0000
1300
0010
0002
0000
0010
0013
0000
,
1000
0010
1000
0010
0100
0000
0001
0000
2000
0000
0000
0000
3001
0000
0200
0000
,
0000
0310
1000
0200
0000
1000
1300
0000
,
0001
0100
0010
1000
0002
0000
0000
0000
1003
0000
0010
0000
0001
0000
0020
0000
,
0000
1030
0100
0002
0000
0100
0103
0000
,
1000
0010
0100
0001
1000
0000
0010
0000
0100
0000
0001
0000
0010
0000
1000
0000
,
0002
0000
1003
0000
0001
0100
0010
0000
,
1001
0000
0001
0100
0000
1000
0000
0200
,
0000
0302
0000
0023
0000
0100
0130
0000
,
0110
0000
0010
0100
0000
1000
0000
0020
,
0000
0032
0000
0023
0000
1000
1030
0000
,
0010
1000
0000
0200
0000
2300
0000
3001
,
0100
0000
0010
1000
0000
1001
0000
0001
,
0200
1300
0200
0301
,
0020
0000
1030
0000
0010
0001
0100
0000
,
0110
0000
0010
1000
0000
0001
0000
0200
,
0000
0000
0320
0000
0000
0000
2030
0000
0000
0000
3001
0100
0001
0000
0000
0000
,
1010
0000
0010
1000
0000
0100
0000
2000
,
0000
0000
3002
0000
0000
0000
0203
0000
0000
0000
0310
1000
0010
0000
0000
0000
,
0101
0000
0001
0020
0000
0130
0000
1000
,
0001
0000
0100
0010
0000
1001
0000
0010
,
0200
0301
0020
0130
,
2000
0000
0000
0000
3001
0000
0000
0000
0100
0000
0010
0000
1000
0001
0000
0000
,
1001
0000
0001
0200
0000
0310
0000
1000
,
0001
0000
1001
0000
0001
0100
1000
0000
,
1100
0000
1000
0200
0000
0302
0000
0023
,
0000
0000
0100
0000
0130
0000
0000
0000
1000
0100
1000
0000
0001
0100
0001
0000
,
1000
0010
0001
0200
0000
2300
0000
0001
,
3001
1001
0101
0110
,
2010
0010
0100
3001
,
0012
0000
0013
0000
0001
0100
1000
0000
,
0110
0000
0010
1000
0000
0001
0000
0200
,
0000
0320
0000
2030
0000
0001
3001
0000
,
1001
0000
1000
0100
0000
0010
0000
0200
,
0000
2300
0000
3002
0000
0100
0103
0000
,
0010
1000
0000
0002
0000
1003
0000
0100
,
1000
0000
0010
0100
0000
1001
0000
0001
,
0200
1300
0020
0031
,
2000
0000
3001
0000
0100
0010
1000
0000
,
1010
0000
1100
0000
1000
0100
0001
0100
,
0000
1000
0010
0002
0000
0010
0013
0000
,
1010
0000
1100
0000
1000
0010
0001
0010
,
0000
1000
0100
0002
0000
0100
0103
0000
,
0101
0000
1100
0000
1000
0010
0001
0100
,
0000
0001
0010
2000
0000
0001
3001
0000
,
1001
0000
0101
0000
0001
0100
1000
0010
,
0002
0000
1003
0000
0001
0100
0010
0000
,
1000
0010
1000
0010
0200
0000
0000
0000
0301
0000
0010
0000
1000
0000
0020
0000
,
0000
0031
0100
2000
0000
0100
3100
0000
,
0001
0100
0001
0100
0010
0000
1000
0000
0002
0000
0000
0000
1003
0000
0020
0000
,
0000
0130
0001
0020
0000
0001
0031
0000
,
1000
0010
0100
0001
2000
0000
0000
0000
3001
0000
0100
0000
1000
0000
0200
0000
,
0000
0301
0010
2000
0000
0010
3010
0000
,
0001
0100
0010
1000
0001
0000
0100
0000
0010
0000
1000
0000
0100
0000
0001
0000
,
2000
0000
3001
0000
1000
0010
0100
0000
;

//---------------dance-single - ----------------
#NOTES:
     dance-single:
     :
     Beginner:
     1:
     0.088,0.120,0.000,0.000,0.000: // measure 1
0000
0000
0000
0000
,  // measure 2
0000
0000
0000
0000
,  // measure 3
0000
0000
0000
0000
,  // measure 4
0000
0000
0000
0000
,  // measure 5
0000
0000
0000
0000
,  // measure 6
0000
0000
0000
0000
,  // measure 7
0000
0000
0000
0000
,  // measure 8
0000
0000
0000
0000
,  // measure 9
1000
0000
0000
0000
,  // measure 10
0001
0000
0000
0000
,  // measure 11
0100
0000
0000
0000
,  // measure 12
0010
0000
0000
0000
,  // measure 13
1000
0000
0000
0000
,  // measure 14
0001
0000
0000
0000
,  // measure 15
0100
0000
0000
0000
,  // measure 16
0001
0000
0000
0000
,  // measure 17
0010
0000
0000
0000
,  // measure 18
0100
0000
0000
0000
,  // measure 19
1000
0000
0000
0000
,  // measure 20
0010
0000
0000
0000
,  // measure 21
0100
0000
0000
0000
,  // measure 22
0001
0000
0000
0000
,  // measure 23
1000
0000
1000
0000
,  // measure 24
1000
0000
0000
0000
,  // measure 25
0010
0000
0000
0000
,  // measure 26
0100
0000
0000
0000
,  // measure 27
0001
0000
0000
0000
,  // measure 28
1000
0000
0000
0000
,  // measure 29
0100
0000
0000
0000
,  // measure 30
0010
0000
0000
0000
,  // measure 31
0001
0000
0001
0000
,  // measure 32
0001
0000
0000
0000
,  // measure 33
0010
0000
0000
0000
,  // measure 34
0100
0000
0000
0000
,  // measure 35
1000
0000
0000
0000
,  // measure 36
0001
0000
0000
0000
,  // measure 37
0100
0000
0000
0000
,  // measure 38
0010
0000
0000
0000
,  // measure 39
1000
0000
0000
0000
,  // measure 40
0001
0000
0000
0000
,  // measure 41
0100
0000
0000
0000
,  // measure 42
0010
0000
0000
0000
,  // measure 43
1000
0000
0000
0000
,  // measure 44
0100
0000
0000
0000
,  // measure 45
0010
0000
0000
0000
,  // measure 46
0001
0000
0000
0000
,  // measure 47
1000
0000
1000
0000
,  // measure 48
1000
0000
0000
0000
,  // measure 49
0010
0000
0000
0000
,  // measure 50
0100
0000
0100
0000
,  // measure 51
0100
0000
0000
0000
,  // measure 52
0001
0000
0001
0000
,  // measure 53
0001
0000
0000
0000
,  // measure 54
0010
0000
0010
0000
,  // measure 55
0010
0000
0010
0000
,  // measure 56
0010
0000
0000
0000
,  // measure 57
0100
0000
0000
0000
,  // measure 58
1000
0000
0000
0000
,  // measure 59
0001
0000
0000
0000
,  // measure 60
0100
0000
0000
0000
,  // measure 61
0010
0000
0000
0000
,  // measure 62
1000
0000
0000
0000
,  // measure 63
0001
0000
0000
0000
,  // measure 64
1000
0000
1000
1000
;

//---------------dance-single - ----------------
#NOTES:
     dance-single:
     :
     Easy:
     4:
     0.288,0.331,0.057,0.104,0.000: // measure 1
0000
0000
0000
0000
,  // measure 2
0000
0000
0000
0000
,  // measure 3
0000
0000
0000
0000
,  // measure 4
0000
0000
0000
0000
,  // measure 5
0000
0000
0000
0000
,  // measure 6
0000
0000
0000
0000
,  // measure 7
0000
0000
0000
0000
,  // measure 8
0000
0000
0000
0000
,  // measure 9
1000
0100
0010
0001
,  // measure 10
1000
0001
0100
0000
,  // measure 11
0001
0010
0100
1000
,  // measure 12
0001
1000
0100
0000
,  // measure 13
1000
0010
0001
0010
,  // measure 14
1000
0100
0001
0000
,  // measure 15
1000
0010
0001
0100
,  // measure 16
1000
1000
0001
0001
,  // measure 17
1001
0001
0100
0010
,  // measure 18
0100
0001
0010
0000
,  // measure 19
1000
0010
0100
0010
,  // measure 20
1000
0100
0010
0000
,  // measure 21
0100
1000
0001
0100
,  // measure 22
0010
0100
0001
0010
,  // measure 23
0200
0300
2000
3000
,  // measure 24
0002
0003
0100
0100
,  // measure 25
0110
0010
1000
0100
,  // measure 26
1000
0001
0020
0031
,  // measure 27
0100
0010
1000
0100
,  // measure 28
1000
0001
0200
0301
,  // measure 29
0010
0100
1000
0100
,  // measure 30
0010
0001
0100
0010
,  // measure 31
2000
3000
0002
0003
,  // measure 32
0200
0300
0010
0010
,  // measure 33
1010
0010
0100
0001
,  // measure 34
1000
0000
0001
0000
,  // measure 35
1000
0100
0010
0001
,  // measure 36
0010
0100
1000
0000
,  // measure 37
0001
0100
0010
1000
,  // measure 38
0001
0010
0100
1000
,  // measure 39
0001
0001
0001
0001
,  // measure 40
1000
1000
1000
0001
,  // measure 41
1001
1000
0010
0100
,  // measure 42
0010
1000
0100
0000
,  // measure 43
0010
0100
1000
0001
,  // measure 44
0010
0001
0100
0000
,  // measure 45
0010
1000
0100
0001
,  // measure 46
0100
1000
0010
0001
,  // measure 47
0020
0030
2000
3000
,  // measure 48
0002
0003
0100
0100
,  // measure 49
1001
0001
0100
0010
,  // measure 50
0100
0001
0010
0000
,  // measure 51
0100
1000
0010
1000
,  // measure 52
0100
0010
0001
0000
,  // measure 53
0100
0001
0010
0100
,  // measure 54
1000
0001
0100
0000
,  // measure 55
0010
1000
0100
0001
,  // measure 56
0010
0000
1000
0000
,  // measure 57
0001
0010
0100
1000
,  // measure 58
0001
1000
0010
0000
,  // measure 59
1000
0100
0010
0001
,  // measure 60
1000
0001
0010
0000
,  // measure 61
0001
0100
1000
0100
,  // measure 62
0001
0010
1000
0000
,  // measure 63
0001
0100
1000
0010
,  // measure 64
0001
0001
1000
1001
;

//---------------dance-single - ----------------
#NOTES:
     dance-single:
     :
     Medium:
     6:
     0.439,0.511,0.236,0.283,0.000: // measure 1
0000
0000
0000
0000
,  // measure 2
0000
0000
0000
0000
,  // measure 3
0000
0000
0000
0000
,  // measure 4
0000
0000
0000
0000
,  // measure 5
0000
0000
0000
0000
,  // measure 6
0000
0000
0000
0000
,  // measure 7
0000
0000
0000
0000
,  // measure 8
0000
0000
0000
0000
,  // measure 9
1000
0100
0020
0000
0001
0000
0130
0000
,  // measure 10
0010
0001
0100
0000
0010
0000
1001
0000
,  // measure 11
1000
0100
0010
0000
0200
0000
1300
0000
,  // measure 12
0001
0100
0010
0000
0100
0000
1001
0000
,  // measure 13
0001
0010
0200
0000
1000
0000
0310
0000
,  // measure 14
0100
1000
0010
0000
0100
0000
1001
0000
,  // measure 15
0001
0010
0001
0010
0100
1000
0100
1000
,  // measure 16
0002
0000
1003
0000
0001
0100
0010
0000
,  // measure 17
1001
0000
0001
0100
0000
0010
0000
0100
,  // measure 18
0000
0001
0000
2000
0000
0000
3001
0000
,  // measure 19
1000
0000
0100
1000
0000
0010
0000
0100
,  // measure 20
0000
0001
0000
0200
0000
0000
0310
0000
,  // measure 21
1000
0100
0000
0001
0000
0100
0000
2000
,  // measure 22
0000
3000
0010
0001
0000
0010
0000
2000
,  // measure 23
0000
3010
0002
0013
,  // measure 24
2000
0000
3001
0000
0100
0010
1000
0000
,  // measure 25
1001
0000
0001
0100
0000
0010
0000
0100
,  // measure 26
0000
0001
0000
0020
0000
0100
0130
0000
,  // measure 27
0110
0000
0010
0100
0000
1000
0000
0001
,  // measure 28
0000
0100
0000
0002
0000
1000
1003
0000
,  // measure 29
1001
0000
0001
0100
0000
0010
0000
0200
,  // measure 30
0000
0000
0301
0010
0000
0100
0000
2000
,  // measure 31
0000
3010
0002
0013
,  // measure 32
2000
0000
3100
0000
0001
0100
1000
0000
,  // measure 33
1001
0001
0100
0010
,  // measure 34
0100
0001
0100
0000
0010
1000
0010
0000
,  // measure 35
1000
0100
0010
0001
,  // measure 36
1000
0100
1000
0000
0001
0100
0001
0100
,  // measure 37
0010
0110
0010
1010
,  // measure 38
1000
1001
0001
0101
,  // measure 39
0001
1000
0001
1000
0001
1000
0001
1000
,  // measure 40
0010
0100
0010
0100
0010
0000
1001
0000
,  // measure 41
1001
0000
0001
0100
0000
0010
0000
0100
,  // measure 42
0000
0001
0000
2000
0000
0000
3001
0000
,  // measure 43
1000
0000
0100
1000
0000
0010
0000
0100
,  // measure 44
0000
0001
0000
0200
0000
0000
0310
0000
,  // measure 45
1000
0100
0000
0001
0000
0100
0000
2000
,  // measure 46
0000
3000
0010
0001
0000
0010
0000
2000
,  // measure 47
0000
3010
0002
0013
,  // measure 48
2000
0000
3001
0000
0100
0010
1000
0000
,  // measure 49
1001
0000
0101
0000
0001
0100
0010
0000
,  // measure 50
0100
0010
1000
0000
0002
0000
1003
0000
,  // measure 51
1001
0000
1100
0000
1000
0100
0010
0000
,  // measure 52
0100
0010
0001
0000
0200
0000
0310
0000
,  // measure 53
1001
0000
0110
0000
0001
0100
1000
0000
,  // measure 54
1000
0100
0001
0000
2000
0000
3001
0000
,  // measure 55
1001
0000
0110
0000
0001
0100
1000
0100
,  // measure 56
0002
0000
1003
0000
0001
0010
0100
0000
,  // measure 57
1000
0100
0020
0000
0001
0000
0130
0000
,  // measure 58
0010
0001
0100
0000
0010
0000
1001
0000
,  // measure 59
1000
0100
0010
0000
0200
0000
1300
0000
,  // measure 60
0001
0100
0010
0000
0100
0000
1001
0000
,  // measure 61
0001
0010
0200
0000
1000
0000
0310
0000
,  // measure 62
0100
1000
0010
0000
0100
0000
1001
0000
,  // measure 63
0001
0010
0001
0010
0100
1000
0100
1000
,  // measure 64
0002
0000
1003
0000
0001
0100
0010
0000
;
