#TITLE:Trip Machine;
#SUBTITLE:(xac nanoglide mix);
#ARTIST:DE-SIRE remixed by xac;
#TITLETRANSLIT:;
#SUBTITLETRANSLIT:;
#ARTISTTRANSLIT:;
#CREDIT:;
#BANNER:;
#BACKGROUND:;
#LYRICSPATH:;
#CDTITLE:;
#MUSIC:TripMachineRmx.mp3;
#OFFSET:-0.398;
#SAMPLESTART:11.5;
#SAMPLELENGTH:11.560;
#SELECTABLE:YES;
#BPMS:0.000=170.000,160.000=85.500,164.000=170.000;
#STOPS:;
#BGCHANGES:;

//---------------dance-single - ----------------
#NOTES:
     dance-single:
     :
     Hard:
     9:
     0.589,0.742,0.185,0.305,0.046:
0000
0000
0000
0000
,
0000
0000
0000
0000
,
0000
0000
0000
0000
,
0000
0000
0000
0000
,
2000
3002
0203
0320
,
2030
3200
0320
0032
,
2000
0000
0000
0000
,
0000
0000
0000
3003
,
0001
0100
1000
0000
0001
0010
1000
0000
,
0100
0010
0001
0100
0010
1000
0100
0000
,
1000
0100
0001
0000
1000
0010
0001
0000
,
1000
0010
0100
0001
0010
0001
1000
0000
,
0101
0000
1001
0000
1000
0010
0001
0010
,
1000
0100
0010
0001
0100
0010
1000
0001
,
0000
1000
0001
0000
0001
0010
1000
0010
,
0100
0001
0100
1000
0010
0100
0001
0000
,
1000
0010
0100
1000
0100
0001
0010
1000
,
0010
0001
0100
0010
1000
0001
0100
0000
,
0001
0100
0010
0001
0010
1000
0100
0010
,
1000
0010
0001
0100
0010
1000
0100
0000
,
0010
0001
0100
0000
1000
0100
0001
0000
,
0010
0010
0100
0100
1000
1000
0010
0100
,
0000
0001
0100
0000
0001
0010
1000
0000
,
0011
0000
0000
1001
0000
0000
1100
0000
0000
1001
0000
0000
1010
0000
0000
0000
,
1000
0200
0001
0010
,
1000
0010
0001
1000
,
0310
0000
0001
0100
1000
0010
0100
0001
,
0010
0000
0100
1000
0010
0100
0010
1000
,
0001
0200
1000
0010
,
0001
0010
1000
0001
,
0310
0000
1000
0100
0001
0010
0100
1000
,
0010
0000
1000
0010
0100
0001
0010
0100
,
0010
0210
0320
2030
,
3002
0203
2300
3002
,
0013
0000
0001
0100
1000
0100
0001
0010
,
0100
0000
1000
0100
0001
0100
1000
0010
,
0100
0000
0000
0000
0101
0000
0000
0000
0001
0000
0000
1000
0000
0000
0010
0000
,
1010
0000
0000
0000
1000
0000
0001
0000
1000
0100
1000
0000
0001
0000
1000
0000
,
0100
0000
0010
0000
0010
0001
0000
0001
,
0100
0000
0000
1000
0000
0000
0010
0000
0001
0000
0100
0000
0010
0000
1000
0000
,
2001
0000
0010
0000
3200
0000
0001
0000
0320
0000
0031
1000
0010
0001
0100
0010
,
1000
0100
0001
0000
0001
0100
1000
0000
,
0010
0100
0010
1000
0100
0010
0001
0000
,
0100
1000
0100
0000
0001
0010
1000
0000
,
0010
0001
0100
0001
0010
0100
1000
0010
,
2000
0000
0100
0000
3010
0100
0010
0000
,
1000
0010
0100
0000
0001
0010
0001
0100
,
0000
0110
0000
1010
0000
1001
0000
0001
,
1000
0100
0001
1000
0010
0001
0100
0010
,
1000
0100
0010
0000
0100
1000
0010
0000
,
0100
0001
0010
1000
0010
0001
0100
0000
,
0010
1000
0100
0000
0010
0001
0100
0000
,
0010
1000
0100
1000
0010
0100
0001
0010
,
0002
0000
0100
0000
0013
0100
1000
0010
,
1010
0000
0100
0001
0010
0001
0100
0001
,
0101
0000
0010
0000
1000
0100
0000
1000
,
0010
0000
0000
0110
0000
0000
0101
0000
0000
1001
0000
0000
1100
0000
1000
0000
,
0001
0000
1000
1000
0100
0100
0001
0001
,
0100
0100
1000
1000
0010
0010
0100
0100
,
0001
0000
1000
0010
0100
0010
1000
0100
,
0010
0000
0001
0100
0001
0010
0100
1000
,
0010
0000
0100
0001
0010
1000
0010
0001
,
0100
0010
1000
0100
0001
0100
1000
0010
,
0100
0000
0001
1000
0100
0010
1000
0010
,
0001
0000
0100
0010
0100
0001
0010
1000
,
0010
0002
0100
0023
,
1000
0032
0203
0020
,
0000
0000
0000
0000
,
0000
0000
0000
0000
,
0330
2000
0100
3020
,
0001
2030
3200
0020
,
0000
0000
0000
0000
,
0000
0000
0000
0000
,
0330
0000
0000
0000
;

//---------------dance-single - ----------------
#NOTES:
     dance-single:
     :
     Challenge:
     9:
     0.695,0.775,0.748,0.148,0.240:
0101
0000
0000
1000
0010
0000
0000
0000
,
1100
0000
0000
0010
0001
0000
0000
0000
,
1001
0000
0000
0100
0010
0000
0000
0000
,
0101
0000
0000
1000
0100
0000
0000
0000
,
1100
0000
0000
0001
1000
0000
0000
0000
,
1010
0000
0000
0100
0001
0000
0000
0000
,
0220
0000
0000
0330
,
1000
0000
0001
0000
0100
0000
0001
0000
1000
0100
1000
0100
1000
0000
0001
0000
,
0010
0100
1000
0010
0000
1010
0000
0101
,
0000
0011
0000
1100
1000
0100
0010
0001
,
0000
1000
0010
0001
0000
0011
0000
1010
,
0000
1100
0000
0101
0001
0100
1000
0010
,
0100
0001
0010
0100
0000
1100
0000
0011
,
0000
1010
0000
0101
0001
1000
0010
0100
,
0000
0001
0010
1000
0000
1010
0000
0011
,
0000
0101
0000
1100
1000
0100
0001
0010
,
0100
1000
0010
1000
0000
1100
0000
0101
,
0000
1010
0000
0011
0001
0100
1000
0001
,
0000
0010
1000
0100
0000
0011
0000
1010
,
0000
0101
0000
1100
1000
0100
0001
1000
,
0010
0001
0100
0010
0000
0110
0000
1001
,
0000
0110
0000
1001
1000
0100
0010
0100
,
0000
1000
0010
0100
0000
0001
0010
0000
,
0110
0000
0000
1100
0000
0000
0011
0000
0000
1001
0000
0000
0101
0000
0001
0000
,
1000
0000
0000
0000
0001
0100
0000
0000
0001
0010
0000
0000
0100
1000
0000
0000
,
0010
0100
0000
0000
0010
1000
0000
0000
0100
0001
0000
0000
0200
0000
0000
0000
,
1300
0000
0000
0000
0001
0000
0100
0000
0010
1000
0010
0000
0100
0000
0001
0000
,
0010
0000
0000
0000
0100
0000
1000
0000
0001
0010
0001
0000
1000
0000
0100
0000
,
0010
0000
0000
0000
0100
1000
0000
0000
0100
0010
0000
0000
0001
1000
0000
0000
,
0010
0001
0000
0000
0010
1000
0000
0000
0100
0010
0000
0000
0002
0000
0000
0000
,
0103
0000
0000
0000
0001
0000
0010
0000
0100
1000
0100
0000
0010
0000
0001
0000
,
1000
0000
0000
0000
0010
0000
0100
0000
0001
0100
0001
0000
1000
0000
0100
0000
,
0010
0000
0000
0000
0110
0000
0000
0000
0100
1000
0000
0000
0100
0010
0000
0000
,
0001
0010
0000
0000
0100
1000
0000
0000
0010
0100
0000
0000
0002
0000
0000
0000
,
0013
0000
0000
0000
0100
0000
1000
0000
0001
0100
0001
0000
1000
0000
0100
0000
,
0010
0000
0000
0000
0100
0000
1000
0000
0001
0100
0001
0000
1000
0000
0010
0000
,
0100
0000
0000
0000
0001
0000
0010
0000
0110
0000
0000
1100
0000
0000
0110
0000
,
0001
0000
0000
0000
1000
0000
0010
0000
1000
0001
1000
0000
0001
0100
0001
0100
,
0010
0000
1010
0100
0001
0011
0000
0100
,
1000
0000
0000
0001
0000
0000
1000
0000
0100
0000
0001
0000
1000
0000
0010
0000
,
0002
0023
2030
3002
0203
2300
3010
0101
,
0010
1000
0100
0010
0100
1000
0010
0000
,
0100
0001
0010
0001
0100
0010
0100
0000
,
1010
0100
0001
0000
1001
0100
0001
0000
,
0001
0010
1000
0001
0100
1000
0010
0001
,
0010
0000
1010
0000
0010
1000
0100
0000
,
1000
0001
0010
0000
0100
1000
0010
0100
,
0000
0110
0000
0101
0000
1001
0000
1010
,
0010
0001
1000
0100
0001
0010
1000
0010
,
0001
0000
1100
0000
1000
0001
0100
0000
,
0001
0010
0100
0000
1000
0010
0100
0000
,
0011
0100
1000
0000
1001
0100
1000
0000
,
0001
0010
1000
0001
0100
1000
0010
0001
,
0020
0000
0000
0000
1030
0000
0000
0000
1100
0000
0000
0101
0000
0000
1100
0000
,
0100
0010
0001
1000
0001
1000
0010
1000
,
0100
0010
0011
0001
0100
0110
0100
0010
,
1010
0000
0000
1001
0000
0000
0101
0000
0001
0000
1000
0000
0100
0000
0010
0000
,
0001
0000
0010
0000
0100
1000
0000
0000
0001
0100
0000
0000
0010
1000
0000
0000
,
0100
0010
0000
0000
0001
1000
0000
0000
0100
0010
0000
0000
0001
0100
0000
0000
,
0101
0000
0000
0000
0010
0000
1000
0000
0100
1000
0100
0000
1000
0000
0010
0000
,
0100
0000
0000
0000
0001
0000
0010
0000
0001
0100
0001
0000
0010
0000
0100
0000
,
1000
0000
0000
0000
1000
0100
0000
0000
0010
0001
0000
0000
1000
0010
0000
0000
,
0100
0001
0000
0000
1000
0010
0000
0000
1000
0100
0000
0000
0010
0001
0000
0000
,
0011
0000
0000
0000
0100
0000
1000
0000
0001
0010
0001
0000
1000
0000
0010
0000
,
0100
0000
0000
0000
0001
0000
1000
0000
0010
1000
0010
0000
1000
0000
0100
0000
,
0010
0011
0101
1010
,
1100
0101
1010
2002
,
0000
0000
0000
0000
,
0000
0000
0000
0000
,
3003
1010
0101
0011
,
1010
0011
1010
0220
,
0000
0000
0000
0000
,
0000
0000
0000
0000
,
0330
0000
0000
0000
;

//---------------dance-single - ----------------
#NOTES:
     dance-single:
     :
     Easy:
     5:
     0.350,0.438,0.046,0.046,0.000: // measure 1
0000
0000
0000
0000
,  // measure 2
0000
0000
0000
0000
,  // measure 3
0000
0000
0000
0000
,  // measure 4
0000
0000
0000
0000
,  // measure 5
1000
0000
0100
0000
,  // measure 6
0010
0000
0001
0000
,  // measure 7
0200
0000
0000
0000
,  // measure 8
0000
0000
0000
0310
,  // measure 9
1000
0100
0001
0100
,  // measure 10
1000
0010
1000
0100
,  // measure 11
0000
0010
0001
0000
0100
0000
1000
0000
,  // measure 12
0100
0001
0010
0100
,  // measure 13
1000
0010
0001
0010
,  // measure 14
1000
0001
0100
0010
,  // measure 15
0000
1000
0100
0000
0010
0000
0001
0000
,  // measure 16
0100
1000
0100
0001
,  // measure 17
0010
0000
0100
1000
0000
0001
0000
0100
,  // measure 18
0000
1000
0000
0100
0000
0001
0010
0000
,  // measure 19
0000
0100
1000
0000
0000
0010
0000
0001
,  // measure 20
0000
0010
0000
1000
0100
0000
0010
0001
,  // measure 21
1000
0001
1000
0001
,  // measure 22
0010
1000
0010
0001
,  // measure 23
0000
1000
0010
0000
0000
0100
0001
0000
,  // measure 24
2002
0000
0000
3003
,  // measure 25
0001
0100
1000
0001
,  // measure 26
0010
1000
0100
1000
,  // measure 27
0010
0100
0010
0100
,  // measure 28
0001
0100
0010
0100
,  // measure 29
1000
0100
0001
0010
,  // measure 30
1000
0001
0100
1000
,  // measure 31
0001
0100
0010
0100
,  // measure 32
1000
0100
0010
0100
,  // measure 33
0000
0001
0001
1000
,  // measure 34
1000
0100
0100
0010
,  // measure 35
0010
0001
0100
1000
,  // measure 36
0100
0001
0100
1000
,  // measure 37
0100
0001
0001
0010
,  // measure 38
0010
0100
0100
1000
,  // measure 39
1000
0100
0001
0100
,  // measure 40
1000
0010
0100
0001
,  // measure 41
1000
0100
0001
1000
0010
0001
1000
0010
,  // measure 42
0100
0001
0100
1000
,  // measure 43
0100
0100
0001
0001
,  // measure 44
0010
0100
1000
0010
,  // measure 45
0100
0010
0100
0010
0100
0010
0100
0010
,  // measure 46
0100
0001
1000
0100
,  // measure 47
0010
0001
1000
0010
,  // measure 48
0000
0001
0000
0010
0000
1000
0000
0001
,  // measure 49
0010
0100
0010
0100
0010
0100
0010
0100
,  // measure 50
1000
0001
0100
0001
,  // measure 51
1000
0100
1000
0010
,  // measure 52
0100
0001
0010
0001
,  // measure 53
1000
0001
1000
0001
1000
0001
1000
0001
,  // measure 54
0010
0000
0100
0000
,  // measure 55
1000
0000
0001
0000
,  // measure 56
1000
0100
1000
0010
,  // measure 57
0100
0001
0010
0001
,  // measure 58
0100
0100
0010
0010
,  // measure 59
1000
1000
0100
0100
,  // measure 60
0010
0001
0100
0101
,  // measure 61
0000
1000
0100
1100
,  // measure 62
0000
0001
0001
0010
,  // measure 63
0010
0100
0100
1000
,  // measure 64
1000
0001
0100
0101
,  // measure 65
0000
0100
1000
1100
,  // measure 66
0000
0001
0001
0100
,  // measure 67
0100
1000
1000
0200
,  // measure 68
0000
0000
0000
0000
,  // measure 69
0000
0000
0000
0000
,  // measure 70
0000
0301
0001
0010
,  // measure 71
0010
1000
1000
0020
,  // measure 72
0000
0000
0000
0000
,  // measure 73
0000
0000
0000
0000
,  // measure 74
0030
0000
0000
0000
;

//---------------dance-single - ----------------
#NOTES:
     dance-single:
     :
     Medium:
     7:
     0.483,0.607,0.148,0.166,0.028:
0000
0000
0000
0000
,
0000
0000
0000
0000
,
0000
0000
0000
0000
,
0000
0000
0000
0000
,
1000
0001
1000
0001
,
0100
0010
0100
0010
,
0220
0000
0000
0000
,
0000
0000
0000
0330
,
1000
0000
0001
0010
0000
0001
0000
0100
,
0000
0010
0000
1000
0100
1000
0001
0100
,
0000
1000
0100
0001
0000
1000
0000
0100
,
0000
0010
0000
0001
1000
0100
1000
0010
,
0100
0001
1000
0100
0000
0001
0000
0100
,
0000
1000
0000
0001
0010
0100
1000
0001
,
0000
1000
0010
0000
0000
0100
0000
0100
,
0000
0100
0000
0001
1000
0001
0010
0100
,
1000
0000
0001
0100
0000
0010
0000
1000
,
0000
0001
0000
0010
0100
1000
0001
0100
,
0000
1000
0100
0001
0000
0010
0000
0010
,
0000
0010
0000
0100
1000
0001
0100
0010
,
1000
0000
0001
0100
0000
0010
0000
1000
,
0000
0010
0000
1000
0100
0000
0010
0001
,
0000
1000
0001
0100
0000
0010
0000
1000
,
0001
0000
0000
0100
0000
0000
0010
0000
0000
1000
0000
0000
0100
0000
0010
0000
,
0100
1000
0100
0001
,
0010
0001
0100
1000
,
0010
0000
0100
0001
0010
0000
0010
0001
,
0100
0000
0100
0010
1000
0000
1000
0100
,
0010
0001
0100
1000
,
0010
1000
0100
0001
,
0010
0000
0100
1000
0010
0000
0010
1000
,
0001
0000
0001
0010
0100
0000
0100
1000
,
0001
1001
0010
1000
,
0100
1000
0010
0001
,
0100
0000
0010
1000
0001
0000
0001
0010
,
0100
0000
0100
0010
0001
0000
0001
1000
,
0010
0000
0000
0000
1000
0000
0000
0000
0001
0000
0000
1000
0000
0000
0001
0000
,
0010
0000
0000
0000
0100
0010
0001
1000
,
0010
0000
0110
0000
0000
0110
0000
0000
,
0110
0000
0000
0100
0000
0000
0010
0000
1000
0000
0001
0000
0010
0000
0100
0000
,
2000
0010
0100
0010
3002
0100
0010
0103
,
0010
0100
1000
0000
0010
0100
0001
0000
,
1100
0101
1100
0101
,
1000
0010
0100
0000
0001
0010
0100
0000
,
1000
0001
1000
0001
1000
0001
1000
0001
,
0100
0000
0110
0000
0100
0010
0100
0000
,
0010
0000
1000
0000
0001
1000
0001
0010
,
0000
0110
0000
0110
0000
0110
0000
0100
,
1000
0001
1000
0001
1000
0001
1000
0010
,
0100
0000
0001
0000
0010
0100
1000
0000
,
0010
0100
0001
0000
1100
0000
0101
0000
,
1100
0000
0001
0000
1000
0000
0100
0010
,
0001
1000
0001
1000
0001
1000
0001
0010
,
0100
0000
0000
0000
1000
0000
0000
0000
0001
0000
0000
1000
0000
0000
0001
0000
,
0100
0000
0010
1000
0010
1000
0001
0000
,
0100
0000
0010
0000
1000
0001
0000
0100
,
0010
0000
0000
1000
0000
0000
0001
0000
0010
0000
0100
0000
1000
0000
0001
0000
,
0010
0001
0100
1000
,
0100
0001
0010
0001
,
0100
0000
0010
1000
0100
0000
0100
1000
,
0010
0000
0010
0100
0001
0000
0001
0010
,
0100
1000
0100
0001
,
0100
1000
0010
0100
,
0001
0000
0010
0100
1000
0000
1000
0010
,
0100
0000
0100
0001
0010
0000
0010
0100
,
1000
0002
0203
2300
,
3002
0023
2030
3200
,
0000
0000
0000
0000
,
0000
0000
0000
0000
,
0300
2000
3200
0302
,
2003
3020
0032
0203
,
0000
0000
0000
0000
,
0000
0000
0000
0000
,
0300
0000
0000
0000
;
