#TITLE:Stomping System;
#SUBTITLE:;
#ARTIST:JS16;
#TITLETRANSLIT:;
#SUBTITLETRANSLIT:;
#ARTISTTRANSLIT:;
#GENRE:;
#CREDIT:hooky;
#BANNER:Stomping System.png;
#BACKGROUND:Stomping System-bg.png;
#LYRICSPATH:;
#CDTITLE:;
#MUSIC:Stomping System.ogg;
#OFFSET:-4.011;
#SAMPLESTART:61.360;
#SAMPLELENGTH:15.000;
#SELECTABLE:YES;
#DISPLAYBPM:134.000;
#BPMS:0.000=133.900
;
#STOPS:
;
#BGCHANGES:;
#KEYSOUNDS:;
#ATTACKS:;

//---------------dance-single - hooky----------------
#NOTES:
     dance-single:
     hooky:
     Hard:
     8:
     0.444,0.415,0.264,0.088,0.176,282.000,27.000,9.000,0.000,0.000,0.000,0.444,0.415,0.264,0.088,0.176,282.000,27.000,9.000,0.000,0.000,0.000:
0000
0000
0000
0000
,
0000
0000
0000
0000
,
0000
0000
0000
0000
,
0000
0000
0000
0000
,
1000
0100
0001
0100
1000
0100
0001
0100
,
1000
0010
0100
0001
1000
0100
0001
0100
,
1000
0100
1000
0100
0010
0001
0010
0001
,
0200
0310
0020
0130
,
1001
0000
0000
0010
1000
0000
0100
0000
1000
0000
0000
1000
0100
0000
0001
0000
,
0100
0000
0000
0100
0010
0000
0010
0000
0100
0000
0000
0100
0010
0000
0010
0000
,
0001
0000
0000
0100
1000
0000
0100
0000
0001
0000
0000
0100
1000
0000
0100
0000
,
0010
0001
0100
1000
,
1001
0000
0000
0100
0001
0000
0010
0000
0001
0000
0000
0001
0010
0000
1000
0000
,
0010
0000
0000
0010
0100
0000
0100
0000
0010
0000
0000
0010
0100
0000
0100
0000
,
1000
0000
0000
0010
0001
0000
0010
0000
1000
0000
0000
0010
0001
0000
0010
0000
,
0100
1000
0010
0001
,
2001
0100
0010
0100
,
0001
0010
0001
0100
,
0001
0010
0001
0100
,
0001
0000
0010
0000
0100
0200
3300
0000
,
0012
0000
0000
1000
0000
0000
1000
0000
0000
0000
0000
1000
0000
0000
1000
0000
,
0000
0000
0000
1000
0000
0000
1000
0000
0000
0000
0000
1000
0000
0000
1000
0000
,
0000
0000
0000
1000
0000
0000
1000
0000
0000
0000
0000
1000
0003
0000
1000
0000
,
2000
3100
0002
0103
,
1000
0100
1000
0100
0010
0010
0100
0100
,
1000
1000
0001
0001
1000
0100
0001
0100
,
1000
1000
0100
0100
0010
0010
0001
0001
,
2000
3100
0020
0031
,
1000
0100
1000
0001
0100
1000
0100
0001
,
1000
1000
0100
0100
0001
0001
0100
0100
,
1000
0100
1000
0100
0010
0001
0010
0001
,
1100
0011
1100
0011
,
1001
0000
0000
1000
0000
0000
1000
0000
0100
0000
0000
0100
0000
0100
0000
0000
,
0010
0000
0000
0010
0000
0000
0010
0000
0001
0000
0000
0001
0000
0001
0000
0000
,
1000
0000
0000
0100
0000
0000
0001
0000
0001
0000
0000
0100
0000
1000
0000
0000
,
1000
0100
1000
0100
0010
0001
0010
0001
,
1001
0000
0000
0001
0000
0000
0001
0000
0010
0000
0000
0010
0000
0010
0000
0000
,
0100
0000
0000
0100
0000
0000
0100
0000
1000
0000
0000
1000
0000
1000
0000
0000
,
0001
0000
0000
0010
0000
0000
1000
0000
1000
0000
0000
0010
0000
0001
0000
0000
,
0001
0010
0001
0010
0100
1000
0100
1000
,
1001
0000
1000
0100
0001
0100
1000
0000
,
1100
0000
0010
0001
0100
0010
0100
0000
,
0101
0000
0001
0100
1000
0100
0001
0000
,
1100
0000
0100
0010
0001
0100
0010
0000
,
1100
1000
0101
0100
,
0110
0010
0011
0001
,
1001
1100
0011
0110
,
1001
0110
0011
1100
,
1000
0100
0001
0100
1000
0100
0001
0100
,
1000
0001
1000
0001
1000
0001
1000
0001
,
1001
0000
0000
0000
;

//---------------dance-single - ----------------
#NOTES:
     dance-single:
     :
     Medium:
     6:
     0.309,0.391,0.391,0.039,0.000,177.000,40.000,4.000,0.000,0.000,0.000,0.309,0.391,0.391,0.039,0.000,177.000,40.000,4.000,0.000,0.000,0.000:
0000
0000
0000
0000
,
0000
0000
0000
0000
,
0000
0000
0000
0000
,
0000
0000
0000
0000
,
1001
0000
0100
0100
,
0110
0000
0010
0010
,
1010
0000
1000
1000
,
1100
0000
1100
0000
,
0011
0001
0100
0010
,
1000
0100
0010
0001
,
0100
0100
0010
1000
,
0100
0100
1000
1000
,
0110
0010
1000
0100
,
0010
0010
0001
0100
,
0010
0010
1000
0100
,
1000
0100
0010
0001
,
2001
0001
0000
0001
,
0000
0001
0000
3001
,
0002
1000
0000
1000
,
0000
1000
0000
1003
,
2001
0000
0000
0100
0000
0000
0000
0100
,
0000
0000
0000
0100
0000
0000
3000
0020
,
0000
0000
0000
0100
0000
0000
0000
0100
,
0100
0100
0100
0130
,
0110
1000
0100
1000
,
0010
0000
0100
0000
0001
0010
0001
0000
,
0100
0100
0010
1000
,
0100
0000
1000
0000
0010
0100
0001
0010
,
0001
0001
0100
0100
,
0010
1000
0100
0100
,
1000
0010
0100
0001
,
1001
1001
1001
1001
,
0110
0000
0010
0000
1000
0100
1000
0000
,
0010
0100
0001
0001
,
0010
0000
0001
0000
0100
0001
0100
0000
,
0001
0010
0100
1000
,
1000
0000
0010
0000
0100
0001
0010
0000
,
0001
0000
0001
0000
0001
0100
0010
0000
,
0010
0000
1000
0000
0100
1000
0100
0000
,
1000
0100
0010
0001
,
1001
0100
0010
0100
,
1001
0100
0001
0100
,
1001
0100
1000
0100
,
1001
0100
1000
0001
,
1001
0100
1001
0100
,
1001
0100
1001
0100
,
1001
1001
1001
1001
,
1001
1001
1001
1001
,
0110
1010
0101
0011
,
1100
0101
0110
0011
,
1001
0000
0000
0000
;

//---------------dance-single - ----------------
#NOTES:
     dance-single:
     :
     Easy:
     3:
     0.228,0.269,0.176,0.059,0.000,139.000,18.000,6.000,0.000,0.000,0.000,0.228,0.269,0.176,0.059,0.000,139.000,18.000,6.000,0.000,0.000,0.000: // measure 0
0000
0000
0000
0000
,  // measure 1
0000
0000
0000
0000
,  // measure 2
0000
0000
0000
0000
,  // measure 3
0000
0000
0000
0000
,  // measure 4
1001
0000
0000
0000
,  // measure 5
1001
0000
0000
0000
,  // measure 6
1001
0000
0000
0000
,  // measure 7
0100
0000
0100
0000
,  // measure 8
1001
1000
1100
0000
,  // measure 9
1000
0100
1000
0000
,  // measure 10
0010
0001
0010
0000
,  // measure 11
0001
0100
0010
1000
,  // measure 12
1001
0000
0100
0001
,  // measure 13
0010
0000
0001
0100
,  // measure 14
0010
0000
0010
1000
,  // measure 15
0100
1000
0010
0001
,  // measure 16
1001
0000
0100
0000
,  // measure 17
0100
0000
0100
0000
,  // measure 18
0100
0000
0100
0000
,  // measure 19
0100
0000
0100
0100
,  // measure 20
1001
0000
0010
0000
,  // measure 21
0010
0000
0010
0000
,  // measure 22
0010
0000
0010
0000
,  // measure 23
0010
0010
0100
1001
,  // measure 24
0110
1000
0010
0000
,  // measure 25
0100
0001
0010
0000
,  // measure 26
0010
0001
0100
0000
,  // measure 27
0020
0030
2000
3000
,  // measure 28
1100
0000
0010
0001
,  // measure 29
0100
0000
0100
0010
,  // measure 30
1000
0000
1000
0100
,  // measure 31
1001
1001
1001
1001
,  // measure 32
1001
1000
0100
1000
,  // measure 33
0010
0100
0001
0010
,  // measure 34
0001
0100
0010
1000
,  // measure 35
2000
0000
0200
3300
,  // measure 36
0011
0001
0100
0010
,  // measure 37
1000
1000
0100
0010
,  // measure 38
0001
0010
0001
0100
,  // measure 39
0020
0000
0002
0033
,  // measure 40
0100
0100
1000
0000
,  // measure 41
1000
1000
0100
0000
,  // measure 42
0100
0100
1000
0000
,  // measure 43
1000
1000
0100
0000
,  // measure 44
0010
0001
0010
0001
,  // measure 45
0010
0001
0010
0001
,  // measure 46
0100
0001
0100
0001
,  // measure 47
0100
0001
0010
0100
,  // measure 48
0001
0100
1000
0001
,  // measure 49
0010
0001
0100
0010
,  // measure 50
1001
0000
0000
0000
;

//---------------dance-single - ----------------
#NOTES:
     dance-single:
     :
     Beginner:
     1:
     0.087,0.195,0.127,0.039,0.000,45.000,13.000,4.000,0.000,0.000,0.000,0.087,0.195,0.127,0.039,0.000,45.000,13.000,4.000,0.000,0.000,0.000:
0000
0000
0000
0000
,
0000
0000
0000
0000
,
0000
0000
0000
0000
,
0000
0000
0000
0000
,
1000
0000
0000
0000
,
0000
0000
0000
0000
,
0000
0000
0000
0000
,
0000
0000
0000
0000
,
1000
0000
0000
0000
,
0000
0000
0000
0000
,
1000
0000
0000
0000
,
0000
0000
0000
0000
,
1000
0000
0000
0000
,
0000
0000
0000
0000
,
1000
0000
0000
0000
,
0000
0000
0000
0000
,
1000
0000
0000
0000
,
0000
0000
0000
0000
,
0000
0000
0000
0000
,
0000
0000
0000
0000
,
0000
0000
0000
0000
,
0000
0000
0000
0000
,
0000
0000
0000
0000
,
0000
0000
0000
0000
,
0001
0000
0000
0000
,
0000
0000
0000
0000
,
0001
0000
0000
0000
,
0000
0000
0000
0000
,
0001
0000
0000
0000
,
0000
0000
0000
0000
,
0001
0000
0000
0000
,
0001
0000
1000
0000
,
1001
0000
0000
0001
,
0001
0000
0000
1000
,
1000
0000
0000
0000
,
1000
0000
0001
0001
,
1001
0000
0000
1000
,
1000
0000
0000
0001
,
0001
0000
0000
0000
,
1000
0000
0100
0000
,
1001
0000
0010
0000
,
1001
0000
0000
0000
,
1001
0000
0000
0000
,
1001
0000
0000
0000
,
1001
0000
0100
0000
,
1001
0000
0100
0000
,
1001
0000
1001
0000
,
1001
0000
1001
0000
,
2000
0000
0200
3300
,
0020
0000
0002
0033
,
1001
0000
0000
0000
;
