#TITLE:Rotterdam Nation;
#SUBTITLE:;
#ARTIST:Sampling Masters Koizumi;
#TITLETRANSLIT:;
#SUBTITLETRANSLIT:;
#ARTISTTRANSLIT:;
#CREDIT:;
#BANNER:;
#BACKGROUND:;
#LYRICSPATH:;
#CDTITLE:;
#MUSIC:Rotterdam Nation.mp3;
#OFFSET:-9.700;
#SAMPLESTART:9.700;
#SAMPLELENGTH:9.600;
#SELECTABLE:YES;
#BPMS:0.000=200.001;
#STOPS:160.000=0.900
,261.000=0.900
;
#BGCHANGES:;

//---------------dance-single - ----------------
#NOTES:
     dance-single:
     :
     Beginner:
     2:
     0.171,0.250,0.043,0.000,0.000: // measure 1
1000
0000
1000
0000
,  // measure 2
1000
0000
0000
0000
,  // measure 3
0001
0000
0001
0000
,  // measure 4
0001
0000
0000
0000
,  // measure 5
0010
0000
0010
0000
,  // measure 6
0010
0000
0000
0000
,  // measure 7
0100
0000
0100
0000
,  // measure 8
0100
0000
0000
0000
,  // measure 9
1000
0000
1000
0000
,  // measure 10
1000
0000
0000
0000
,  // measure 11
0100
0000
0100
0000
,  // measure 12
0100
0000
0000
0000
,  // measure 13
0001
0000
0000
0000
,  // measure 14
0001
0000
0000
0000
,  // measure 15
0010
0000
0000
0000
,  // measure 16
0010
0000
0000
0000
,  // measure 17
0100
0000
0100
0000
,  // measure 18
0100
0000
0100
0000
,  // measure 19
0100
0000
0100
0000
,  // measure 20
0100
0000
0000
0000
,  // measure 21
0010
0000
0010
0000
,  // measure 22
0010
0000
0010
0000
,  // measure 23
0010
0000
0010
0000
,  // measure 24
0010
0000
0000
0000
,  // measure 25
1000
0000
1000
0000
,  // measure 26
1000
0000
1000
0000
,  // measure 27
1000
0000
1000
0000
,  // measure 28
1000
0000
0000
0000
,  // measure 29
0001
0000
0001
0000
,  // measure 30
0001
0000
0001
0000
,  // measure 31
0001
0000
0001
0000
,  // measure 32
0001
0000
0000
0000
,  // measure 33
1001
0000
0000
0000
,  // measure 34
0010
0000
0000
0000
,  // measure 35
0100
0000
0000
0000
,  // measure 36
0010
0000
0000
0000
,  // measure 37
0110
0000
0000
0000
,  // measure 38
1000
0000
0000
0000
,  // measure 39
0001
0000
0000
0000
,  // measure 40
1000
0000
0000
0000
,  // measure 41
1001
0000
0000
0000
,  // measure 42
0000
1000
0000
1000
,  // measure 43
0000
1000
0000
0000
,  // measure 44
0000
0001
0000
0001
,  // measure 45
0000
0001
0000
0000
,  // measure 46
0000
0100
0000
0100
,  // measure 47
0000
0100
0000
0000
,  // measure 48
0000
0010
0000
0010
,  // measure 49
0000
0010
0000
0000
,  // measure 50
0000
1000
0000
0001
,  // measure 51
0000
1000
0000
0001
,  // measure 52
0000
1000
0000
0001
,  // measure 53
0000
1000
0000
0000
,  // measure 54
0000
0010
0000
0100
,  // measure 55
0000
0010
0000
0100
,  // measure 56
0000
0010
0000
0010
,  // measure 57
0000
0100
0000
0000
,  // measure 58
0000
0001
0000
0100
,  // measure 59
0000
0010
0000
1000
,  // measure 60
0000
0001
0000
0010
,  // measure 61
0000
0100
0000
1000
,  // measure 62
0000
0010
0000
0100
,  // measure 63
0000
0001
0000
1000
,  // measure 64
0000
0100
0000
0010
,  // measure 65
0000
0001
0000
1000
,  // measure 66
0000
1001
0010
0010
,  // measure 67
0010
0010
0010
0000
;

//---------------dance-single - ----------------
#NOTES:
     dance-single:
     :
     Easy:
     5:
     0.371,0.394,0.054,0.000,0.000:
0010
1000
0100
1000
,
0010
0100
0001
0001
,
0010
0100
0010
0001
,
0100
0010
1000
1000
,
0010
0100
0001
0010
,
0100
0100
1000
1000
,
0010
0100
0001
0010
,
1001
1001
1001
0000
,
0010
1000
0100
1000
,
0010
0010
0100
0100
,
0001
0010
0100
0010
,
0001
0001
1000
1000
,
0010
1000
0000
1000
,
0001
1000
0000
1000
,
0010
0100
0000
0100
,
0001
0010
0100
1000
,
0001
0100
0001
0100
,
0001
0000
0100
0000
0001
0100
0001
0000
,
1000
0010
1000
0010
,
1000
0000
0010
0000
1000
0010
1000
0000
,
0010
0100
0010
0100
,
0010
0000
0100
0000
0010
0100
0010
0000
,
1000
0001
1000
0001
,
1000
0000
0001
0000
1000
0001
1000
0000
,
0001
0100
0010
1000
,
0001
0000
0010
0000
0100
1000
0100
0000
,
1000
0100
0010
0001
,
1000
0000
0010
0000
0100
0001
0100
0000
,
0001
0010
0100
1000
,
0001
0000
0010
0000
0100
1000
0100
0000
,
1000
0010
0100
0001
,
1000
0010
0100
0001
,
0010
0001
0000
0001
,
0010
0100
1000
0010
,
0100
0001
0000
0001
,
0100
0000
0010
0000
1000
0100
1000
0000
,
0010
0100
0000
0100
,
0010
1000
0100
0010
,
0001
0100
0000
0100
,
0001
0000
0010
0100
0010
0000
0100
0000
,
1001
1000
1000
1000
,
1000
1000
0000
0001
,
0000
1000
0000
0000
,
0000
0001
0000
0010
,
0000
0001
0000
0000
,
0000
1000
0000
0100
,
0000
1000
0000
0000
,
0000
0010
0000
0100
,
0000
0010
0000
0000
,
0000
1000
0000
0100
,
0000
0010
0001
0010
,
0000
0001
0000
0100
,
0000
0010
1000
0010
,
0000
1000
0000
0100
,
0000
0010
0001
0100
,
0000
0010
0000
1000
,
0000
0001
0010
0100
,
0000
0010
0001
0010
,
0001
1000
0100
1000
,
0100
1000
0010
1000
,
0010
0100
0001
0100
,
0001
0010
0100
1000
,
0001
0100
0010
1000
,
0001
0010
0100
0010
,
0001
0100
0010
1000
,
0001
0010
0100
0100
,
0010
0010
1001
0000
;

//---------------dance-single - ----------------
#NOTES:
     dance-single:
     :
     Medium:
     8:
     0.553,0.541,0.129,0.065,0.011:
0010
0000
1000
0000
0100
1000
0001
0000
,
0100
0010
0110
0000
,
0010
0000
1000
0000
0100
1000
0001
0000
,
0010
0100
1100
0000
,
1000
0000
0010
0000
0100
0001
1000
0000
,
0100
0010
0011
0000
,
0001
0000
0100
0000
0010
1000
0001
0000
,
0010
0100
1000
0000
0001
0100
0010
0000
,
0100
0000
0001
0000
0010
0100
1000
0000
,
0001
0100
0110
0000
,
0010
0000
1000
0000
0100
1000
0001
0000
,
0100
0010
1001
0000
,
0001
0010
0000
0010
,
0100
1000
0001
0100
,
0010
1000
0000
1000
,
0010
0010
1001
1001
,
0001
0100
0001
0000
1000
0100
1000
0000
,
0001
0010
0001
0000
1000
0010
1000
0000
,
0010
1000
0100
0000
0010
0001
0100
0000
,
0010
1000
0001
0010
0100
1000
0100
0000
,
0010
0001
0010
0000
0100
1000
0100
0000
,
1000
0001
1000
0000
0001
0100
0001
0000
,
0100
0010
0100
0000
0010
1000
0010
0000
,
1000
0010
1000
0100
0010
0001
0100
0000
,
0010
1000
0001
0000
0010
0100
1000
0000
,
0100
0010
0001
0000
1000
0010
0100
0000
,
0001
0010
0100
0000
1000
0100
0010
0000
,
0001
0100
1000
0100
0001
0000
1000
0000
,
0010
0100
0001
0000
0010
0100
1000
0000
,
1000
0100
0001
0000
0001
0100
1000
0000
,
1000
0010
0001
0000
0001
0010
1000
0000
,
0010
1001
0100
1001
,
1000
0100
0000
0100
,
1000
0010
0100
0001
,
0010
0100
0000
0100
,
0010
0001
0010
0000
0100
1000
0100
0000
,
1000
0010
0000
0010
,
1000
0100
0010
0001
,
0100
0001
0000
0001
,
0010
0100
0010
0000
0001
1000
0001
0000
,
1001
0000
0000
0000
1000
0000
0000
0000
0001
0000
0000
0100
0000
0000
0010
0000
,
0000
1000
0000
0000
0001
0000
0000
0000
0100
0000
0000
0000
0010
0000
1000
0000
,
0100
1000
0001
0200
,
0000
0000
0310
0000
1000
0000
0100
1000
,
0001
0010
0100
0020
,
0000
0000
0031
0000
0100
0000
0010
1000
,
0001
0100
0010
2000
,
0000
3000
0100
0000
0010
0000
0100
1000
,
0010
1000
0100
0002
,
0000
0000
1003
0100
1000
0100
1000
0100
,
1000
0000
0001
0010
0001
0010
0001
0010
,
0001
0000
0010
0100
1000
0001
0100
0010
,
1000
0000
0010
0100
0001
0010
0100
1000
,
0001
0000
0001
0100
1000
0000
1000
0100
,
0001
0000
0001
0010
1000
0000
1000
0010
,
0001
0000
0010
0100
1000
0000
0001
0100
,
0010
0000
1000
0001
0010
0100
1000
0100
,
0010
0000
0001
0010
0001
0010
0001
0010
,
0001
0000
1000
0100
1000
0100
1000
0100
,
1000
0000
0010
0100
0010
0100
0010
0100
,
0010
0000
1000
0001
1000
0001
1000
0001
,
1000
0000
0001
0100
1000
0000
1000
0100
,
0001
0000
0001
0010
1000
0000
1000
0010
,
0001
0000
0001
0100
0010
0000
0010
1000
,
0001
0000
0001
0010
0100
0000
1000
0001
,
0100
0110
1000
0010
,
0100
0001
2002
0000
,
3003
0000
0000
0000
;

//---------------dance-single - ----------------
#NOTES:
     dance-single:
     :
     Hard:
     9:
     0.710,0.649,0.183,0.022,0.011:
0010
1000
0100
0000
0010
0001
0100
0000
,
0010
1000
0100
0001
0100
1000
0010
0000
,
0010
0001
0100
0000
0010
1000
0100
0000
,
0100
1000
0010
0100
0001
0010
0100
0000
,
0100
0010
0001
0000
0001
0100
0010
0000
,
0010
1000
0100
0001
0100
1000
0010
0000
,
0010
0100
0001
0000
0001
0010
0100
0000
,
1000
0001
0100
0010
1000
0001
0010
0100
,
1000
0010
0100
0000
0001
0010
0100
0000
,
0100
1000
0010
0001
0010
1000
0100
0000
,
0010
0001
0100
0000
0100
0010
1000
0000
,
1000
0100
0001
0100
1000
0010
0001
0000
,
0010
1000
0000
1000
,
0001
0100
0010
1000
,
0001
0010
0000
0010
,
1001
1100
0101
1001
,
1000
0100
1000
0100
0001
0100
0001
0100
,
1000
0100
1000
0100
0001
0100
0001
0100
,
1000
0010
1000
0010
0001
0010
0001
0010
,
1000
0010
1000
0010
0001
0010
0001
0010
,
0001
0100
0010
1000
0001
0010
0100
1000
,
0010
0100
0001
0010
0100
1000
0010
0000
,
0010
1000
0100
0001
0100
1000
0010
0100
,
0001
0010
0100
1000
0100
0010
0001
0000
,
0010
0001
0010
0001
1000
0100
1000
0100
,
1000
0001
1000
0001
0100
0001
0100
0001
,
0100
0001
1000
0100
1000
0001
0100
0010
,
1000
0001
0010
0100
1000
0010
0100
0001
,
0010
0001
0010
0001
1000
0100
1000
0100
,
1000
0100
0001
1000
0010
0100
0001
0010
,
0001
0100
0001
0010
0100
1000
0010
0100
,
0001
1001
1000
1001
,
0010
0000
1000
0100
0000
1000
0100
0000
,
0010
0001
0100
0010
1000
0001
0010
0000
,
0100
0000
1000
0001
0000
1000
0001
0000
,
0010
0001
0100
1000
0100
0001
0010
0000
,
0100
0000
1000
0010
0000
0100
0010
0000
,
1000
0001
0010
0100
1000
0100
0010
0000
,
0001
0000
0100
0001
0000
1000
0100
0000
,
0010
0100
1000
0001
0100
0010
1000
0001
,
1001
0000
0000
0000
1000
0000
0000
0000
0100
0000
0000
1000
0000
0000
0001
0000
,
0000
0010
0000
0000
0001
0000
0100
0000
1000
0000
0000
0000
1000
0000
0100
0000
,
0001
0000
0001
0100
1000
0000
1100
0000
,
0000
0000
1000
0010
0001
0000
0001
0010
,
1000
0000
1000
0010
0001
0000
0011
0000
,
0000
0000
0001
0100
0010
0000
0010
0100
,
0001
0000
0001
0100
0010
0000
0110
0000
,
0000
0000
0010
1000
0100
0000
0100
1000
,
0010
0000
0010
1000
0100
0000
0110
0000
,
0000
0000
0010
0001
0100
0010
0100
0001
,
0010
0100
0010
0001
0100
0010
0100
0001
,
0010
0100
1000
0010
0100
0010
1000
0100
,
0010
0100
1000
0010
0100
0010
1000
0100
,
0010
0001
0100
0010
1000
0001
0010
0100
,
1000
0100
0010
0001
0100
1000
0100
0001
,
0010
1000
0010
0100
0001
0010
0100
1000
,
0100
0010
0001
1000
0010
0100
0001
0010
,
0100
0000
0010
0001
0010
0001
1000
0100
,
1000
0100
1000
0001
1000
0001
0100
0010
,
0100
0010
1000
0001
0010
0100
1000
0100
,
0010
0001
0100
0010
1000
0001
0010
0100
,
1000
0010
0100
0001
1000
0010
0100
0001
,
0100
0010
1000
0001
0010
0100
1000
0100
,
0010
0001
1000
0100
0001
0100
1000
0010
,
0001
0010
1000
0100
0010
0001
1000
0010
,
0100
0001
1001
0000
0110
0000
1100
0000
,
0011
0110
2002
0000
,
3003
0000
0000
0000
;
