#TITLE:Qwark's Hideout;
#SUBTITLE:;
#ARTIST:David Bergeaud;
#TITLETRANSLIT:;
#SUBTITLETRANSLIT:;
#ARTISTTRANSLIT:;
#CREDIT:dominatorstrangeman8;
#BANNER:;
#BACKGROUND:;
#LYRICSPATH:;
#CDTITLE:;
#MUSIC:Qwark's Hideout Theme.mp3;
#OFFSET:-0.049;
#SAMPLESTART:56.94;
#SAMPLELENGTH:12.000;
#SELECTABLE:YES;
#DISPLAYBPM:135;
#BPMS:0.000=135.000;
#STOPS:;
#BGCHANGES:;

//---------------dance-single - ----------------
#NOTES:
     dance-single:
     :
     Beginner:
     1:
     0.049,0.109,0.017,0.000,0.000:
0000
0000
0000
0000
,
0000
0000
0000
0000
,
0000
0000
0000
0000
,
0000
0000
0000
0000
,
0000
0000
0000
0000
,
0000
0000
0000
0000
,
0000
0000
0000
0000
,
0000
0000
0000
0000
,
0010
0000
0000
0000
,
0010
0000
0000
0000
,
0010
0000
0000
0000
,
0010
0000
0000
0000
,
0100
0000
0000
0000
,
0100
0000
0000
0000
,
0100
0000
0000
0000
,
0100
0000
0000
0000
,
1000
0000
0000
0000
,
0000
0000
0000
0000
,
0001
0000
0000
0000
,
0000
0000
0000
0000
,
0010
0000
0000
0000
,
0000
0000
0000
0000
,
0010
0000
0000
0000
,
0000
0000
0000
0000
,
0100
0000
0000
0000
,
0000
0000
0000
0000
,
0010
0000
0000
0000
,
0000
0000
0000
0000
,
0001
0000
0000
0000
,
0000
0000
0000
0000
,
1000
0000
0000
0000
,
0000
0000
0000
0000
,
1001
0000
0000
0000
,
0000
0000
0000
0000
,
0010
0000
0000
0000
,
0000
0000
0000
0000
,
0001
0000
0000
0000
,
0000
0000
0000
0000
,
1000
0000
0000
0000
,
0000
0000
0000
0000
,
0100
0000
0000
0000
,
0000
0000
0000
0000
,
0010
0000
0000
0000
,
0000
0000
0000
0000
,
1000
0000
0000
0000
,
0000
0000
0000
0000
,
0001
0000
0000
0000
,
0001
0000
0000
0000
,
1001
0000
0000
0000
,
0100
0000
0000
0000
,
0010
0000
0000
0000
,
0010
0000
0000
0000
,
0100
0000
0000
0000
,
0100
0000
0000
0000
,
0001
0000
0000
0000
,
1000
0000
0000
0000
,
1000
0000
0000
0000
,
0000
0000
0000
0000
,
0001
0000
0000
0000
,
0000
0000
0000
0000
,
0001
0000
0000
0000
,
0000
0000
0000
0000
,
0001
0000
0000
0000
,
0000
0000
0000
0000
,
0010
0000
0000
0000
;

//---------------dance-single - ----------------
#NOTES:
     dance-single:
     :
     Easy:
     3:
     0.156,0.221,0.110,0.110,0.000:
0000
0000
0000
0000
,
0000
0000
0000
0000
,
0000
0000
0000
0000
,
0000
0000
0000
0000
,
1000
0000
1000
0000
,
1000
0000
0000
0000
,
0001
0000
0001
0000
,
0001
0000
0000
0000
,
0000
0000
0001
0000
0000
0001
0000
0000
,
0000
0000
1000
0000
0000
1000
0000
0000
,
0000
0000
0001
0000
0000
0001
0000
0000
,
0000
0000
0010
0000
0000
0010
0000
0000
,
0100
0000
0100
0000
0000
0100
0000
0000
,
0000
0000
0010
0000
0000
0010
0000
0000
,
0001
0000
0001
0000
0000
0001
0000
0000
,
0000
0000
1000
0000
0000
1000
0000
0000
,
0001
0001
0000
0000
,
0001
0001
0001
0000
,
1000
1000
0000
0000
,
1000
1000
1000
0000
,
0001
0001
0000
0000
,
0001
0001
0001
0000
,
0010
0010
0000
0000
,
0010
0010
0010
0000
,
0100
0100
0000
0000
,
0100
0100
0100
0000
,
0010
0010
0000
0000
,
0010
0010
0010
0000
,
0001
0001
0000
0000
,
0001
0001
0001
0000
,
1000
1000
0000
0000
,
1000
1000
1000
0000
,
0002
0000
0000
0000
,
0000
0000
0200
0003
,
0020
0000
0000
0000
,
0000
0000
0000
0300
,
2000
0000
0000
0000
,
0000
0000
0000
0030
,
0002
0000
0000
0000
,
3000
0000
0020
0003
,
0200
0000
0000
0000
,
0000
0000
0000
0030
,
2000
0000
0000
0000
,
0000
0300
0020
3000
,
0200
0000
0000
0000
,
0000
0000
0000
0030
,
0002
0000
0000
0000
,
0300
1000
1000
1003
,
1001
0000
0001
0000
,
1001
0000
0001
0000
,
1001
0000
1000
0000
,
1001
0000
1000
0000
,
0110
0000
0010
0000
,
0110
0000
0010
0000
,
0110
0000
0100
0000
,
0110
0000
0100
0000
,
1001
0000
0000
0000
,
0100
0000
0000
0000
,
1001
0000
0000
0000
,
0010
0000
0000
0000
,
0110
0000
0000
0000
,
0001
0000
0000
0000
,
0110
0000
0000
0000
,
1000
0000
0000
0000
,
2002
0000
0000
0000
,
3003
0000
0000
0000
;

//---------------dance-single - ----------------
#NOTES:
     dance-single:
     :
     Medium:
     6:
     0.334,0.386,0.110,0.034,0.272:
0000
0000
0000
0000
,
0000
0000
0000
0000
,
0000
0000
0000
0000
,
0000
0000
0000
0000
,
1000
0100
1000
0000
1000
0000
1000
0000
,
0002
0100
0100
0103
,
0001
0100
0001
0000
0001
0000
0001
0000
,
2000
0100
0100
3100
,
1000
0000
0000
0000
1000
0000
0000
0100
0000
0000
0010
0000
0000
0000
0000
0000
,
0001
0000
0000
0000
0001
0000
0000
0100
0000
0000
0010
0000
0010
0000
0000
0000
,
1000
0000
0000
0000
1000
0000
0000
0010
0000
0000
0100
0000
0000
0000
0000
0000
,
0001
0000
0000
0000
0001
0000
0000
0010
0000
0000
0100
0000
0100
0000
0000
0000
,
1000
0000
0000
0000
0001
0000
0000
0100
0000
0000
0010
0000
0000
0000
0000
0000
,
1000
0000
0000
0000
0001
0000
0000
0010
0000
0000
0100
0000
0100
0000
0000
0000
,
0010
0000
0000
0000
0001
0000
0000
0100
0000
0000
0010
0000
0000
0000
0000
0000
,
0010
0000
0000
0000
1000
0000
0000
0100
0000
0000
0010
0000
0010
0000
0000
0000
,
0001
0000
0000
0001
0000
0000
0010
0000
0000
0010
0000
0000
0100
0000
0000
0100
,
0000
0000
0010
0000
0000
0010
0000
0000
0001
0000
0000
0001
0000
0000
0100
0000
,
0010
0000
0000
0010
0000
0000
1000
0000
0000
1000
0000
0000
0100
0000
0000
0100
,
0000
0000
1000
0000
0000
1000
0000
0000
0010
0000
0000
0010
0000
0000
0100
0000
,
0001
0000
0000
0001
0000
0000
1000
0000
0000
1000
0000
0000
0010
0000
0000
0010
,
0000
0000
0100
0000
0000
0100
0000
0000
0010
0000
0000
0010
0000
0000
1000
0000
,
0001
0000
0000
0001
0000
0000
0010
0000
0000
0010
0000
0000
0100
0000
0000
0100
,
0000
0000
1000
0000
0000
1000
0000
0000
0001
0000
0000
0001
0000
0000
0100
0000
,
0010
0000
0000
1000
0000
0000
0100
0000
0000
0001
0000
0000
0100
0000
0000
1000
,
0000
0000
0001
0000
0000
0100
0000
0000
1000
0000
0000
0100
0000
0000
0001
0000
,
1000
0000
0000
0010
0000
0000
0001
0000
0000
0010
0000
0000
1000
0000
0000
0001
,
0000
0000
0010
0000
0000
1000
0000
0000
0010
0000
0000
0001
0000
0000
1000
0000
,
0001
0000
0000
0010
0000
0000
1000
0000
0000
0001
0000
0000
0100
0000
0000
1000
,
0000
0000
0001
0000
0000
0100
0000
0000
1000
0000
0000
0001
0000
0000
0010
0000
,
1000
0000
0000
0010
0000
0000
0100
0000
0000
0001
0000
0000
0010
0000
0000
0100
,
0000
0000
1000
0000
0000
0100
0000
0000
0010
0000
0000
0001
0000
0000
0100
0000
,
0010
0000
0000
0010
0000
0000
0010
0000
,
1000
0000
0000
1000
0000
0000
1000
0000
,
0001
0000
0000
0001
0000
0000
0001
0000
,
0010
0000
0000
0010
0000
0000
0010
0000
,
0100
0000
0000
0100
0000
0000
0100
0000
,
1000
0000
0000
1000
0000
0000
1000
0000
,
0001
0000
0000
0001
0000
0000
0001
0000
,
0100
0000
0000
0100
0000
0000
0100
0000
,
0010
0000
0000
1000
0000
0000
0100
0000
,
1000
0000
0000
0001
0000
0000
0100
0000
,
0010
0000
0000
1000
0000
0000
0100
0000
,
0010
0000
0000
0001
0000
0000
1000
0000
,
0001
0000
0000
0010
0000
0000
0100
0000
,
1000
0000
0000
0010
0000
0000
0100
0000
,
0001
0000
0000
0010
0000
0000
0100
0000
,
1000
0000
0001
1000
0001
1000
0001
0000
,
1001
0000
0000
1000
0000
0000
0100
0000
0000
0010
0000
0000
0001
0000
0000
0000
,
1001
0000
0000
0001
0000
0000
0100
0000
0000
0010
0000
0000
1000
0000
0000
0000
,
1001
0000
0000
1000
0000
0000
0001
0000
0000
0010
0000
0000
0100
0000
0000
0000
,
0110
0000
0000
0100
0000
0000
0010
0000
0000
0001
0000
0000
1000
0000
0000
0000
,
1010
0000
0000
0001
0000
0000
0010
0000
0000
0100
0000
0000
1000
0000
0000
0000
,
0101
0000
0000
0010
0000
0000
1000
0000
0000
0100
0000
0000
0010
0000
0000
0000
,
0011
0000
0000
0100
0000
0000
1000
0000
0000
0001
0000
0000
0100
0000
0000
0000
,
1010
0000
0000
0100
0000
0000
0001
0000
0000
0010
0000
0000
0100
0000
0000
0000
,
1100
0100
0000
0100
,
0010
0001
0000
0001
,
0101
0100
0000
0010
,
1000
0100
0000
0100
,
0011
1000
0000
1000
,
0010
0100
0000
0100
,
1010
0001
0000
0001
,
1000
0100
0000
0100
,
2002
0000
0000
0000
,
3003
0000
0000
0000
;

//---------------dance-single - ----------------
#NOTES:
     dance-single:
     :
     Hard:
     8:
     0.437,0.524,0.221,0.017,0.361:
0000
0000
0000
0000
,
0000
0000
0000
0000
,
0000
0000
0000
0000
,
0000
0000
0000
0000
,
1000
0100
1000
0000
0001
0100
0001
0000
,
1000
0100
0010
0001
0100
0010
1000
0000
,
0001
0100
0001
0000
1000
0100
1000
0000
,
0001
0100
0010
1000
0100
0010
0001
0000
,
1000
0000
0000
0000
1100
0000
0000
0001
0000
0000
0101
0000
0000
0000
0000
0000
,
1000
0000
0000
0000
1010
0000
0000
0001
0000
0000
0010
0000
0100
0000
0000
0000
,
0010
0000
0000
0000
0011
0000
0000
1000
0000
0000
1100
0000
0000
0000
0000
0000
,
0001
0000
0000
0000
0101
0000
0000
1000
0000
0000
0100
0000
0010
0000
0000
0000
,
0001
0000
0000
0000
0101
0000
0000
1000
0000
0000
1100
0000
0000
0000
0000
0000
,
0010
0000
0000
0000
0011
0000
0000
0100
0000
0000
1000
0000
0001
0000
0000
0000
,
0100
0000
0000
0000
1010
0000
0000
0001
0000
0000
0011
0000
0000
0000
0000
0000
,
0100
0000
0000
0000
1100
0000
0000
0001
0000
0000
0100
0000
0010
0000
0000
0000
,
0110
0000
0000
0010
0000
0000
1000
0000
0000
0001
0000
0000
0010
0000
0000
1000
,
0000
0000
0001
0000
0000
0100
0000
0000
1000
0000
0000
0001
0000
0000
0100
0000
,
0010
0000
0000
0001
0000
0000
0010
0000
0000
1000
0000
0000
0100
0000
0000
0010
,
0000
0000
0001
0000
0000
0100
0000
0000
0010
0000
0000
1000
0000
0000
0100
0000
,
0010
0000
0000
0001
0000
0000
0100
0000
0000
0010
0000
0000
1000
0000
0000
0100
,
0000
0000
0001
0000
0000
0100
0000
0000
1000
0000
0000
0001
0000
0000
0100
0000
,
0010
0000
0000
1000
0000
0000
0100
0000
0000
0001
0000
0000
1000
0000
0000
0010
,
0000
0000
0001
0000
0000
0100
0000
0000
0010
0000
0000
1000
0000
0000
0100
0000
,
0010
0000
0000
0001
0000
0000
0100
0000
0000
0010
0000
0000
0100
0000
0000
1000
,
0000
0000
0100
0000
0000
0010
0000
0000
0100
0000
0000
0001
0000
0000
1000
0000
,
0100
0000
0000
0010
0000
0000
0100
0000
0000
0001
0000
0000
0100
0000
0000
0010
,
0000
0000
0100
0000
0000
1000
0000
0000
0001
0000
0000
0100
0000
0000
0010
0000
,
0100
0000
0000
1000
0000
0000
0100
0000
0000
0010
0000
0000
0100
0000
0000
0001
,
0000
0000
1000
0000
0000
0100
0000
0000
0001
0000
0000
0010
0000
0000
1000
0000
,
0001
0000
0000
0100
0000
0000
1000
0000
0000
0010
0000
0000
0001
0000
0000
1000
,
0000
0100
0010
0001
0100
1000
0100
0010
,
1000
0000
0000
1000
0000
0000
0100
0000
0000
0010
0000
0000
0001
0000
0000
0000
,
0001
0000
0000
0001
0000
0000
0100
0000
0000
0010
0000
0000
1000
0000
0000
0000
,
0001
0000
0000
0010
0000
0000
0100
0000
0000
1000
0000
0000
0001
0000
0000
0000
,
1000
0000
0000
0010
0000
0000
0100
0000
0000
0001
0000
0000
1000
0000
0000
0000
,
0100
0000
0000
0100
0000
0000
0010
0000
0000
0001
0000
0000
1000
0000
0000
0000
,
0100
0000
0000
0100
0000
0000
1000
0000
0000
0001
0000
0000
0100
0000
0000
0000
,
0010
0000
0000
1000
0000
0000
0100
0000
0000
0010
0000
0000
0001
0000
0000
0000
,
0100
0000
0000
0010
0000
0000
1000
0000
0000
0100
0000
0000
0010
0000
0000
0000
,
0001
0000
0000
0100
0000
0000
0010
0000
0000
1000
0000
0000
0100
0000
0000
0000
,
0010
0000
0000
1000
0000
0000
0010
0000
0000
0001
0000
0000
0100
0000
0000
0000
,
0010
0000
0000
0001
0000
0000
0010
0000
0000
1000
0000
0000
0100
0000
0000
0000
,
0001
0000
0000
0100
0000
0000
1000
0000
0000
0001
0000
0000
0100
0000
0000
0000
,
1000
0000
0000
0100
0000
0000
0001
0000
0000
1000
0000
0000
0100
0000
0000
0000
,
0001
0000
0000
0100
0000
0000
1000
0000
0000
0001
0000
0000
0100
0000
0000
0000
,
0010
0000
0000
0100
0000
0000
0001
0000
0000
1000
0000
0000
0100
0000
0000
0000
,
1000
0000
0010
0001
1000
0100
0001
1000
,
1100
0000
0000
0100
1000
0000
0001
0000
0100
0000
0010
0000
1000
0000
0000
0000
,
1010
0000
0000
0010
1000
0000
0001
0000
0010
0000
0100
0000
1000
0001
0000
0000
,
0101
0000
0000
0100
0001
0000
1000
0000
0100
0000
0010
0000
0001
0000
0000
0000
,
0011
0000
0000
0001
0010
0000
0100
0000
1000
0000
0001
0000
0100
0000
0000
0000
,
0110
0000
0000
0010
1000
0000
0100
0000
0010
0000
0001
0000
0100
0000
0000
0000
,
1010
0000
0000
0100
0001
0000
1000
0000
0100
0000
0010
0000
0001
0000
0000
0000
,
1001
0000
0000
1000
0100
0000
0001
0000
0100
0000
1000
0000
0010
0000
0000
0000
,
1001
0000
0000
0001
0100
0000
1000
0000
0100
0000
0001
0000
1000
0000
0000
0000
,
1001
0001
0100
0000
0000
0100
0010
0000
,
0010
1000
0100
0000
0000
0100
0010
0000
,
0011
0001
1000
0000
0000
0010
0100
0000
,
0010
0100
0001
0000
0000
0001
1000
0000
,
1100
0010
0001
0000
0000
0001
1000
0000
,
1000
0010
0100
0000
0000
0100
0001
0000
,
1001
1000
0100
0000
0000
0100
0010
0000
,
0010
0001
0100
0000
0000
0100
0010
0000
,
2002
0000
0000
0000
,
3003
0000
0000
0000
;
