#TITLE:Obani Draco;
#SUBTITLE:;
#ARTIST:David Bergeaud;
#TITLETRANSLIT:;
#SUBTITLETRANSLIT:;
#ARTISTTRANSLIT:;
#CREDIT:dominatorstrangeman8;
#BANNER:;
#BACKGROUND:;
#LYRICSPATH:;
#CDTITLE:;
#MUSIC:Obani Draco-fadeout.ogg;
#OFFSET:1.593;
#SAMPLESTART:32.030;
#SAMPLELENGTH:14.000;
#SELECTABLE:YES;
#DISPLAYBPM:144.000;
#BPMS:0.000=144.000;
#STOPS:;
#BGCHANGES:;

//---------------dance-single - ----------------
#NOTES:
     dance-single:
     :
     Beginner:
     1:
     0.109,0.173,0.217,0.000,0.000:
0000
0000
0000
0000
,
0000
0000
0000
0000
,
0000
0000
0000
0000
,
0000
0000
0000
0000
,
0000
0000
0000
0000
,
1000
0000
0000
0000
,
1000
0000
0000
0000
,
0100
0000
0000
0000
,
0100
0000
0000
0000
,
0010
0000
0000
0000
,
0010
0000
0000
0000
,
0001
0000
0000
0000
,
0001
0000
0000
0000
,
1000
0000
0000
0000
,
1000
0000
0000
0000
,
1000
0000
0000
0000
,
1000
0000
0000
0000
,
0001
0000
0000
0000
,
0001
0000
0000
0000
,
0001
0000
0000
0000
,
0001
0000
0000
0000
,
0010
0000
0000
0000
,
0010
0000
0000
0000
,
0010
0000
0000
0000
,
0010
0000
0000
0000
,
0100
0000
0000
0000
,
0010
0000
0000
0000
,
0100
0000
0000
0000
,
0010
0000
0000
0000
,
0100
0000
0000
0000
,
0100
0000
0000
0000
,
0100
0000
0000
0000
,
0100
0000
0000
0000
,
1000
0000
0000
0000
,
0001
0000
0000
0000
,
1000
0000
0000
0000
,
0001
0000
0000
0000
,
1001
0000
0000
0000
,
0100
0000
0000
0000
,
1001
0000
0000
0000
,
0100
0000
0000
0000
,
1001
0000
0000
0000
,
0010
0000
0000
0000
,
1001
0000
0000
0000
,
0010
0000
0000
0000
,
0110
0000
0000
0000
,
1000
0000
0000
0000
,
0110
0000
0000
0000
,
0001
0000
0000
0000
,
0110
0000
0000
0000
,
1000
0000
0000
0000
,
0110
0000
0000
0000
,
0001
0000
0000
0000
,
1001
0000
0000
0000
,
1001
0000
0000
0000
,
1001
0000
0000
0000
,
1001
0000
0000
0000
,
0110
0000
0000
0000
,
0110
0000
0000
0000
,
1001
0000
0000
0000
,
1001
0000
0000
0000
,
0110
0000
0000
0000
,
0110
0000
0000
0000
,
0110
0000
0000
0000
,
0110
0000
0000
0000
,
0110
0000
0000
0000
,
1001
0000
0000
0000
,
1001
0000
0000
0000
,
1001
0000
0000
0000
,
1001
0000
0000
0000
,
0010
0000
0000
0000
,
1001
0000
0000
0000
,
0100
0000
0000
0000
,
0110
0000
0000
0000
,
0001
0000
0000
0000
,
0110
0000
0000
0000
,
1000
0000
0000
0000
,
1001
0000
0000
0000
;

//---------------dance-single - ----------------
#NOTES:
     dance-single:
     :
     Easy:
     4:
     0.218,0.351,0.337,0.375,0.000:
0000
0000
0000
0000
,
0000
0000
0000
0000
,
0000
0000
0000
0000
,
0000
0000
0000
0000
,
0000
0000
0000
0000
,
1001
0000
0000
0000
,
0100
0000
0000
0000
,
1001
0000
0000
0000
,
0100
0000
0000
0000
,
0110
0000
0000
0000
,
1000
0000
0000
0000
,
0110
0000
0000
0000
,
0001
0000
0000
0000
,
0100
0000
0100
0000
,
0100
0000
0000
0000
,
0010
0000
0010
0000
,
0010
0000
0000
0000
,
1000
0000
1000
0000
,
1000
0000
0000
0000
,
0001
0000
0001
0000
,
0001
0000
0000
0000
,
0002
0000
0103
0000
,
2000
0000
3100
0000
,
0002
0000
0103
0000
,
2000
0000
3100
0000
,
2002
0000
0000
3003
,
0220
0000
0000
0330
,
2002
0000
0000
3003
,
0220
0000
0000
0330
,
0002
0000
0103
0000
,
2000
0000
3100
0000
,
0002
0000
0103
0000
,
2000
0000
3100
0000
,
2002
0000
0000
3003
,
0220
0000
0000
0330
,
2002
0000
0000
3003
,
0220
0000
0000
0330
,
1001
0000
0000
0000
,
0010
0000
0000
0000
,
1001
0000
0000
0000
,
0100
0000
0000
0000
,
0110
0000
0000
0000
,
0010
0000
0000
0000
,
0110
0000
0000
0000
,
0100
0000
0000
0000
,
1001
0000
0000
0000
,
0010
0000
0000
0000
,
1001
0000
0000
0000
,
0010
0000
0000
0000
,
1001
0000
0000
0000
,
0100
0000
0000
0000
,
1001
0000
0000
0000
,
0100
0000
0000
0000
,
1001
0000
0010
0000
,
1001
0000
0010
0000
,
1100
0000
0001
0000
,
0101
0000
1000
0000
,
0011
0000
0100
0000
,
1010
0000
0100
0000
,
1001
0000
0100
0000
,
1001
0000
0100
0000
,
0120
0001
0000
0031
,
0120
1000
0000
1030
,
1002
0010
0000
0013
,
2001
0010
0000
3010
,
1200
0010
0000
0310
,
0201
0010
0000
0310
,
1002
0100
0000
0103
,
2001
0100
0000
3100
,
2002
0000
0000
3003
,
0220
0000
0000
0330
,
2002
0000
0000
3003
,
0220
0000
0000
0330
,
0022
0000
0000
0033
,
2200
0000
0000
3300
,
2020
0000
0000
3030
,
0202
0000
0000
0303
,
2002
0000
0000
0000
,
3003
0000
0000
0000
;

//---------------dance-single - ----------------
#NOTES:
     dance-single:
     :
     Medium:
     7:
     0.376,0.380,0.390,0.150,0.000:
0000
0000
0000
0000
,
0000
0000
0000
0000
,
0000
0000
0000
0000
,
0000
0000
0000
0000
,
0000
0000
0000
0000
,
0011
0000
0000
2001
0000
0000
3010
0000
,
0100
0000
0000
0100
0000
0000
0001
0000
,
1001
0000
0000
1100
0000
0000
0010
0000
,
0001
0000
0000
0001
0000
0000
0100
0000
,
1010
0000
0000
1002
0000
0000
0013
0000
,
0100
0000
0000
0100
0000
0000
1000
0000
,
1001
0000
0000
0101
0000
0000
0010
0000
,
1000
0000
0000
1000
0000
0000
0100
0000
,
0010
0000
0000
0010
0000
0000
0010
0001
,
0100
0000
0000
0100
0000
0000
0100
0010
,
1000
0000
0000
1000
0000
0000
1000
0100
,
0010
0000
0000
0010
0000
0000
0010
0001
,
0100
0000
0000
0010
0000
0000
1000
0100
,
0010
0000
0000
0001
0000
0000
0100
0010
,
1000
0000
0000
0100
0000
0000
0001
0100
,
1000
0000
0000
0010
0000
0000
0001
0010
,
2000
0000
0000
0100
3100
0000
0100
0000
,
0002
0000
0000
0100
0103
0000
0100
0000
,
2000
0000
0000
0100
3100
0000
0100
0000
,
0002
0000
0000
0100
0103
0000
0100
0000
,
0100
1001
0110
0010
,
0000
0000
0010
0000
0001
0100
0010
0000
,
0010
1001
0110
0010
,
0000
0000
0010
0000
1000
0100
0010
0000
,
0002
0000
0000
0100
0103
0000
0100
0000
,
2000
0000
0000
0100
3100
0000
0100
0000
,
0002
0000
0000
0100
0103
0000
0100
0000
,
2000
0000
0000
0100
3100
0000
0100
0000
,
0100
1001
0110
0010
,
0000
0000
1000
0000
0001
0100
0010
0000
,
0100
1001
0110
0010
,
0000
0000
0001
0000
1000
0100
0010
0000
,
0110
0010
0000
0010
0000
0001
0000
0001
,
0100
0010
0000
0010
0000
1000
0000
1000
,
0001
0100
0000
0100
0000
0010
0000
0010
,
1000
0100
0000
0100
0000
0010
0000
0010
,
0001
1000
0000
1000
0000
0010
0000
0010
,
0100
0001
0000
0001
0000
0010
0000
0010
,
0100
1000
0000
1000
0000
0001
0000
0001
,
0100
0010
0000
0010
0000
0100
0000
0100
,
0110
0010
0000
1000
0000
0100
1000
0010
,
0100
1000
0000
0100
0000
0010
0000
1000
,
1100
0100
0000
0001
0000
0100
0100
1000
,
0001
0100
0000
0010
0000
1000
0000
0100
,
1100
1000
0000
0001
0000
0100
0001
0010
,
0100
1000
0000
0001
0000
0100
0000
0010
,
0101
1000
0000
0100
0000
0010
0001
0100
,
0010
1000
0000
0100
0000
0001
0000
0100
,
1000
0000
1001
0000
0000
1001
0000
0000
,
0100
0000
0110
0000
0000
0110
0000
0000
,
1000
0000
1100
0000
0000
1100
0000
0000
,
0001
0000
0101
0000
0000
0101
0000
0000
,
0010
0000
1001
0000
0000
0110
0000
0000
,
0100
0000
1010
0000
0000
0101
0000
0000
,
0001
0000
1100
0000
0000
0101
0000
0000
,
0010
0000
0110
0000
0000
1001
0000
0000
,
2100
0000
3001
0000
0000
0100
0000
0000
,
0102
0000
1003
0000
0000
0100
0000
0000
,
0120
0000
0031
0000
0000
0100
0000
0000
,
0120
0000
1030
0000
0000
0100
0000
0000
,
0012
0000
1003
0000
0000
0010
0000
0000
,
2010
0000
3001
0000
0000
0010
0000
0000
,
2001
0000
3010
0000
0000
0100
0000
0000
,
1002
0000
0013
0000
0000
0100
0000
0000
,
1100
0010
0000
0010
,
0001
1000
0000
1000
,
0010
0100
0000
0100
,
0001
1000
0100
0010
,
0001
0100
0000
0110
,
0010
1000
0000
0101
,
1000
0100
0000
0011
,
0100
1000
1001
0110
,
2002
0000
0000
0000
,
3003
0000
0000
0000
;

//---------------dance-single - ----------------
#NOTES:
     dance-single:
     :
     Hard:
     9:
     0.490,0.526,0.270,0.142,0.326: // measure 1
0000
0000
0000
0000
,  // measure 2
2002
0000
0000
0000
,  // measure 3
0000
0000
0000
0000
,  // measure 4
3003
0000
0001
0000
0000
0100
0000
0000
1000
0000
0000
0100
0000
0000
0001
0000
,  // measure 5
0000
0000
0010
0000
0000
1000
0000
0000
0010
0000
0000
0001
0000
0000
1000
0000
,  // measure 6
0001
1000
0001
1000
0001
1000
0000
0000
,  // measure 7
0001
0000
0000
0001
0000
0000
0100
0000
0000
0100
0000
0000
0010
0000
0000
0000
,  // measure 8
1000
0010
1000
0001
0100
0001
0000
0000
,  // measure 9
1000
0000
0000
1000
0000
0000
0100
0000
0000
0100
0000
0000
0010
0000
0000
0000
,  // measure 10
0001
0010
0001
1000
0100
1000
0000
0000
,  // measure 11
0001
0000
0000
0001
0000
0000
1000
0000
0000
1000
0000
0000
0010
0000
0000
0000
,  // measure 12
0100
0010
0100
0010
0100
0010
0000
0000
,  // measure 13
1000
0000
0000
0100
0000
0000
0001
0000
0000
0100
0000
0000
1000
0000
0000
0000
,  // measure 14
0001
0000
0000
0001
0000
0000
0100
0000
0000
0100
0000
0000
0010
0000
1000
0000
,  // measure 15
0100
0000
0000
0100
0000
0000
0010
0000
0000
0010
0000
0000
0001
0000
0100
0000
,  // measure 16
0010
0000
0000
1000
0000
0000
0100
0000
0000
0001
0000
0000
0100
0000
1000
0000
,  // measure 17
0010
0000
0000
0001
0000
0000
0010
0000
0000
1000
0000
0000
0100
0000
0010
0000
,  // measure 18
0001
0000
0000
0010
0000
0000
1000
0000
0000
0010
0000
0000
0001
0000
0100
0000
,  // measure 19
0010
0000
0000
1000
0000
0000
0100
0000
0000
0001
0000
0000
0100
0000
1000
0000
,  // measure 20
0001
0000
0000
0100
0000
0000
1000
0000
0000
0001
0000
0000
0010
0000
1000
0000
,  // measure 21
1000
0000
0000
0100
0000
0000
0001
0000
0000
1000
0000
0000
0010
0000
0001
0000
,  // measure 22
2000
0000
0000
3001
0100
0001
0100
0001
,  // measure 23
0002
0000
0000
1003
0100
1000
0100
1000
,  // measure 24
2000
0000
0000
3001
0100
0001
0100
0001
,  // measure 25
0002
0000
0000
1003
0100
1000
0100
1000
,  // measure 26
1000
1001
0110
0010
,  // measure 27
0000
0000
0010
0000
1000
0100
0010
0000
,  // measure 28
0000
1001
0110
0010
,  // measure 29
0000
0000
0100
0000
0001
0100
0010
0000
,  // measure 30
2000
0000
0000
3100
1000
0100
1000
0001
,  // measure 31
0002
0000
0000
0103
0001
0100
0001
1000
,  // measure 32
2000
0000
0000
3100
1000
0100
1000
0001
,  // measure 33
0002
0000
0000
0103
0001
0100
0001
1000
,  // measure 34
1000
1001
0110
0001
,  // measure 35
0000
0000
1000
0000
0010
0100
0001
0000
,  // measure 36
0001
1001
0110
1000
,  // measure 37
0000
0000
0001
0000
0010
0100
1000
0000
,  // measure 38
1001
0100
0000
0001
0000
0001
0000
1000
,  // measure 39
0100
0100
0000
0010
0000
0010
0000
0001
,  // measure 40
1001
1000
0000
0010
0000
0010
0000
0100
,  // measure 41
0001
0001
0000
0010
0000
0010
0000
0100
,  // measure 42
1100
0001
0000
0100
0000
0100
0000
0010
,  // measure 43
1000
1000
0000
0100
0000
0010
0000
0001
,  // measure 44
0101
0100
0000
0010
0000
0010
0000
1000
,  // measure 45
0100
0100
0000
0010
0000
0010
0000
0001
,  // measure 46
0110
1000
0000
0100
0000
0001
0000
0100
,  // measure 47
1000
0001
0000
0100
0000
1000
0000
0100
,  // measure 48
0101
1000
0000
0100
0000
0010
0000
0001
,  // measure 49
0100
1000
0000
0100
0000
0010
0000
1000
,  // measure 50
0110
0001
0000
0100
0000
1000
0000
0001
,  // measure 51
0010
1000
0000
0100
0000
0010
0000
0001
,  // measure 52
1100
0010
0000
0001
0000
0100
0000
0010
,  // measure 53
1000
0100
0000
0100
1000
0001
0100
0010
,  // measure 54
1000
0000
0000
1000
0100
0000
0000
0000
0000
0000
1100
0000
0000
0000
0000
0000
,  // measure 55
0001
0000
0000
0001
0100
0000
0000
0000
0000
0000
0101
0000
0000
0000
0000
0000
,  // measure 56
1000
0000
0000
1000
0001
0000
0000
0000
0000
0000
1100
0000
0000
0000
0000
0000
,  // measure 57
0010
0000
0000
0001
0100
0000
0000
0000
0000
0000
0110
0000
0000
0000
0000
0000
,  // measure 58
1000
0000
0000
0100
0010
0000
0000
0000
0000
0000
0011
0000
0000
0000
0000
0000
,  // measure 59
1000
0000
0000
0001
0100
0000
0000
0000
0000
0000
0110
0000
0000
0000
0000
0000
,  // measure 60
1000
0000
0000
1000
0100
0000
0000
0000
0000
0000
0011
0000
0000
0000
0000
0000
,  // measure 61
0001
0100
0000
0010
0000
0010
0000
0010
0000
0000
0100
0000
0001
1000
0001
0000
,  // measure 62
2010
0000
0000
3001
0100
0000
0000
0000
0000
0010
1000
0000
0000
0000
0000
0000
,  // measure 63
0012
0000
0000
1003
0100
0000
0000
0000
0000
0100
0010
0000
0000
0000
0000
0000
,  // measure 64
2001
0000
0000
3001
0100
0000
0000
0000
0000
0100
0010
0000
0000
0000
0000
0000
,  // measure 65
0120
0000
0000
1030
0100
0000
0000
0000
0000
0010
0001
0000
0000
0000
0000
0000
,  // measure 66
2001
0000
0000
3001
0100
0000
0000
0000
0000
0100
0010
0000
0000
0000
0000
0000
,  // measure 67
1020
0000
0000
1030
0100
0000
0000
0000
0000
0100
0010
0000
0000
0000
0000
0000
,  // measure 68
0012
0000
0000
1003
0010
0000
0000
0000
0000
1000
0001
0000
0000
0000
0000
0000
,  // measure 69
0100
0010
0000
0000
1000
0100
0000
0000
0010
0000
0100
1000
0100
0000
1000
0000
,  // measure 70
1000
0100
0000
0010
0000
0010
0000
0001
0100
0000
0010
0000
1000
0000
0000
0000
,  // measure 71
1000
0100
0000
0010
0000
0001
0000
0100
0010
0000
1000
0000
0000
0000
0000
0000
,  // measure 72
0100
0010
0000
0001
0000
0001
0000
0100
0010
0000
0010
0000
1000
0000
0000
0000
,  // measure 73
0001
0100
0000
0010
0000
0010
0000
0000
1100
0000
0000
0000
0101
0000
0000
0000
,  // measure 74
0010
1000
0000
0001
0000
0010
0000
0100
1000
0000
0000
0000
0001
0000
0000
0000
,  // measure 75
0001
0100
0000
1000
0000
0100
0000
0010
1000
0000
0001
0000
0000
0000
0000
0000
,  // measure 76
0010
0100
0000
1000
0000
0001
0000
0100
0010
0000
1000
0000
0001
0000
0000
0000
,  // measure 77
0010
0100
0000
0001
0000
0100
0000
0000
1100
0000
0000
0000
0101
0000
0000
0000
,  // measure 78
2002
0000
0000
0000
,  // measure 79
3003
0000
0000
0000
;

//---------------dance-single - ----------------
#NOTES:
     dance-single:
     :
     Challenge:
     10:
     0.737,0.672,0.532,0.157,0.817:
0000
0000
0000
0000
,
2002
0000
0000
0000
,
0000
0000
0000
0000
,
3003
0000
0002
0000
0000
0203
0000
0000
2300
0000
0000
3002
0000
0000
0023
0000
,
0000
0030
2000
0000
0000
3200
0000
0000
0320
0000
0000
0032
0000
0000
2003
0000
,
3001
0010
0001
0000
1000
0000
1000
0100
1000
0000
0001
0000
0000
0000
0000
0000
,
0011
0000
0000
1000
0000
0000
1010
0000
0000
0100
0000
0000
0010
0000
0000
0000
,
0100
0001
0100
0000
0010
0000
0010
1000
0010
0000
0100
0000
0000
0000
0000
0000
,
0101
0000
0000
0100
0000
0000
0110
0000
0000
0010
0000
0000
1000
0000
0000
0000
,
0001
0100
0010
0000
1000
0000
1000
0100
0010
0000
0001
0000
0000
0000
0000
0000
,
1001
0000
0000
1000
0000
0000
1100
0000
0000
0100
0000
0000
0010
0000
0000
0000
,
0100
1000
0010
0000
0100
0000
0100
0001
0010
0000
0100
0000
0000
0000
0000
0000
,
1000
0000
0000
0010
0000
0000
0001
0000
0000
0100
0000
0000
1000
0000
0000
0000
,
1001
0000
1000
0001
0000
0001
0100
0000
0100
0010
0000
0010
1000
0000
1000
0100
,
1000
0000
1000
0100
0000
0100
0010
0000
0010
0001
0000
0001
0100
0000
0010
0000
,
1010
0000
0010
1000
0000
1000
0100
0000
0100
0001
0000
0001
0100
0000
1000
0100
,
0010
0000
0010
0001
0000
0001
0100
0000
0100
1000
0000
1000
0100
0000
0010
0000
,
1100
0000
1000
0010
0000
0100
0001
0000
0001
0100
0000
0010
1000
0000
0001
1000
,
0010
0000
0010
1000
0000
1000
0100
0000
0100
0001
0000
0001
0100
0000
1000
0000
,
0101
0000
0001
0100
0000
0010
1000
0000
0100
0010
0000
0001
0010
0000
0001
1000
,
0010
0000
1000
0100
0000
0010
0001
0000
0001
1000
0000
0100
0010
0000
0010
0000
,
1001
0000
0001
0000
1000
0000
0001
0100
0001
0100
0001
0100
0001
0000
0100
0000
,
0001
0000
1000
0000
0001
0000
1000
0100
1000
0100
1000
0100
1000
0000
0100
0000
,
1000
0000
0001
0000
1000
0000
0001
0100
0001
0100
0001
0100
0001
0000
0100
0000
,
0001
0000
1000
0000
0001
0000
1000
0100
1000
0100
1000
0100
1000
0000
0100
0000
,
1000
1001
0110
0010
,
0100
0000
0000
0000
0011
0000
0000
1000
0100
0000
0011
0000
1001
0000
0000
0000
,
1000
1001
0110
0010
,
1000
0000
0000
0000
1100
0000
0000
0010
0001
0000
1010
0000
1001
0000
0000
0000
,
1000
0000
0100
0000
1000
0000
0001
1000
0001
1000
0001
1000
0001
0000
1000
0000
,
0001
0000
0100
0000
0001
0000
1000
0001
1000
0001
1000
0001
1000
0000
0001
0000
,
1000
0000
0100
0000
1000
0000
0001
1000
0001
1000
0001
1000
0001
0000
1000
0000
,
0001
0000
0100
0000
0001
0000
1000
0001
1000
0001
1000
0001
1000
0000
0001
0000
,
1000
1001
0110
0001
,
0010
0000
0000
0000
1100
0000
0000
0001
0010
0000
1100
0000
1001
0000
0000
0000
,
0001
1001
0110
1000
,
0100
0000
0000
0000
0011
0000
0000
0001
0010
0000
0110
0000
1001
0000
0000
0000
,
1001
0000
1000
0010
0000
0000
0010
0100
0000
0000
0100
0010
0000
0000
0010
1000
,
0100
0000
0100
0010
0000
0000
0010
0001
0000
0000
0001
0100
0000
0000
0010
0000
,
0110
0000
1000
0010
0000
0000
0010
0100
0000
0000
0100
0001
0000
0000
0001
0010
,
0100
0000
1000
0010
0000
0000
0010
0100
0000
0000
0100
0001
0000
0000
0001
0000
,
0011
0000
0010
0100
0000
0000
1000
0100
0000
0000
0010
0001
0000
0000
0010
0001
,
1000
0000
1000
0010
0000
0000
0100
0001
0000
0000
1000
0100
0000
0000
0001
0000
,
0101
0000
0100
0010
0000
0000
0010
0100
0000
0000
0001
0100
0000
0000
0010
1000
,
0100
0000
0100
1000
0000
0000
0010
0100
0000
0000
0001
0010
0000
0000
0001
0000
,
0110
0000
0110
0000
1000
0000
0100
0010
0000
0000
0010
0001
0000
0000
0100
0001
,
1000
0000
0001
0010
0000
0000
0010
0100
0000
0000
0100
1000
0000
0000
0100
0000
,
0011
0000
0011
0000
0001
0000
0100
0001
0000
0000
0010
0100
0000
0000
1000
0001
,
0100
0000
0010
1000
0000
0000
0001
0100
0000
0000
0001
0010
0000
0000
0100
0000
,
0110
0000
0110
0000
0010
0000
0100
1000
0000
0000
0100
0010
0000
0000
0001
1000
,
0010
0000
1000
0100
0000
0000
0100
0010
0000
0000
0010
0001
0000
0000
0001
0000
,
1100
0000
1100
0000
0010
0000
0001
0100
0000
0000
0100
0010
0000
0000
0010
1000
,
0100
0000
0100
0010
0000
0000
0100
1000
0001
0100
0001
1000
0100
1000
0001
0000
,
1100
0000
0000
0001
0100
0000
0000
0000
0000
0100
0010
0000
1000
0000
0000
0000
,
1001
0000
0000
1000
0100
0000
0000
0000
0000
0100
0010
0000
1001
0000
0000
0000
,
0011
0000
0000
1000
0001
0000
0000
0000
0000
0010
1000
0000
0001
0000
0000
0000
,
0011
0000
0000
0001
0100
0000
0000
0000
0000
0100
0010
0000
1000
0100
0000
0000
,
1100
0000
0000
0100
0010
0000
0000
0000
0000
0010
0001
0000
1000
0000
0000
0000
,
1001
0000
0000
0001
0100
0000
0000
0000
0000
0010
0100
0000
0001
0000
0000
0000
,
1010
0000
0000
1000
0100
0000
0000
0000
0000
0010
0001
0000
1000
0000
0000
0000
,
0001
0100
0000
0010
0000
0010
0000
0010
0000
0000
0100
0000
0001
1000
0001
0000
,
2010
0000
0000
3001
0100
0000
0000
0000
0000
0010
1000
0000
1001
0000
0000
0000
,
0012
0000
0000
1003
0100
0000
0000
0000
0000
0100
0010
0000
0011
0000
0000
0000
,
2001
0000
0000
3001
0100
0000
0000
0000
0000
0100
0010
0000
1010
0000
0000
0000
,
0120
0000
0000
1030
0100
0000
0000
0000
0000
0010
0001
0000
0110
0000
0000
0000
,
2001
0000
0000
3001
0100
0000
0000
0000
0000
0100
0010
0000
1001
0000
0000
0000
,
1020
0000
0000
1030
0100
0000
0000
0000
0000
0100
0010
0000
0011
0000
0000
0000
,
0012
0000
0000
1003
0010
0000
0000
0000
0000
0100
0010
0000
1010
0000
0000
0000
,
0100
0010
0000
0000
1000
0100
0000
0000
0010
0000
0100
1000
0100
1000
0100
0000
,
1000
0100
0000
0010
0000
0010
0000
0001
0100
0001
0100
0000
0110
0000
0000
0000
,
1000
0100
0000
0010
0000
0010
0000
0001
0010
0100
1000
0000
0100
0000
0000
0000
,
0100
0010
0000
0001
0000
0001
0000
0100
0010
0100
0010
0000
1001
0000
0000
0000
,
0001
0100
0000
0010
0000
0010
0000
1000
0001
1000
0001
0000
1000
0001
1000
0000
,
0010
1000
0000
0001
0000
0010
0000
0100
1000
0001
0100
0000
1001
0000
0000
0000
,
0001
0100
0000
1000
0000
0100
0000
0001
1000
0100
0010
0000
0010
0000
0000
0000
,
0010
0100
0000
1000
0000
0001
0000
0100
0010
0100
0001
0000
1001
0000
0000
0000
,
1000
0100
0000
0010
0000
0100
0000
1000
0001
0010
0100
0000
1000
0010
0100
0000
,
2002
0000
0000
0000
,
3003
0000
0000
0000
;
