#TITLE:MAX!乙女心 ;
#SUBTITLE:;
#ARTIST:SUPER☆GiRLS;
#TITLETRANSLIT:MAX! Otome Gokoro;
#SUBTITLETRANSLIT:;
#ARTISTTRANSLIT:SUPER*GIRLS;
#CREDIT:;
#BANNER:MAX! Otome Gokoro.png;
#BACKGROUND:MAX! Otome Gokoro-bg.png;
#LYRICSPATH:;
#CDTITLE:;
#MUSIC:MAX! Otome Gokoro.mp3;
#OFFSET:-1.874;
#SAMPLESTART:72.105;
#SAMPLELENGTH:16.420;
#SELECTABLE:YES;
#BPMS:0.000=140.000;
#STOPS:;
#BGCHANGES:;

//---------------dance-single - ----------------
#NOTES:
     dance-single:
     :
     Hard:
     7:
     0.494,0.504,0.381,0.430,0.020:
0000
0000
0000
0000
,
0000
0000
0000
0000
,
0000
0000
0000
0000
,
0000
0000
0000
0000
,
1000
0100
0001
0100
2000
0000
3001
0000
,
1000
0010
0001
0010
2000
0000
3001
0000
,
1000
0100
0010
0000
0001
0100
0010
1000
,
1001
0000
0000
0000
1100
0000
0000
0000
0001
0000
0000
0100
0000
0000
0010
0000
,
1010
0000
1100
0000
1001
0000
0001
0200
,
0000
1300
0000
0100
0002
0000
0013
0000
,
0011
0000
0110
0000
1100
0000
1000
0020
,
0000
0032
0000
0023
0000
1000
1030
0000
,
0001
0000
1001
0000
0001
0100
0000
2000
,
0000
3100
0000
0002
0000
0013
1000
0010
,
0002
0000
0103
0000
0001
0100
0010
0000
,
1000
0000
0000
0100
0000
0000
0010
0000
0002
0000
0000
0000
1003
0000
0000
0000
,
0001
0100
0010
0100
0001
0000
0010
0100
,
0000
1000
0100
0010
0001
0001
0001
0000
,
1000
0010
0100
0010
1000
0000
0100
1000
,
0000
0001
0010
0100
0010
0010
0010
0000
,
0001
0100
1000
0100
0001
0000
1000
0001
,
0000
1000
0100
0010
0001
1000
0001
0000
,
0101
0000
1010
0000
1001
0000
1000
0200
,
0000
0310
0001
1000
0001
0001
0100
0000
,
0010
1000
0100
0001
0100
0000
1000
0010
,
0000
0001
0010
1000
0001
0100
0010
0000
,
0100
0001
0010
1000
0010
0000
0001
0100
,
0000
0010
1000
0100
0010
0001
1000
0000
,
0001
0100
1000
0010
0001
0000
1000
0001
,
0000
0100
0010
1000
0100
0010
0001
0000
,
0011
0000
1100
0000
0101
0000
1000
0010
,
0200
0000
0301
0000
1000
0010
0001
0000
,
1000
0101
0001
1100
,
1000
0010
0100
0001
0010
0010
0010
0000
,
0100
0011
0100
1010
,
1000
0100
0001
0100
1000
1000
0001
0000
,
0102
0013
2100
3010
,
1000
0010
0001
0100
1000
1000
0001
0000
,
0102
1003
2100
3001
,
0012
1003
2010
3001
,
2002
0000
0000
3003
,
1100
0000
0100
0001
0000
0100
0000
2000
,
0000
0001
3001
0000
1002
0000
0103
0000
,
0101
0000
0001
0010
0000
1000
0000
0020
,
0000
0001
0031
0000
0012
0000
0103
0000
,
0002
0203
2300
3020
,
0031
0100
0010
0000
2000
0000
3001
0000
,
1100
0000
0000
0000
0101
0000
0000
0000
1000
0000
0000
0010
0000
0000
0200
0000
,
0000
0010
0310
0000
1000
0100
0010
0000
,
0011
0000
0001
0100
0000
0001
0000
0020
,
0000
0100
0130
0000
2100
0000
3001
0000
,
1001
0000
0001
0100
0000
1000
0000
0200
,
0000
0010
0310
0000
0102
0000
1003
0000
,
0002
0203
2300
3020
,
0031
0100
0010
0000
2000
0000
3001
0000
,
1010
0000
0000
0000
0011
0000
0000
0000
1000
0000
0000
0010
0000
0000
0200
0000
,
0000
0001
0301
0000
0100
0010
1000
0000
,
1001
0000
0001
0010
0100
0100
0100
0000
,
0000
0000
0010
0010
0020
0000
0031
0000
,
0101
0000
0011
0000
1001
0000
1000
0020
,
0000
0031
0000
0010
2000
0000
3100
0000
,
1100
0000
0110
0000
0011
0000
0001
0200
,
0000
2300
0000
3200
0000
0001
0301
0000
,
1000
0000
1001
0000
1000
0010
0000
0002
,
0000
0013
0000
2000
0000
3100
0001
0100
,
2000
0000
3010
0000
1000
0010
0100
0000
,
0001
0000
0000
0010
0000
0000
0100
0000
2000
0000
0000
0000
3001
0000
0000
0000
,
2002
0000
0000
0000
,
0000
0000
0000
0000
,
3003
0000
0000
0000
;

//---------------dance-single - ----------------
#NOTES:
     dance-single:
     :
     Beginner:
     1:
     0.103,0.136,0.008,0.000,0.000: // measure 1
0000
0000
0000
0000
,  // measure 2
0000
0000
0000
0000
,  // measure 3
0000
0000
0000
0000
,  // measure 4
0000
0000
0000
0000
,  // measure 5
1000
0000
0000
0000
,  // measure 6
0001
0000
0000
0000
,  // measure 7
0100
0000
0000
0000
,  // measure 8
0010
0000
0010
0000
,  // measure 9
0010
0000
0000
0000
,  // measure 10
1000
0000
0000
0000
,  // measure 11
0100
0000
0000
0000
,  // measure 12
0001
0000
0001
0000
,  // measure 13
0001
0000
0000
0000
,  // measure 14
0100
0000
0000
0000
,  // measure 15
1000
0000
0000
0000
,  // measure 16
0010
0000
0010
0000
,  // measure 17
0010
0000
0000
0000
,  // measure 18
0100
0000
0000
0000
,  // measure 19
0001
0000
0000
0000
,  // measure 20
1000
0000
1000
0000
,  // measure 21
1000
0000
0000
0000
,  // measure 22
0001
0000
0000
0000
,  // measure 23
0010
0000
0000
0000
,  // measure 24
0100
0000
0100
0000
,  // measure 25
0100
0000
0000
0000
,  // measure 26
1000
0000
0000
0000
,  // measure 27
0001
0000
0000
0000
,  // measure 28
0010
0000
0010
0000
,  // measure 29
0010
0000
0000
0000
,  // measure 30
0001
0000
0000
0000
,  // measure 31
0100
0000
0000
0000
,  // measure 32
0010
0000
0010
0000
,  // measure 33
0010
0000
0000
0000
,  // measure 34
1000
0000
1000
0000
,  // measure 35
1000
0000
0000
0000
,  // measure 36
0001
0000
0001
0000
,  // measure 37
0001
0000
0000
0000
,  // measure 38
0100
0000
0100
0000
,  // measure 39
0100
0000
0000
0000
,  // measure 40
0010
0000
0010
0000
,  // measure 41
0010
0000
0000
0000
,  // measure 42
1000
0000
0000
0000
,  // measure 43
0001
0000
0001
0000
,  // measure 44
0001
0000
0000
0000
,  // measure 45
1000
0000
1000
0000
,  // measure 46
1000
0000
0000
0000
,  // measure 47
0010
0000
0010
0000
,  // measure 48
0010
0000
0000
0000
,  // measure 49
0100
0000
0100
0000
,  // measure 50
0100
0000
0000
0000
,  // measure 51
0001
0000
0001
0000
,  // measure 52
0001
0000
0000
0000
,  // measure 53
1000
0000
1000
0000
,  // measure 54
1000
0000
0000
0000
,  // measure 55
0100
0000
0100
0000
,  // measure 56
0100
0000
0000
0000
,  // measure 57
0010
0000
0010
0000
,  // measure 58
0010
0000
0001
0001
,  // measure 59
0000
1000
1000
0000
,  // measure 60
0010
0000
0000
0000
,  // measure 61
0100
0000
0000
0000
,  // measure 62
0001
0000
0000
0000
,  // measure 63
1000
0000
1000
0000
,  // measure 64
1000
0000
0000
0000
,  // measure 65
0001
0000
0000
0000
,  // measure 66
0010
0000
0000
0000
,  // measure 67
0100
0000
0100
0000
,  // measure 68
1001
0000
0000
0000
;

//---------------dance-single - ----------------
#NOTES:
     dance-single:
     :
     Easy:
     3:
     0.282,0.272,0.065,0.008,0.000: // measure 1
0000
0000
0000
0000
,  // measure 2
0000
0000
0000
0000
,  // measure 3
0000
0000
0000
0000
,  // measure 4
0000
0000
0000
0000
,  // measure 5
1000
1000
1000
0000
,  // measure 6
0001
0001
0001
0000
,  // measure 7
0100
0010
1000
0010
,  // measure 8
0100
0100
0001
0001
,  // measure 9
1001
0001
0100
0010
,  // measure 10
0100
0001
1000
1000
,  // measure 11
0100
1000
0010
0100
,  // measure 12
0001
0001
1000
1000
,  // measure 13
0001
0010
0100
1000
,  // measure 14
0001
0100
0010
1000
,  // measure 15
0001
0010
1000
0010
,  // measure 16
0001
0100
1000
0000
,  // measure 17
0100
0001
0010
0100
,  // measure 18
1000
0001
1000
1000
,  // measure 19
0001
0010
0100
1000
,  // measure 20
0010
0100
0001
0001
,  // measure 21
0100
0010
1000
0001
,  // measure 22
0010
0100
1000
1000
,  // measure 23
0100
0010
0001
1000
,  // measure 24
0010
0100
0001
0000
,  // measure 25
0100
0010
1000
0010
,  // measure 26
0100
0001
1000
1000
,  // measure 27
0001
0010
0100
1000
,  // measure 28
0001
0100
0010
0010
,  // measure 29
0100
0001
0010
0100
,  // measure 30
1000
0001
1000
1000
,  // measure 31
0001
0100
0010
0100
,  // measure 32
0001
1000
0100
0000
,  // measure 33
1000
1000
0001
0001
,  // measure 34
1000
0010
0100
0000
,  // measure 35
0001
0001
1000
1000
,  // measure 36
0001
0010
0100
0000
,  // measure 37
1000
1000
0001
0001
,  // measure 38
1000
0100
0001
0000
,  // measure 39
1000
1000
0001
0001
,  // measure 40
0100
0100
0010
0010
,  // measure 41
2000
0000
0000
3000
,  // measure 42
0001
0100
0010
0100
,  // measure 43
0001
0010
0110
0000
,  // measure 44
0100
1000
0010
0100
,  // measure 45
0010
1000
1001
0000
,  // measure 46
1000
0100
0010
0100
,  // measure 47
1000
1000
0001
0000
,  // measure 48
0100
0010
0100
0001
,  // measure 49
1000
1000
0001
0001
,  // measure 50
1001
0001
0100
0010
,  // measure 51
0100
0001
1001
0000
,  // measure 52
0001
1000
0010
0100
,  // measure 53
0010
1000
1001
0000
,  // measure 54
0001
0010
0100
1000
,  // measure 55
0010
0010
0100
0000
,  // measure 56
0001
0100
0010
1000
,  // measure 57
0001
0010
0100
1000
,  // measure 58
0001
0100
0010
0010
,  // measure 59
0000
0100
0100
0010
,  // measure 60
1001
0001
0100
0010
,  // measure 61
0100
0001
1000
1000
,  // measure 62
0100
1000
0010
0100
,  // measure 63
0001
0001
1000
1000
,  // measure 64
0001
0010
0100
1000
,  // measure 65
0001
0100
0010
1000
,  // measure 66
0001
0010
1000
0010
,  // measure 67
0001
0100
1000
0000
,  // measure 68
1001
0000
0000
0000
;

//---------------dance-single - ----------------
#NOTES:
     dance-single:
     :
     Medium:
     5:
     0.401,0.408,0.251,0.195,0.008: // measure 1
0000
0000
0000
0000
,  // measure 2
0000
0000
0000
0000
,  // measure 3
0000
0000
0000
0000
,  // measure 4
0000
0000
0000
0000
,  // measure 5
1000
0100
1000
0100
2000
0000
3000
0000
,  // measure 6
0001
0100
0001
0100
0002
0000
0003
0000
,  // measure 7
1000
0010
1000
0000
0001
0010
0001
0000
,  // measure 8
2000
3200
0320
0031
,  // measure 9
0011
0000
0101
0000
0110
0000
0010
1000
,  // measure 10
0000
0010
0000
0100
0001
0000
1000
0000
,  // measure 11
1001
0000
1100
0000
0110
0000
0010
0001
,  // measure 12
0000
0100
0000
0001
0000
0010
0100
0000
,  // measure 13
1000
0000
1001
0000
0001
0100
0000
1000
,  // measure 14
0000
0100
0000
0001
0000
0010
1000
0000
,  // measure 15
0010
0000
0001
0000
1000
0010
1000
0000
,  // measure 16
0001
0000
0100
0010
0100
0000
1001
0000
,  // measure 17
1000
0010
0100
0001
,  // measure 18
1000
0000
0100
0000
0010
0010
0010
0000
,  // measure 19
0100
1000
0010
0100
,  // measure 20
0001
0000
1000
0000
0001
0001
0001
0000
,  // measure 21
0100
0010
1000
0100
,  // measure 22
0010
0000
0001
0000
0010
0010
0010
0000
,  // measure 23
0100
1000
0010
0100
,  // measure 24
0001
0100
0001
0000
1000
0100
1000
0100
,  // measure 25
0010
0001
0100
0001
,  // measure 26
0010
0000
0100
0000
1000
0001
1000
0000
,  // measure 27
0010
0100
0001
0100
,  // measure 28
0010
0000
1000
0000
0100
0010
0100
0000
,  // measure 29
1000
0001
0010
0100
,  // measure 30
0010
0000
0001
0000
1000
0010
1000
0000
,  // measure 31
0010
0100
0001
1000
,  // measure 32
0001
0100
0001
0000
1000
0010
1000
0001
,  // measure 33
1000
1100
0001
0101
,  // measure 34
1000
0001
1000
0000
0010
0100
0010
0000
,  // measure 35
1000
0011
0001
1010
,  // measure 36
1000
0001
1000
0000
0010
0100
0010
0000
,  // measure 37
0100
0101
0001
0011
,  // measure 38
0010
0100
0010
0000
0100
1000
0100
0000
,  // measure 39
1000
0101
0001
1100
,  // measure 40
1000
0011
0001
1010
,  // measure 41
2002
0000
0000
3003
,  // measure 42
1001
0001
0100
1000
,  // measure 43
0100
0001
0100
0000
0002
0000
0013
0000
,  // measure 44
0100
1000
0010
1000
,  // measure 45
0100
1000
0100
0000
2000
0000
3001
0000
,  // measure 46
2000
3020
0230
0302
,  // measure 47
0013
0100
1000
0000
0002
0000
1003
0000
,  // measure 48
0001
0000
0000
0000
0100
0000
0000
0000
0010
0000
0000
0010
0000
0000
0020
0000
,  // measure 49
0000
0000
1030
0000
0010
0100
0001
0000
,  // measure 50
1001
0001
0100
0010
,  // measure 51
1000
0100
0001
0000
0200
0000
1300
0000
,  // measure 52
0010
0100
0001
1000
,  // measure 53
0001
0010
1000
0000
0020
0000
0031
0000
,  // measure 54
0200
0320
2030
3002
,  // measure 55
0103
0010
1000
0000
0002
0000
1003
0000
,  // measure 56
0100
0000
0000
0000
0010
0000
0000
0000
0001
0000
0000
0001
0000
0000
0002
0000
,  // measure 57
0000
0000
0013
0000
0100
1000
0001
0000
,  // measure 58
1001
0000
0001
0000
0100
0100
0100
0000
,  // measure 59
0000
0000
0010
0010
0020
0000
1030
0000
,  // measure 60
1100
0000
1010
0000
0110
0000
0100
0001
,  // measure 61
0000
0100
0000
0010
1000
0000
0001
0000
,  // measure 62
1001
0000
0011
0000
0110
0000
0100
1000
,  // measure 63
0000
0010
0000
1000
0000
0100
0010
0000
,  // measure 64
0001
0000
1001
0000
1000
0010
0000
0001
,  // measure 65
0000
0010
0000
1000
0000
0100
0001
0000
,  // measure 66
0100
0000
1000
0000
0001
0100
0001
0000
,  // measure 67
1000
0000
0010
0100
0010
0000
1001
0000
,  // measure 68
0110
0000
0000
0000
;
