#TITLE:Look Around;
#SUBTITLE:;
#ARTIST:Red Hot Chili Peppers;
#TITLETRANSLIT:;
#SUBTITLETRANSLIT:;
#ARTISTTRANSLIT:;
#GENRE:;
#CREDIT:;
#BANNER:;
#BACKGROUND:;
#LYRICSPATH:;
#CDTITLE:;
#MUSIC:Red Hot Chili Peppers - Look Around.ogg;
#OFFSET:-0.552;
#SAMPLESTART:51.730;
#SAMPLELENGTH:12.000;
#SELECTABLE:YES;
#DISPLAYBPM:112.000;
#BPMS:0.000=112.300
,4.000=113.800
,8.000=113.700
,12.000=115.200
,16.000=113.500
,20.000=113.200
,24.000=113.900
,28.000=115.400
,32.000=112.200
,36.000=111.600
,40.000=111.500
,44.000=110.900
,48.000=111.300
,52.000=113.100
,56.000=112.700
,64.000=110.500
,68.000=111.000
,80.000=110.700
,84.000=112.300
,88.000=113.400
,92.000=114.700
,96.000=111.200
,100.000=111.700
,104.000=112.100
,108.000=112.500
,112.000=113.200
,116.000=113.600
,120.000=112.600
,124.000=114.100
,128.000=111.900
,132.000=111.200
,140.000=111.400
,144.000=112.000
,152.000=111.000
,156.000=111.700
,160.000=112.200
,164.000=111.500
,168.000=112.400
,172.000=112.000
,176.000=112.200
,180.000=112.800
,184.000=113.500
,188.000=114.700
,192.000=111.800
,196.000=112.700
,200.000=113.600
,208.000=114.100
,212.000=112.700
,216.000=113.500
,220.000=114.900
,224.000=111.800
,228.000=112.100
,232.000=111.100
;
#STOPS:
;
#BGCHANGES:;
#KEYSOUNDS:;
#ATTACKS:;

//---------------dance-single - Blank----------------
#NOTES:
     dance-single:
     :
     Hard:
     8:
     0.448,0.473,0.070,0.062,0.148,387.000,9.000,8.000,0.000,0.000,0.000,0.448,0.473,0.070,0.062,0.148,387.000,9.000,8.000,0.000,0.000,0.000:
0000
0000
0000
0000
,
0000
0000
0000
0000
,
0000
0000
0000
0000
,
0000
0000
0000
0000
,
1000
0000
0010
0000
0100
0000
0000
1000
0000
0100
0000
0010
0000
0000
1000
0000
,
0001
0000
0010
0000
0100
0000
0000
0001
0000
0100
0000
0010
0000
0000
0001
0000
,
1000
0000
0100
0000
0010
0000
0000
1000
0000
0010
0000
0100
0000
0000
1000
0000
,
0001
0000
0100
0000
0010
0000
0000
0001
0000
0000
0010
0000
0100
0001
0000
0001
,
1000
0000
0010
0000
0100
0001
0010
0100
,
1000
0000
0010
0000
0001
0000
0010
1000
0010
0000
0100
0000
0010
0000
1000
0000
,
0001
0000
0010
0000
0100
1000
0010
0100
,
0001
0000
0010
0000
1000
0000
0010
0001
0010
0000
0100
0000
0010
0000
0001
0000
,
1000
0100
1000
0000
0010
0000
0000
0000
1000
0100
1000
0000
0001
0000
0001
0000
,
0100
0000
0010
0000
0100
0000
0001
0010
0001
0000
1000
0000
0010
0000
0100
0000
,
0001
0010
1000
0000
1000
0100
0001
0000
,
0100
0010
0100
0000
0001
0000
0010
0100
0010
0000
0001
0000
1000
0000
0000
0000
,
0010
0001
0010
0200
0000
1000
1300
0000
,
0100
0010
1000
0200
0000
0001
0301
0000
,
0100
1000
0010
0002
0000
0010
0013
0000
,
0110
0101
1010
0110
,
1000
0000
0100
0000
0001
0100
0010
0100
,
0001
0100
1000
0100
0010
0100
1000
0010
,
1000
0100
1000
0100
1000
0000
0010
0000
0100
0000
1000
0000
0100
0000
0000
0000
,
0010
0100
0010
0000
0100
0000
0001
0100
0001
0000
0100
0000
0010
0000
0000
0000
,
1000
0100
1000
0100
0001
0100
0001
0100
,
0001
0010
0001
0010
1000
0010
1000
0000
,
0001
0100
0001
0100
1000
0100
1000
0100
,
1000
0010
1000
0010
0001
0010
0001
0000
,
1000
0010
1000
0010
0001
0010
0001
0010
,
0001
0100
0001
0100
1000
0100
1000
0000
,
0001
0010
0001
0010
1000
0010
1000
0010
,
1000
0000
0100
0000
1000
0000
0100
0000
0001
0000
0000
0100
0001
0000
0001
0000
,
1000
0000
0100
0001
0010
0001
0100
0000
,
1000
0010
0001
0010
1000
0001
0100
0000
,
0001
0000
0010
1000
0100
1000
0010
0000
,
0001
0000
0100
0000
1000
0000
0100
0000
0001
0000
1000
0000
0010
0100
0000
0000
,
0001
0010
0100
0002
0000
0100
0103
0000
,
1000
0010
0100
2000
0000
0100
3100
0000
,
0001
0100
0010
0002
0000
0010
0013
0000
,
1010
0110
1001
1100
,
0100
0000
0010
0000
0001
0100
1000
0100
,
0001
0000
0010
0000
0100
0000
1000
0100
1000
0000
0100
0000
0001
0000
0100
0000
,
0010
0000
0100
0000
1000
0010
0001
0010
,
1000
0010
1000
0000
0100
0000
1000
0100
1000
0000
0100
0000
0001
0000
0100
0000
,
1000
0100
1000
0100
1000
0000
0001
0100
0001
0000
1000
0000
0100
0000
0000
0000
,
0100
1000
0100
1000
0100
0000
0010
0001
0010
0001
0010
0000
0100
0000
0000
0000
,
1000
0010
0001
0100
0001
0010
1000
0000
,
0001
0010
0001
0000
0010
0000
1000
0000
0100
0000
0001
0000
0010
0000
0000
0000
,
0001
0100
0001
0100
1000
0100
1000
0100
,
1000
0010
1000
0010
0001
0010
0001
0000
,
1000
0100
1000
0100
0001
0100
0001
0100
,
0001
0010
0001
0010
1000
0010
1000
0000
,
0001
0010
0001
0010
1000
0010
1000
0010
,
1000
0100
1000
0100
0001
0100
0001
0000
,
1000
0010
1000
0010
0001
0010
0001
0010
,
0001
0000
0100
0000
0001
0000
0100
0000
1000
0000
0000
0100
1000
0000
1000
0000
,
0001
0000
0000
0010
0000
0000
0220
0000
0000
0000
0000
0000
0000
0000
0000
0000
,
0000
0000
0000
0000
,
0330
0000
0000
0000
;

//---------------dance-single - Blank----------------
#NOTES:
     dance-single:
     :
     Easy:
     3:
     0.208,0.180,0.031,0.388,0.000,133.000,4.000,50.000,0.000,0.000,0.000,0.208,0.180,0.031,0.388,0.000,133.000,4.000,50.000,0.000,0.000,0.000:
0000
0000
0000
0000
,
0000
0000
0000
0000
,
0000
0000
0000
0000
,
0000
0000
0000
0000
,
1000
0000
0100
0000
,
0001
0000
0100
0000
,
1000
0000
0010
0000
,
0001
0000
0010
0000
,
1000
0000
0001
0001
,
0100
0010
1000
0001
,
0010
0000
0100
0100
,
1000
0010
0100
0001
,
1000
0000
1000
0000
,
0001
0100
1000
0100
,
0001
0000
1000
0000
,
0001
0010
0100
1000
,
0020
0000
0230
0000
,
0302
0000
2003
0000
,
3200
0000
0320
0000
,
0230
0000
2300
0000
,
3001
0000
0001
0100
,
1000
0100
0001
0010
,
0100
0100
1000
0000
,
0001
0001
0100
0000
,
0002
0000
0023
0000
,
2030
0000
3200
0000
,
2300
0000
3020
0000
,
0032
0000
0203
0000
,
0302
0000
0023
0000
,
2030
0000
3200
0000
,
2300
0000
3020
0000
,
0032
0000
0203
0000
,
0310
0000
1001
0000
,
0100
0000
1001
0000
,
0010
0000
0011
0000
,
0100
0000
1100
0000
,
2000
0000
3002
0000
,
0203
0000
0320
0000
,
0230
0000
0302
0000
,
2003
0000
3200
0000
,
1300
0000
0010
0010
,
0001
0010
1000
0100
,
0010
0000
0100
0100
,
0001
0100
1000
0010
,
0100
0000
0001
0100
,
1000
0000
1000
0010
,
0001
0100
0010
0010
,
1000
0001
0010
0010
,
0200
0000
2300
0000
,
3020
0000
0032
0000
,
0023
0000
2030
0000
,
3200
0000
0302
0000
,
0203
0000
2300
0000
,
3020
0000
0032
0000
,
0203
0000
2300
0000
,
3020
0000
0032
0000
,
2003
0000
0002
0000
,
0000
0000
0000
0000
,
3003
0000
0000
0000
;

//---------------dance-single - Blank----------------
#NOTES:
     dance-single:
     :
     Medium:
     5:
     0.385,0.360,0.008,0.668,0.000,260.000,1.000,86.000,0.000,0.000,0.000,0.385,0.360,0.008,0.668,0.000,260.000,1.000,86.000,0.000,0.000,0.000: // measure 0
0000
0000
0000
0000
,  // measure 1
0000
0000
0000
0000
,  // measure 2
0000
0000
0000
0000
,  // measure 3
0000
0000
0000
0000
,  // measure 4
1000
0000
0001
0000
1000
0010
0100
0000
,  // measure 5
0001
0000
1000
0000
0001
0100
0010
0000
,  // measure 6
1000
0000
0001
0000
1000
0100
0010
0000
,  // measure 7
0001
0000
1000
0000
0001
0010
0100
0000
,  // measure 8
1000
0000
0000
0000
1000
0001
0100
0000
,  // measure 9
0001
0000
0001
0000
1000
0010
0100
0000
,  // measure 10
0001
0000
0000
0000
0001
1000
0100
0000
,  // measure 11
1000
0000
1000
0000
0001
0100
0010
0000
,  // measure 12
1000
0100
0001
0000
0001
0100
1000
0000
,  // measure 13
1000
0010
0001
0000
0001
0010
1000
0000
,  // measure 14
0001
0100
0001
0000
1000
0100
1000
0000
,  // measure 15
0001
0010
0001
0010
0100
1000
0100
0000
,  // measure 16
1000
0000
0001
0200
0000
0010
0310
0000
,  // measure 17
0001
0000
1000
0020
0000
0100
0130
0000
,  // measure 18
0001
0010
0100
2000
0000
0001
3001
0000
,  // measure 19
0200
2300
3020
0032
,  // measure 20
1003
0000
0010
0000
0100
0001
0010
0000
,  // measure 21
0001
0000
0100
0000
0010
1000
0100
0000
,  // measure 22
1000
0001
0100
0000
0001
1000
0010
0000
,  // measure 23
1000
0100
1000
0100
0010
0001
0010
0000
,  // measure 24
0002
0023
2030
3200
,  // measure 25
0302
0023
2030
3200
,  // measure 26
2300
3020
0032
0203
,  // measure 27
2300
3020
0032
0203
,  // measure 28
0302
0203
2300
3020
,  // measure 29
0032
0203
2300
3020
,  // measure 30
2030
3200
0302
0023
,  // measure 31
2030
3200
0302
0023
,  // measure 32
2030
0010
0001
3100
,  // measure 33
0002
1000
0010
0103
,  // measure 34
0002
0203
2300
3200
,  // measure 35
0301
0010
0100
0000
1000
0010
0100
0000
,  // measure 36
0001
0000
1000
0200
0000
0001
0301
0000
,  // measure 37
0100
0000
1000
0020
0000
0001
0031
0000
,  // measure 38
0010
1000
0100
0020
0000
0001
0031
0000
,  // measure 39
2000
3200
0302
0023
,  // measure 40
1030
0000
1000
0000
0010
0100
0001
0000
,  // measure 41
1000
0100
0010
0000
0001
1000
0010
0000
,  // measure 42
0100
0000
0100
0000
0001
0010
0100
0000
,  // measure 43
1000
0001
0100
0000
0001
1000
0010
0000
,  // measure 44
0100
0001
0100
0001
0010
0100
0010
0000
,  // measure 45
1000
0010
1000
0010
0100
0001
0100
0000
,  // measure 46
0001
1000
0100
0001
0100
1000
0001
0000
,  // measure 47
1000
0001
0010
1000
0010
0001
1000
0000
,  // measure 48
0002
0203
2300
3020
,  // measure 49
0032
0203
2300
3020
,  // measure 50
2030
3200
0302
0023
,  // measure 51
2030
3200
0302
0023
,  // measure 52
0032
0023
2030
3200
,  // measure 53
0302
0023
2030
3200
,  // measure 54
2300
3020
0032
0203
,  // measure 55
2300
3020
0032
0203
,  // measure 56
1300
0000
0000
2002
0000
0000
0000
0000
,  // measure 57
0000
0000
0000
0000
,  // measure 58
3003
0000
0000
0000
;
