#TITLE:KARMA;
#SUBTITLE:;
#ARTIST:TaQ;
#TITLETRANSLIT:;
#SUBTITLETRANSLIT:;
#ARTISTTRANSLIT:;
#GENRE:;
#CREDIT:;
#BANNER:Karma-banner.png;
#BACKGROUND:Karma-bg.png;
#LYRICSPATH:;
#CDTITLE:cdtitle.png;
#MUSIC:Karma.ogg;
#OFFSET:0.000;
#SAMPLESTART:16.800;
#SAMPLELENGTH:12.000;
#SELECTABLE:YES;
#BPMS:0.000=200.000
;
#STOPS:
;
#BGCHANGES:;
#KEYSOUNDS:;
#ATTACKS:;

//---------------dance-single - Rygon----------------
#NOTES:
     dance-single:
     :
     Hard:
     10:
     0.806,0.748,0.160,0.125,0.156,601.000,18.000,14.000,0.000,0.000,0.000,0.806,0.748,0.160,0.125,0.156,601.000,18.000,14.000,0.000,0.000,0.000:
0000
0000
0000
0000
,
0000
0000
0000
0000
,
0000
0000
0000
0000
,
0000
0000
0000
0000
,
0000
0000
0000
0000
,
0000
0000
0000
0000
,
0001
0000
0000
0000
0000
1000
0000
0000
,
0001
0000
0000
0100
,
0010
0000
0000
0000
0000
1000
0000
0000
,
0001
0000
0000
0000
0000
0010
0100
0000
,
1000
0000
0000
0010
0000
0001
0000
0000
,
0010
0000
0000
0000
0000
1000
0001
0000
,
0010
0000
0000
1000
0000
0010
0000
0000
,
0001
0100
0010
1000
0100
0010
0000
0110
,
0010
0001
0100
1000
0100
0001
0010
0000
,
0010
0100
1000
0010
0001
0010
1000
0000
,
1000
0001
0010
0100
1000
0010
0001
0000
,
0001
0010
1000
0100
0010
0001
1000
0000
,
0001
0100
1000
0100
0001
0010
0100
0000
,
0001
0100
1000
0100
0010
0001
0100
0000
,
0010
1000
0001
0010
1000
0010
0001
0000
,
0010
0001
1000
0010
0001
0010
1000
0001
,
1000
0100
0010
0001
0100
1000
1100
0000
,
1000
0100
0001
0010
0100
1000
1010
0000
,
0010
0001
0010
1000
0100
0010
0011
0000
,
0001
0010
1000
0010
0001
0100
0110
0000
,
0010
1000
0100
0001
1000
0010
0011
0000
,
0010
0001
0100
1000
0001
0010
1010
0000
,
1000
0100
0001
1000
0001
0100
1100
0000
,
1000
0010
0100
1000
0001
0010
0100
0001
,
1000
0000
0100
0010
0012
0000
0000
1003
,
0001
0000
0000
0000
0100
0000
0010
0000
1000
0000
0001
0000
1000
0001
1000
0000
,
0001
0000
0100
0010
2010
0000
0000
3001
,
1000
0000
0100
0010
0001
0100
0010
0100
,
1000
0000
0100
0001
0021
0000
0000
0130
,
1000
0000
0000
0000
0010
0000
0001
0000
0010
0000
1000
0000
0100
0010
0100
0000
,
0001
0000
0100
1000
2010
0000
0000
3001
,
1000
0000
0100
0010
0001
0100
0000
0000
,
0120
0000
1030
0001
0000
1000
0001
0000
,
0010
0000
0000
0000
0100
0000
0001
0000
0100
0000
1000
0000
0001
1000
0001
0000
,
0120
0000
0031
1000
0000
0001
1000
0000
,
0010
0000
0100
1000
0100
0001
0010
0100
,
2001
0000
3100
0010
0000
0100
0010
0000
,
0001
0000
1000
0010
1000
0100
0010
0001
,
1002
0000
0000
0000
0013
0000
0100
0010
0100
0000
0010
0000
0100
0000
0000
0000
,
1000
0000
0001
0100
0001
0000
0100
0000
0001
0000
0010
0000
1000
0000
0001
0000
,
0100
0100
0001
0100
1000
0001
0100
1000
,
0000
1000
0100
0001
1000
0100
0001
0100
,
0010
0010
1000
0010
0001
1000
0010
0001
,
0000
0001
0010
1000
0001
0010
1000
0010
,
0001
0001
1000
0010
0001
1000
0001
0010
,
0000
0010
1000
0001
0010
1000
0010
0001
,
1000
1000
0001
0100
1000
0001
1000
0100
,
0000
0100
0001
1000
0100
0001
0100
1000
,
0010
0000
0100
0002
0000
0000
0003
0000
,
0000
0000
0000
0000
0000
0000
1000
0000
0001
0000
0010
0000
0100
1000
0100
0000
,
0010
0000
0001
0200
0000
0000
0300
0000
,
0000
0000
0000
0010
1000
0001
0010
1000
,
0010
0000
0100
0002
0000
0000
0003
0000
,
0000
0000
0100
0000
0000
0000
0100
0000
1000
0000
0010
0000
0100
0010
0100
0000
,
0001
0000
0100
2000
0000
0000
3000
0100
,
0000
0100
0010
1000
0010
0100
0001
1000
,
1001
0000
0000
0000
0001
0000
0010
0100
0010
0000
0001
0000
1000
0000
0010
0000
,
0000
0000
0001
0000
0010
0000
1000
0000
0001
0000
0010
0000
1000
0010
1000
0000
,
0010
0000
0000
0000
0001
0000
0001
1000
0001
0000
1000
0000
0100
0000
0001
0000
,
0000
0001
0100
1000
0001
0010
0100
1000
,
0010
0000
0000
0000
0100
0000
0001
0100
0001
0000
1000
0000
0100
0000
0001
0000
,
0000
0000
0100
0000
1000
0000
0010
0000
0100
0000
1000
0000
0100
0010
0100
0000
,
0001
0000
0000
0000
0010
0000
0100
1000
0100
0000
0010
0000
0001
0000
1000
0000
,
0000
0010
0001
0010
1000
0010
0001
0010
,
1000
0000
0100
0000
0010
0000
0001
0100
0001
0000
0010
0000
1000
0000
0001
0000
,
0100
0000
1000
0000
0010
0000
0100
0000
0001
0000
1000
0000
0100
0010
0100
0000
,
1000
0000
0001
0000
0010
0000
0100
1000
0100
0000
1000
0000
0010
0000
0001
0000
,
1000
0100
0001
0010
0100
1000
0010
1000
,
0100
0000
0010
0000
0001
0000
0100
0001
0100
0000
0010
0000
1000
0000
0100
0000
,
0001
0000
1000
0000
0010
0000
0100
0000
1000
0000
0001
0000
0100
0010
0100
0000
,
1000
0000
0100
0000
0001
0000
0010
0100
0010
0000
0100
0000
1000
0000
0001
0000
,
1000
0100
0001
0100
1000
0010
0001
0010
,
1000
0000
0100
0000
1000
0000
0001
0010
0001
0000
1000
0000
0100
0000
0010
0000
,
0001
0000
0100
0010
0100
0000
0010
0000
1000
0000
0100
0000
0010
0000
0001
0000
,
1000
0000
0100
0000
0010
0000
0001
0010
0001
0000
1000
0000
0100
0000
0010
0000
,
0001
0000
0100
0010
0100
0000
0010
0000
1000
0000
0100
0000
0010
0000
0001
0000
,
0100
0000
0010
0000
0100
0000
0001
1000
0001
0000
0010
0000
1000
0000
0010
0000
,
0001
0000
0100
0010
0100
0000
0001
0000
1000
0000
0100
0000
0001
0000
0100
0000
,
0010
0000
0100
0000
0010
0000
0001
1000
0001
0000
0100
0000
1000
0000
0100
0000
,
0001
1000
0100
0001
0100
1000
0001
0100
,
1000
0000
0000
0000
0100
0000
0010
0100
0010
0000
1000
0000
0100
0000
0010
0000
,
0000
0000
0010
0000
0001
0000
0010
0000
1000
0000
0010
0000
0001
0010
0001
0000
,
1000
0000
0000
0000
0001
0000
0010
0100
0010
0000
0100
0000
1000
0100
1000
0000
,
0000
0001
0100
1000
0001
1000
0001
0010
,
0100
0000
0000
0000
0001
0000
0010
0100
0010
0000
0001
0000
0100
0000
0010
0000
,
0000
0000
1000
0000
0001
0000
1000
0100
1000
0000
0010
0000
0100
0001
0100
0000
,
0001
0000
0010
0000
0100
0000
1000
0100
1000
0001
1000
0000
0010
0000
0100
0000
,
2002
3003
0000
0000
;

//---------------dance-single - Rygon----------------
#NOTES:
     dance-single:
     :
     Medium:
     9:
     0.680,0.665,0.160,0.116,0.000,503.000,18.000,13.000,0.000,0.000,0.000,0.680,0.665,0.160,0.116,0.000,503.000,18.000,13.000,0.000,0.000,0.000:
0000
0000
0000
0000
,
0000
0000
0000
0000
,
0000
0000
0000
0000
,
0000
0000
0000
0000
,
0000
0000
0000
0000
,
0000
0000
0000
0000
,
1000
0000
0000
0000
0000
0001
0000
0000
,
1000
0000
0000
0100
,
0010
0000
0000
0000
0000
0001
0000
0000
,
1000
0000
0000
0000
0000
0010
0100
0000
,
0001
0000
0000
1000
0000
0001
0000
0000
,
0010
0000
0000
0000
0000
0100
1000
0000
,
0001
0000
0000
1000
0000
0001
0000
0000
,
0100
0010
0100
0010
1000
0001
0000
0001
,
1000
0100
0001
0000
0001
0100
1000
0000
,
1000
0100
0001
0000
0001
0100
1000
0000
,
1000
0010
0001
0000
0001
0010
1000
0000
,
1000
0010
0001
0000
0001
0010
1000
0000
,
0001
0100
1000
0000
1000
0100
0001
0000
,
0001
0100
1000
0000
1000
0100
0001
0000
,
0001
0010
1000
0000
1000
0010
0001
0000
,
0001
0010
1000
0000
1000
0010
0001
0000
,
1000
0100
0010
0000
0010
1000
0001
0000
,
0001
0100
1000
0000
1000
0010
0100
0000
,
0001
0100
0010
0000
0010
0001
1000
0000
,
1000
0100
0001
0000
0001
0010
0100
0000
,
1000
0100
0001
0000
1000
0010
0001
0000
,
1000
0010
0001
0000
1000
0100
0001
0000
,
1000
0100
0010
0000
0001
0100
0010
0000
,
0001
0010
1000
0000
0001
0010
0100
1000
,
0010
0000
0000
0010
0100
0000
0000
0100
,
0001
0000
1000
0100
0010
0001
0010
0100
,
1000
0000
0000
1000
0001
0000
0000
0001
,
0100
0000
1000
0100
0001
0100
1000
0100
,
0010
0000
0000
0010
0100
0000
0000
0100
,
0001
0000
1000
0100
0010
0001
0010
0100
,
1000
0000
0000
1000
0001
0000
0000
0001
,
0100
0000
1000
0100
0001
0200
0000
0300
,
0110
0000
1000
0001
0000
0001
1000
0000
,
0100
0000
0010
1000
0001
0100
0010
0001
,
0010
0000
0001
1000
0000
1000
0001
0000
,
0100
0000
0010
0001
1000
0100
0010
1000
,
0010
0000
1000
0001
0000
0001
1000
0000
,
0010
0000
0100
1000
0001
0010
0100
0001
,
0100
0000
0001
1000
0000
1000
0001
0000
,
0100
0000
0100
0001
1000
0010
0100
1000
,
0100
0001
0100
1000
0100
0010
0100
0001
,
0000
0001
0010
0100
1000
0001
1000
0000
,
0010
0001
0010
1000
0010
0100
0010
0001
,
0000
0010
1000
0100
0010
0001
1000
0000
,
0001
0100
1000
0100
0001
0100
1000
0001
,
0000
1000
0100
0001
0010
0100
1000
0001
,
1000
0100
0001
0100
1000
0100
0001
1000
,
0000
0001
0100
1000
0010
0100
0001
1000
,
0001
0000
0000
2200
0000
0000
3300
0000
,
0000
0000
0000
1000
0100
0010
0001
1000
,
0001
0000
0000
2200
0000
0000
3300
0000
,
0000
0000
0000
1000
0100
0010
0001
1000
,
0001
0000
0000
2020
0000
0000
3030
0000
,
0000
0000
0000
1000
0010
0100
0001
1000
,
0001
0000
0000
2020
0000
0000
3030
0010
,
0000
0010
0100
0010
1000
0001
1000
0000
,
1100
0000
0110
0000
0011
0000
0001
1000
,
0000
1000
0001
0100
1000
0100
0001
0000
,
0101
0000
0110
0000
1010
0000
1000
0001
,
0000
0001
1000
0100
0001
0100
1000
0000
,
1010
0000
0110
0000
0101
0000
0001
1000
,
0000
1000
0001
0010
1000
0010
0001
0000
,
0011
0000
0110
0000
1100
0000
1000
0001
,
0000
0001
1000
0010
0001
0010
1000
0000
,
0001
0010
0100
1000
0001
0100
1000
0100
,
0001
0010
0100
1000
0010
0001
0010
0000
,
1000
0010
0100
0001
1000
0100
0001
0100
,
1000
0010
0100
0001
0010
1000
0010
0000
,
0001
0100
0010
1000
0001
0010
1000
0010
,
0001
0100
0010
1000
0100
0001
0100
0000
,
1000
0100
0010
0001
1000
0010
0001
0010
,
1000
0100
0010
0001
0100
1000
0100
0000
,
0010
1000
0001
0010
0100
1000
0010
0100
,
0001
1000
0100
0001
0100
1000
0001
0100
,
1000
0100
0001
0010
0100
1000
0010
0001
,
0010
0100
0010
1000
0010
0100
0001
1000
,
0001
0010
0100
1000
0010
0100
0010
1000
,
0100
0001
0100
1000
0010
0001
0010
1000
,
0100
0010
0001
0100
0010
1000
0001
1000
,
0010
0001
1000
0100
0001
1000
0010
0100
,
0002
0000
0010
0000
0100
0000
0000
1003
,
0000
0000
0000
0001
0000
1000
0001
0000
,
2000
0000
0010
0000
0100
0000
0000
3001
,
0000
0000
0000
1000
0000
0001
1000
0000
,
0010
0100
0010
1000
0100
0001
0000
0001
,
0100
1000
0001
1000
0010
0000
0100
0000
,
0100
0001
1000
0100
0010
0001
1000
0000
,
2002
3003
0000
0000
;

//---------------dance-single - Rygon----------------
#NOTES:
     dance-single:
     :
     Easy:
     7:
     0.455,0.457,0.241,0.178,0.000,310.000,27.000,20.000,0.000,0.000,0.000,0.455,0.457,0.241,0.178,0.000,310.000,27.000,20.000,0.000,0.000,0.000:
0000
0000
0000
0000
,
0000
0000
0000
0000
,
0000
0000
0000
0000
,
0000
0000
0000
0000
,
0000
0000
0000
0000
,
0000
0000
0000
0000
,
0010
0000
0000
0000
0000
0100
0000
0000
,
0010
0000
0000
1000
,
0001
0000
0000
0000
0000
0010
0000
0000
,
0100
0000
0000
1000
,
0001
0000
0000
0010
0000
0010
0000
0000
,
0100
0000
0000
1000
,
0001
0000
0000
0100
0000
0100
0000
0000
,
0010
0010
0010
0000
,
1001
1000
0001
0010
,
0100
1000
0010
0001
,
0010
1000
0100
0010
,
0001
0100
1000
0100
,
0001
0010
0100
1000
,
0010
0001
1000
0100
,
0001
0010
0100
1000
,
0001
0000
0000
0000
0001
1000
0001
0000
,
1001
1000
0001
0100
,
0010
1000
0100
0001
,
0100
1000
0010
0100
,
0001
0010
1000
0010
,
0001
0100
0010
1000
,
0100
0001
1000
0010
,
0001
0100
0010
1000
,
0001
0000
0000
0000
1000
0001
1000
0000
,
0002
0000
0103
0000
,
0010
0000
0000
0010
1000
0000
1000
0000
,
0002
0000
0013
0000
,
0100
0000
0000
0100
1000
0000
0001
0000
,
2000
0000
3100
0000
,
0010
0000
0000
0010
0001
0000
0001
0000
,
2000
0000
3010
0000
,
0100
0000
0000
0100
0000
0001
0000
0000
,
1001
0000
0001
0000
0000
1000
0001
0000
,
0000
0000
0100
0000
0000
0010
0100
0000
,
0000
0000
0001
0000
0000
1000
0001
0000
,
0000
0000
0010
0000
0000
0100
0010
0000
,
0000
0000
0100
0000
0000
1000
0010
0000
,
0000
0000
0100
0000
0000
0001
0010
0000
,
0000
0000
0100
0000
0000
1000
0001
0000
,
0000
0000
0100
0000
0000
0001
1000
0000
,
0001
0100
1000
1100
,
1000
0100
0001
0011
,
0010
0100
1000
1010
,
0010
0001
0010
0110
,
0100
0001
1000
1001
,
0001
0010
1000
1010
,
0010
0001
0100
1100
,
0100
0001
0010
1100
,
0020
0000
0000
0031
0000
0000
0000
0000
,
0000
0000
0000
0000
0000
0001
0000
0000
,
2000
0000
0000
3010
0000
0000
0000
0000
,
0000
0000
0000
0000
0000
0100
0000
0000
,
0020
0000
0000
0031
0000
0000
0000
0000
,
0000
0000
0000
0000
0000
0010
0000
0000
,
2000
0000
0000
3100
0000
0000
0000
1000
,
0000
1000
0000
0001
1000
0000
0001
0000
,
0100
0000
0010
0000
1001
0000
0000
0100
,
0000
0100
0010
0000
1001
0000
0000
0000
,
0010
0000
0100
0000
1001
0000
0000
0010
,
0000
0010
0100
0000
1001
0000
0000
0000
,
1000
0000
0001
0000
0110
0000
0000
1000
,
0000
1000
0001
0000
0110
0000
0000
0000
,
0001
0000
1000
0000
0110
0000
0000
0001
,
0000
0001
1000
0000
0110
0000
1001
0000
,
1000
0000
0100
0000
0010
0100
2000
0000
,
0010
0001
0100
3001
,
0001
0000
0100
0000
0010
0100
0002
0000
,
0010
1000
0100
1003
,
1000
0000
0001
0000
0100
0001
0020
0000
,
1000
0001
1000
0130
,
0001
0000
1000
0000
0100
1000
0020
0000
,
0001
1000
0001
1030
,
1000
0000
0001
0000
1000
0100
0001
0000
,
0001
0000
1000
0000
0001
0100
1000
0000
,
1000
0000
0001
0000
1000
0010
0001
0000
,
0001
0000
1000
0000
0001
0010
1000
0000
,
0001
0000
1000
0000
0001
0100
1000
0000
,
1000
0000
0001
0000
1000
0100
0001
0000
,
0001
0000
1000
0000
0001
0010
1000
0000
,
1000
0000
0001
0000
1000
0010
0001
0000
,
1000
0000
0000
0000
1010
0000
0000
0010
,
0000
0010
0100
0000
1002
0000
2003
0000
,
3001
0000
0000
0000
0011
0000
0000
0010
,
0000
0010
0100
0000
2001
0000
3002
0000
,
1003
0000
0000
0000
1100
0000
0000
0100
,
0000
0100
0010
0000
1002
0000
2003
0000
,
3001
0000
0000
0010
0000
0100
1000
0000
,
2002
3003
0000
0000
;

//---------------dance-single - Rygon----------------
#NOTES:
     dance-single:
     :
     Beginner:
     2:
     0.234,0.291,0.223,0.053,0.000,153.000,25.000,6.000,0.000,0.000,0.000,0.234,0.291,0.223,0.053,0.000,153.000,25.000,6.000,0.000,0.000,0.000: // measure 0
0000
0000
0000
0000
,  // measure 1
0000
0000
0000
0000
,  // measure 2
0000
0000
0000
0000
,  // measure 3
0000
0000
0000
0000
,  // measure 4
0000
0000
0000
0000
,  // measure 5
0000
0000
0000
0000
,  // measure 6
1000
0000
0000
0000
,  // measure 7
0001
0000
0000
0000
,  // measure 8
1000
0000
0000
0000
,  // measure 9
0001
0000
0000
0000
,  // measure 10
0010
0000
0000
0000
,  // measure 11
0100
0000
0000
0000
,  // measure 12
0010
0000
0000
0000
,  // measure 13
0100
0000
0000
0000
,  // measure 14
0000
1000
0000
1000
,  // measure 15
0000
0001
0000
0001
,  // measure 16
0000
1000
0000
1000
,  // measure 17
0000
0001
0000
0001
,  // measure 18
0000
0100
0000
0100
,  // measure 19
0000
0010
0000
0010
,  // measure 20
0000
0100
0000
0100
,  // measure 21
0000
0010
0000
0010
,  // measure 22
0000
1000
0000
0100
,  // measure 23
0000
0001
0000
0100
,  // measure 24
0000
1000
0000
0010
,  // measure 25
0000
0001
0000
0010
,  // measure 26
0000
1000
0000
0100
,  // measure 27
0000
0001
0000
0100
,  // measure 28
0000
1000
0000
0010
,  // measure 29
0000
0001
0000
0010
,  // measure 30
0010
0000
0000
0000
,  // measure 31
0000
0000
1000
0000
,  // measure 32
1000
0000
0000
0000
,  // measure 33
0000
0000
0100
0000
,  // measure 34
0100
0000
0000
0000
,  // measure 35
0000
0000
0010
0000
,  // measure 36
0010
0000
0000
0000
,  // measure 37
0000
0000
0000
0000
0000
0001
0000
0000
,  // measure 38
0001
0001
0000
1000
,  // measure 39
0000
0001
0000
1000
,  // measure 40
0000
0010
0000
0100
,  // measure 41
0000
0010
0000
0100
,  // measure 42
0000
0001
0000
1000
,  // measure 43
0000
0001
0000
1000
,  // measure 44
0000
0100
0000
0010
,  // measure 45
0000
0100
0000
0010
,  // measure 46
0010
0010
0010
0000
,  // measure 47
0001
0001
0001
0000
,  // measure 48
0100
0100
0100
0000
,  // measure 49
0010
0010
0010
0000
,  // measure 50
1000
1000
1000
0000
,  // measure 51
0010
0010
0010
0000
,  // measure 52
0100
0100
0100
0000
,  // measure 53
0001
0001
0001
0000
,  // measure 54
2000
0000
0000
3000
0000
0000
0000
0000
,  // measure 55
0000
0000
0000
0000
,  // measure 56
0002
0000
0000
0003
0000
0000
0000
0000
,  // measure 57
0000
0000
0000
0000
,  // measure 58
0020
0000
0000
0030
0000
0000
0000
0000
,  // measure 59
0000
0000
0000
0000
,  // measure 60
0200
0000
0000
0300
0000
0000
0000
0100
,  // measure 61
0000
0000
0000
0000
,  // measure 62
1000
0000
0001
0000
,  // measure 63
1001
0000
0000
0000
,  // measure 64
0001
0000
1000
0000
,  // measure 65
1001
0000
0000
0000
,  // measure 66
0100
0000
0010
0000
,  // measure 67
0110
0000
0000
0000
,  // measure 68
0010
0000
0100
0000
,  // measure 69
0110
0000
0000
0000
,  // measure 70
1000
0000
1001
0000
,  // measure 71
0001
0000
1001
0000
,  // measure 72
1000
0000
1001
0000
,  // measure 73
0001
0000
1001
0000
,  // measure 74
0100
0000
0110
0000
,  // measure 75
0010
0000
0110
0000
,  // measure 76
0100
0000
0110
0000
,  // measure 77
0010
0000
0110
0000
,  // measure 78
1001
0000
0110
0000
,  // measure 79
1001
0000
0100
0000
,  // measure 80
1001
0000
0110
0000
,  // measure 81
1001
0000
0100
0000
,  // measure 82
1001
0000
0110
0000
,  // measure 83
1001
0000
0010
0000
,  // measure 84
1001
0000
0110
0000
,  // measure 85
1001
0000
0010
0000
,  // measure 86
1000
0000
1000
0000
,  // measure 87
0001
0000
0001
0000
,  // measure 88
0010
0000
0010
0000
,  // measure 89
0100
0000
0100
0000
,  // measure 90
1000
0000
0100
0000
,  // measure 91
0010
0000
0001
0000
,  // measure 92
0100
0000
0010
0000
,  // measure 93
2002
3003
0000
0000
;
