#TITLE:Halcyon;
#SUBTITLE:;
#ARTIST:xi;
#TITLETRANSLIT:;
#SUBTITLETRANSLIT:;
#ARTISTTRANSLIT:;
#CREDIT:;
#BANNER:banner.png;
#BACKGROUND:bgblack.PNG;
#LYRICSPATH:;
#CDTITLE:;
#MUSIC:Halcyon.mp3;
#OFFSET:2.380;
#SAMPLESTART:27.900;
#SAMPLELENGTH:12.000;
#SELECTABLE:YES;
#BPMS:0.000=95.000,37.000=90.000,38.000=85.000,39.000=80.000,40.000=75.000,41.000=70.000,42.000=60.000,43.000=40.000,44.000=191.001;
#STOPS:;
#BGCHANGES:3.500=Halcyon.avi=1.000=0=0=1,
99999=-nosongbg-=1.000=0=0=0 // don't automatically add -songbackground-
;

//---------------dance-single - ----------------
#NOTES:
     dance-single:
     :
     Easy:
     5:
     0.305,0.348,0.051,0.122,0.000: // measure 1
0000
0000
0000
0000
,  // measure 2
0000
0000
0000
0000
,  // measure 3
0000
0000
0000
0000
,  // measure 4
0000
0000
0000
0000
,  // measure 5
0000
0000
0000
0000
,  // measure 6
0000
0000
0000
0000
,  // measure 7
0000
0000
0000
0000
,  // measure 8
1000
0000
0100
0000
1000
0001
0100
0000
,  // measure 9
0001
0000
0010
0000
0100
1000
0001
0000
,  // measure 10
0100
0000
0010
0000
1000
0001
0010
0000
,  // measure 11
0100
1000
0002
2000
,  // measure 12
3003
0000
0000
0000
,  // measure 13
1000
0100
1000
0010
,  // measure 14
0100
0001
0010
0000
,  // measure 15
0010
0001
1000
0100
,  // measure 16
1000
0010
0100
0001
,  // measure 17
0020
0000
0031
0000
,  // measure 18
2000
0000
3100
0000
,  // measure 19
2000
0000
3010
0000
,  // measure 20
0200
0000
0301
0000
,  // measure 21
0010
0001
0100
0010
,  // measure 22
1000
0001
0010
0000
,  // measure 23
0010
0001
0100
1000
,  // measure 24
0100
0001
0010
0100
,  // measure 25
2000
0000
3010
0000
,  // measure 26
0200
0000
0301
0000
,  // measure 27
0020
0000
0031
0000
,  // measure 28
1000
0001
1000
0001
,  // measure 29
1000
1001
0000
0001
,  // measure 30
0100
0010
1000
0100
,  // measure 31
1000
0010
0000
0010
,  // measure 32
0100
0001
0010
0100
,  // measure 33
1000
0010
0100
0001
,  // measure 34
1000
0010
0001
0100
,  // measure 35
1000
0010
0100
0001
,  // measure 36
1000
0100
0010
0001
,  // measure 37
0100
0110
0000
0010
,  // measure 38
1000
0100
1000
0010
,  // measure 39
0100
0001
0000
0001
,  // measure 40
0010
0100
1000
0010
,  // measure 41
0100
0001
0010
0100
,  // measure 42
1000
0010
0001
0100
,  // measure 43
1000
0100
0010
0001
,  // measure 44
1000
0010
0100
0001
,  // measure 45
0010
0001
0100
0010
,  // measure 46
1000
0100
1000
0010
,  // measure 47
0100
0001
0010
0100
,  // measure 48
1000
0000
0001
0000
0100
0010
0100
0000
,  // measure 49
0001
0010
0100
1000
,  // measure 50
0100
0010
0001
0100
,  // measure 51
0110
0000
0010
1000
,  // measure 52
0100
0000
1000
0001
1000
0000
0001
0000
,  // measure 53
0100
0110
0000
0010
,  // measure 54
1000
0100
1000
0010
,  // measure 55
0100
0001
0010
0100
,  // measure 56
0010
0000
0001
1000
0001
0000
1000
0000
,  // measure 57
0010
0100
0001
0010
,  // measure 58
0100
1000
0010
0100
,  // measure 59
0001
0010
0001
0000
0010
0000
0100
0000
,  // measure 60
1000
2002
0000
3003
,  // measure 61
0020
0000
0000
0000
,  // measure 62
0000
0000
0000
0000
,  // measure 63
0030
0000
0000
0000
;

//---------------dance-single - ----------------
#NOTES:
     dance-single:
     :
     Medium:
     7:
     0.423,0.538,0.061,0.122,0.000: // measure 1
0000
0000
0000
0000
,  // measure 2
0000
0000
0000
0000
,  // measure 3
0000
0000
0000
0000
,  // measure 4
2002
0000
0000
0003
,  // measure 5
0020
0000
0000
3000
,  // measure 6
0200
0000
0000
0030
,  // measure 7
0002
0300
2000
0003
,  // measure 8
3001
0100
0001
0000
1000
0010
1000
0100
,  // measure 9
0001
0100
0010
0000
0010
1000
0100
0001
,  // measure 10
0010
0100
1000
0000
0010
0100
0001
0000
,  // measure 11
0100
1000
0100
0000
0002
0000
0200
0000
,  // measure 12
0303
0000
0000
0000
,  // measure 13
1000
0000
0001
0100
0000
0010
0000
1000
,  // measure 14
0000
0100
0000
0010
0000
0001
0000
0000
,  // measure 15
0100
0000
0000
0010
0000
1000
0000
0100
,  // measure 16
0000
1000
0000
0001
0000
0100
0000
0210
,  // measure 17
0000
0300
0010
1000
,  // measure 18
0100
1000
0001
0100
,  // measure 19
0010
0000
1000
0100
0000
0100
1000
0001
,  // measure 20
0000
0100
0010
0000
1000
0000
0001
0000
,  // measure 21
0010
0000
0000
0001
0000
0100
0000
0010
,  // measure 22
0000
1000
0000
0001
0000
0010
0000
0000
,  // measure 23
0010
0000
0000
0001
0000
0100
0000
0010
,  // measure 24
0000
1000
0000
0001
0000
0010
0000
0100
,  // measure 25
1000
0001
0100
0010
,  // measure 26
0100
0000
0001
1000
0100
0000
0010
0000
,  // measure 27
0100
1000
0001
0100
,  // measure 28
0010
0100
0010
0100
0010
1000
0001
0000
,  // measure 29
0010
0000
1001
0000
0001
0100
0010
1000
,  // measure 30
0000
0010
0000
0100
0000
0001
0000
0100
,  // measure 31
0010
0000
1000
0000
0100
0000
1000
0001
,  // measure 32
0000
0100
0010
0000
1000
0000
0001
0000
,  // measure 33
0010
0100
1000
0001
,  // measure 34
0100
0010
0100
0010
1000
0001
1000
0001
,  // measure 35
1000
0000
0010
0000
0100
0001
0100
0000
,  // measure 36
0010
0000
1000
0000
0001
0010
0100
0000
,  // measure 37
1000
0000
1100
0000
0001
0100
0001
0100
,  // measure 38
0000
0010
0000
1000
0000
0001
0010
0000
,  // measure 39
0001
0000
0100
0000
0010
1000
0001
0000
,  // measure 40
0010
0000
0100
1000
0000
1000
0001
0000
,  // measure 41
0100
0010
1000
0100
,  // measure 42
0010
0001
0010
0001
1000
0100
1000
0100
,  // measure 43
1000
0001
0100
0000
0010
0100
0001
0000
,  // measure 44
1000
0000
0100
0000
0010
0001
0100
0000
,  // measure 45
0010
0000
1000
0000
0100
1000
0001
0000
,  // measure 46
0100
0000
0010
0000
1000
0001
0010
0000
,  // measure 47
0100
0000
1000
0000
0001
0100
0010
0000
,  // measure 48
0100
0000
0001
1000
0100
0010
0001
0000
,  // measure 49
1000
0000
0010
0100
0001
0000
0100
0000
,  // measure 50
0010
0000
1000
0001
0010
0000
0100
0000
,  // measure 51
1000
0000
0001
0000
0100
0000
0001
0010
,  // measure 52
0001
0000
0010
0100
1000
0001
0100
0010
,  // measure 53
1000
0000
1001
0000
0001
0010
0001
0000
,  // measure 54
0100
0000
0010
0000
1000
0100
1000
0000
,  // measure 55
0010
0000
0100
0001
0010
0000
0100
0000
,  // measure 56
1000
0000
0001
0100
0010
0000
1000
0000
,  // measure 57
0100
1000
0100
1000
0100
1000
0100
1000
,  // measure 58
0001
0100
0001
0100
0001
0100
0001
0100
,  // measure 59
0001
1000
0010
0100
0001
0010
0100
1000
,  // measure 60
0010
2002
3003
0010
,  // measure 61
0200
0000
0000
0000
,  // measure 62
0000
0000
0000
0000
,  // measure 63
0300
0000
0000
0000
;

//---------------dance-single - ----------------
#NOTES:
     dance-single:
     :
     Beginner:
     2:
     0.137,0.221,0.000,0.102,0.000: // measure 1
0000
0000
0000
0000
,  // measure 2
0000
0000
0000
0000
,  // measure 3
0000
0000
0000
0000
,  // measure 4
0000
0000
0000
0000
,  // measure 5
0000
0000
0000
0000
,  // measure 6
0000
0000
0000
0000
,  // measure 7
0000
0000
0000
0000
,  // measure 8
1000
0000
0000
0000
,  // measure 9
0001
0000
0000
0000
,  // measure 10
0100
0000
0000
0000
,  // measure 11
0020
0000
0000
0000
,  // measure 12
0030
0000
0000
0000
,  // measure 13
1000
0000
1000
0000
,  // measure 14
1000
0000
0000
0000
,  // measure 15
0001
0000
0001
0000
,  // measure 16
0001
0000
0000
0000
,  // measure 17
0200
0000
0300
0000
,  // measure 18
0020
0000
0030
0000
,  // measure 19
2000
0000
3000
0000
,  // measure 20
0002
0000
0003
0000
,  // measure 21
0010
0000
0010
0000
,  // measure 22
0010
0000
0000
0000
,  // measure 23
0001
0000
0001
0000
,  // measure 24
0001
0000
0000
0000
,  // measure 25
0200
0000
0300
0000
,  // measure 26
2000
0000
3000
0000
,  // measure 27
0020
0000
0030
0000
,  // measure 28
0100
0100
0100
0000
,  // measure 29
0100
0100
0000
0100
,  // measure 30
0000
0100
0000
0100
,  // measure 31
0000
0001
0000
0001
,  // measure 32
0000
0001
0000
0001
,  // measure 33
0000
1000
0000
1000
,  // measure 34
1000
1000
1000
1000
,  // measure 35
1000
0000
1000
0000
,  // measure 36
1000
0000
0000
0000
,  // measure 37
0010
0010
0000
0010
,  // measure 38
0000
1000
0000
1000
,  // measure 39
0000
0100
0000
0100
,  // measure 40
0000
0010
0000
0010
,  // measure 41
0000
0001
0000
0001
,  // measure 42
0001
0001
0001
0001
,  // measure 43
0001
0000
0100
0000
,  // measure 44
0010
0000
1000
0000
,  // measure 45
0001
0000
0000
0000
,  // measure 46
0100
0000
0000
0000
,  // measure 47
0010
0000
0000
0000
,  // measure 48
1000
0000
0000
0000
,  // measure 49
0001
0000
0000
0000
,  // measure 50
0010
0000
0000
0000
,  // measure 51
0001
0000
0000
0000
,  // measure 52
0100
0000
0000
0000
,  // measure 53
0010
0010
0000
0000
,  // measure 54
1000
0000
0000
0000
,  // measure 55
0100
0000
0000
0000
,  // measure 56
1000
0000
0000
0000
,  // measure 57
0010
0000
0100
0000
,  // measure 58
0010
0000
0000
0000
,  // measure 59
1000
0000
0001
0000
,  // measure 60
1000
2000
0000
3000
,  // measure 61
0002
0000
0000
0000
,  // measure 62
0000
0000
0000
0000
,  // measure 63
0003
0000
0000
0000
;

//---------------dance-single - ----------------
#NOTES:
     dance-single:
     :
     Hard:
     9:
     0.654,0.759,0.347,0.112,0.235: // measure 1
0000
0000
0000
0000
,  // measure 2
0000
0000
0000
0000
,  // measure 3
0000
0000
0000
0000
,  // measure 4
0012
0000
0000
0000
,  // measure 5
0203
0000
0000
0000
,  // measure 6
0320
0000
0000
0000
,  // measure 7
2000
0000
0000
0030
0002
0000
0000
3003
,  // measure 8
0001
0000
0100
0000
0010
0000
1000
0100
1000
0000
0001
0000
0100
0000
0010
1000
,  // measure 9
0001
0000
0010
0000
0100
0000
1000
0001
0100
0000
0010
0000
1000
0000
0001
0010
,  // measure 10
0001
0000
0100
0000
0010
0000
1000
0100
1000
0000
0001
0000
0100
0000
0010
1000
,  // measure 11
0001
0000
0010
0000
0100
0000
1000
0001
0100
0000
0010
0000
0100
0000
0001
0000
,  // measure 12
1000
0000
0000
0000
0000
0000
0000
0000
0010
0000
1000
0100
1000
0000
0010
0000
,  // measure 13
1010
0000
1000
1100
0000
0101
0000
1100
,  // measure 14
0000
0011
0000
1100
0000
1010
0000
0010
,  // measure 15
0110
0000
0001
0101
0000
1100
0000
0011
,  // measure 16
0000
1010
0000
1001
0000
0110
0000
2200
,  // measure 17
0000
0000
3300
0001
0100
0010
1000
0001
,  // measure 18
0000
0001
0010
0100
1000
0100
0010
0001
,  // measure 19
1000
0000
1000
0010
0000
0010
0100
0001
,  // measure 20
0000
0001
0010
0100
1000
0001
0100
0010
,  // measure 21
1010
0000
1000
1100
0000
0101
0000
1010
,  // measure 22
0000
0011
0000
1100
0000
1001
0000
0001
,  // measure 23
0101
0000
0100
0110
0000
1010
0000
1100
,  // measure 24
0000
0000
0011
0000
0000
0000
0101
0000
0000
0000
1010
0000
0000
0000
0001
0010
,  // measure 25
0200
0000
0300
0010
0000
0001
0100
1000
,  // measure 26
0000
0001
0100
1000
0010
0001
0010
1000
,  // measure 27
0000
0010
0100
0001
0010
0100
1000
0001
,  // measure 28
0100
0001
0100
0000
0010
1000
0010
0000
1000
0100
1000
0000
0001
0010
0001
0000
,  // measure 29
0100
0000
1001
0000
1000
0100
0001
0100
,  // measure 30
0000
0010
0000
1000
0000
0100
0010
0001
,  // measure 31
0100
0000
1000
0000
0100
0001
0010
0100
,  // measure 32
0000
1000
0010
0100
0001
0010
0100
1000
,  // measure 33
0100
0000
0010
0001
0100
1000
0100
0001
,  // measure 34
0010
0001
0010
0001
1000
0100
1000
0100
1000
0010
1000
0010
0100
0001
0100
0001
,  // measure 35
0100
0000
0010
0000
1000
0000
0001
0010
0001
0000
0100
0000
0010
1000
0100
0000
,  // measure 36
1000
0010
0100
0001
0010
0001
0100
1000
,  // measure 37
0100
0000
1100
0000
1000
0010
0100
0001
,  // measure 38
0000
0010
0000
0001
0000
0100
1000
0000
,  // measure 39
0100
0000
0001
0000
0010
0100
1000
0010
,  // measure 40
0000
0001
0100
0010
1000
0001
0010
0100
,  // measure 41
1000
0000
0001
0100
0010
1000
0001
0010
,  // measure 42
0100
1000
0100
1000
0001
0100
0001
0100
0010
1000
0010
1000
0001
0010
0001
0010
,  // measure 43
0001
0000
0100
0000
0010
0000
1000
0100
1000
0000
0010
0000
0100
0001
0010
0000
,  // measure 44
0100
1000
0010
0100
0001
0010
0001
0100
,  // measure 45
0010
1000
0100
0001
0100
1000
0010
0100
,  // measure 46
0001
0010
0100
1000
0100
0010
0001
0100
,  // measure 47
1000
0100
0001
0010
0100
1000
0010
0100
,  // measure 48
0001
0010
0001
0100
0010
1000
0100
0010
,  // measure 49
0100
1000
0001
0100
1000
0100
0001
0100
,  // measure 50
0010
0000
1000
0000
0001
0000
0010
0000
0100
0000
1000
0100
1000
0000
0001
0010
,  // measure 51
0001
0000
0010
0000
0001
0000
0100
0000
0010
0000
1000
0100
1000
0000
0001
0000
,  // measure 52
0010
0100
0001
1000
0010
0100
0001
0010
,  // measure 53
0100
0000
1100
0000
1000
0010
0100
0001
,  // measure 54
0010
0000
0001
0010
0000
0100
1000
0000
0010
0100
0000
0000
0001
0010
0000
0010
,  // measure 55
0001
0100
1000
0100
0001
0010
1000
0010
,  // measure 56
0001
0000
0100
0000
0010
0000
1000
0000
0001
0010
0001
0000
1000
0100
0000
1000
,  // measure 57
0100
1000
0010
0001
0010
1000
0100
0001
,  // measure 58
0010
0001
0100
0010
1000
0001
0010
0100
,  // measure 59
1000
0010
0001
0100
1000
0100
0001
0010
,  // measure 60
0100
0000
0000
0000
2002
0000
0000
0000
3003
0000
0000
0000
1000
0001
1000
0001
,  // measure 61
2000
0000
0000
0000
,  // measure 62
0000
0000
0000
0000
,  // measure 63
3000
0000
0000
0000
;

//---------------dance-single - ----------------
#NOTES:
     dance-single:
     :
     Challenge:
     10:
     0.805,0.822,0.408,0.143,0.566: // measure 1
0000
0000
0000
0000
,  // measure 2
0000
0000
0000
0000
,  // measure 3
0000
0000
0000
0000
0000
0000
0000
0000
0000
0000
0000
0000
1000
0100
0010
0001
,  // measure 4
2000
0000
0000
0000
,  // measure 5
3010
0000
0000
0000
0100
0000
0001
0000
0010
0000
0000
0001
0000
0000
0100
0000
0000
0000
0000
0000
0010
0000
0000
0000
1000
0000
0000
0000
0001
0000
0000
0000
,  // measure 6
0100
0000
0000
0010
0000
0000
0200
0000
0000
0000
0000
0000
0000
0000
0000
0000
,  // measure 7
2300
0000
0000
0000
0000
0000
0000
0000
3001
0000
0100
0000
0010
1000
0010
1000
,  // measure 8
0010
0000
0000
1000
0000
0000
1100
0000
0000
0100
0000
1000
0010
0000
1000
0010
0000
0000
0100
0000
0000
0001
0000
0000
,  // measure 9
0010
0000
0000
0001
0000
0000
0011
0000
0000
0010
0000
0100
1000
0000
0010
0100
0000
0000
0101
0000
0000
0001
0000
0010
,  // measure 10
0100
0000
0000
1000
0000
0000
0010
0000
0000
0100
0000
0001
0100
0000
0010
1000
0000
0000
1001
0000
0000
0001
0000
0010
,  // measure 11
0100
0000
0000
0010
0000
0000
0011
0000
0000
0001
0000
0100
0010
0000
1000
0010
0000
0000
1001
0000
0000
0110
0000
0000
,  // measure 12
2002
0000
0000
0000
3003
0000
0000
0000
1000
0000
0001
0100
0010
1000
0001
0010
,  // measure 13
0001
0000
0101
1010
0000
1100
0000
1001
,  // measure 14
0000
0000
0011
0000
0000
0000
0101
0000
0000
0000
0001
0000
0010
0100
1000
0001
,  // measure 15
0010
0000
0011
0011
0000
1100
0000
1010
,  // measure 16
0000
1001
0000
0101
0000
0011
0000
2100
,  // measure 17
0000
0000
0000
0000
3001
0000
0100
0010
1000
0000
0001
0000
0010
0000
0100
0000
,  // measure 18
1000
0100
0010
0001
0100
1000
0100
0001
,  // measure 19
0021
0000
0031
0100
0000
0010
1000
0001
,  // measure 20
0010
0000
0100
0000
1000
0000
0010
0000
0100
0000
0001
0010
0100
1000
0001
0010
,  // measure 21
0100
0000
1000
1100
0000
1010
0000
0101
,  // measure 22
0000
0000
0011
0000
0000
0000
1001
0000
0000
0000
0010
0000
1000
0100
0010
0001
,  // measure 23
0010
0000
0100
0110
0000
0011
0000
0101
,  // measure 24
0000
0000
1100
0000
0000
0000
1010
0000
0000
0000
1001
0000
0000
0000
0010
1000
,  // measure 25
0002
0000
0013
0100
1000
0010
0100
0002
,  // measure 26
0000
0013
0001
0100
0010
1000
0001
0020
,  // measure 27
0001
0000
0001
0001
0000
0001
0031
0000
,  // measure 28
0001
0010
0100
1000
0001
0010
0100
1000
0001
0100
0010
1000
0001
0100
0010
1000
,  // measure 29
0001
0000
0011
0000
0001
0100
0010
1000
,  // measure 30
0001
0010
1000
0010
0001
0100
1000
0100
,  // measure 31
0010
0000
0011
0000
0001
0100
0010
1000
,  // measure 32
0001
0010
0100
1000
0010
0001
0010
1000
,  // measure 33
0100
0010
0001
0100
0010
1000
0001
0010
,  // measure 34
0100
1000
0001
0010
0100
1000
0001
0010
0100
1000
0010
0100
0001
1000
0010
0100
,  // measure 35
0001
0000
0100
0000
0110
0000
0010
1000
0001
0000
0010
0000
0100
1000
0100
0000
,  // measure 36
0010
0000
0001
0100
0010
0000
1000
0100
0010
0000
0001
0000
0100
0010
1000
0001
,  // measure 37
0010
0000
1001
0000
0001
0100
1000
0100
,  // measure 38
0001
0010
0100
1000
0010
0100
0001
0010
,  // measure 39
1000
0001
0100
0010
1000
0001
0010
1000
,  // measure 40
0010
0001
0100
0001
0010
0100
1000
0010
,  // measure 41
0200
0000
0301
0010
0001
1000
0100
1000
,  // measure 42
0010
1000
0100
1000
0010
0100
0001
0100
0010
1000
0001
1000
0010
0100
0001
0100
,  // measure 43
0010
0000
1000
0000
0001
0000
0100
0010
1000
0000
0001
0000
0010
0100
1000
0000
,  // measure 44
0010
0000
0000
0100
0000
0000
0001
0000
0000
0100
0000
0000
0001
0000
0010
0001
0010
0000
0001
0000
0000
0100
0000
0000
,  // measure 45
0010
1000
0100
0001
0100
1000
0010
0100
,  // measure 46
0001
0000
0010
0001
0000
1000
0100
0000
1000
0010
0000
0100
0001
0000
0010
0001
,  // measure 47
0010
0100
1000
0001
0000
0001
0100
0010
,  // measure 48
1000
0001
1000
0001
0010
0001
1000
0100
1000
0001
0010
0100
,  // measure 49
1000
0000
0100
0000
0010
0000
0001
0000
0100
0000
0010
1000
0100
0000
1000
0010
,  // measure 50
0100
0000
0000
0001
0010
0000
0100
1000
0000
0010
0100
0000
0001
0010
0001
0010
,  // measure 51
0001
0000
0010
0000
0100
0000
1000
0000
0010
0000
0100
0000
0001
0010
0100
1000
,  // measure 52
0001
0000
0100
0000
0010
1000
0010
0100
0001
0100
0010
1000
0001
0010
0100
1000
,  // measure 53
0010
0000
0000
0000
0011
0000
0001
0000
0100
0000
1000
0000
0010
0100
0001
0100
,  // measure 54
0010
0000
1000
0100
0000
1000
0010
0000
0100
0001
0000
0010
0001
0000
0100
0010
,  // measure 55
1000
0000
0001
0000
0010
0000
0100
0000
0010
0000
0001
0000
0100
0010
1000
0001
,  // measure 56
0010
0000
0100
0000
1000
0010
0100
0001
0010
0000
0100
1000
0100
0000
0010
0001
,  // measure 57
0010
0001
0100
1000
0100
0001
0010
1000
,  // measure 58
0010
0001
0100
1000
0010
0001
0100
0010
,  // measure 59
1000
0000
0100
1000
0100
0000
0010
0001
0100
0000
0010
1000
0100
0000
0010
0001
,  // measure 60
1000
0000
0000
0000
2002
0000
0000
0000
0000
0000
3003
0000
1000
0100
0010
0001
,  // measure 61
2000
0000
0001
0000
0000
0001
0000
0000
,  // measure 62
0001
0000
0000
0001
0000
0000
0001
0001
,  // measure 63
3001
0000
0000
0000
;
