#VERSION:0.81;
#TITLE:Glad You Came;
#SUBTITLE:;
#ARTIST:The Wanted;
#TITLETRANSLIT:;
#SUBTITLETRANSLIT:;
#ARTISTTRANSLIT:;
#GENRE:;
#ORIGIN:;
#CREDIT:hooky;
#BANNER:[Crossovers] - Glad You Came.png;
#BACKGROUND:[Crossovers] - Glad You Came-bg.png;
#PREVIEWVID:;
#JACKET:[Crossovers] - Glad You Came-jacket.png;
#CDIMAGE:;
#DISCIMAGE:;
#LYRICSPATH:;
#CDTITLE:cdtitle.png;
#MUSIC:[Crossovers] - Glad You Came.ogg;
#OFFSET:0.354;
#SAMPLESTART:43.120;
#SAMPLELENGTH:18.880;
#SELECTABLE:YES;
#DISPLAYBPM:127.000;
#BPMS:0.000=127.000;
#STOPS:93.000=1.420,
122.000=1.420;
#DELAYS:;
#WARPS:;
#TIMESIGNATURES:0.000=4=4;
#TICKCOUNTS:0.000=4;
#COMBOS:0.000=1;
#SPEEDS:0.000=1.000=0.000=0;
#SCROLLS:0.000=1.000;
#FAKES:;
#LABELS:0.000=Song Start;
#BGCHANGES:-4.000=cdtitle.png=1.000=0=0=0=StretchNoLoop====,
0.250=[Crossovers] - Glad You Came.avi=1.000=0=0=0=StretchNoLoop====,
99999=-nosongbg-=1.000=0=0=0 // don't automatically add -songbackground-
;
#KEYSOUNDS:;
#ATTACKS:
;

//---------------dance-single - hooky----------------
#NOTEDATA:;
#CHARTNAME:;
#STEPSTYPE:dance-single;
#DESCRIPTION:hooky;
#CHARTSTYLE:hooky;
#DIFFICULTY:Beginner;
#METER:1;
#RADARVALUES:0.054,0.095,0.051,0.000,0.000,32.000,5.000,0.000,0.000,0.000,0.000,0.000,0.000,0.054,0.095,0.051,0.000,0.000,32.000,5.000,0.000,0.000,0.000,0.000,0.000,0.000;
#CREDIT:hooky;
#DISPLAYBPM:127.000;
#NOTES:
// measure 0
0000
0000
0000
0000
,  // measure 1
0000
0000
0000
0000
,  // measure 2
0000
0000
0000
0000
,  // measure 3
0000
0000
0000
0000
,  // measure 4
0000
0000
0000
0000
,  // measure 5
0000
0000
0000
0000
,  // measure 6
0000
0000
0000
0000
,  // measure 7
0000
0000
0000
0000
,  // measure 8
0000
1000
0000
0000
,  // measure 9
0000
0000
0000
0000
,  // measure 10
0000
0000
0000
0000
,  // measure 11
0000
0000
0000
0000
,  // measure 12
0000
0000
0000
0000
,  // measure 13
0000
0000
0000
0000
,  // measure 14
0000
0000
0000
0000
,  // measure 15
0000
0000
0000
0000
,  // measure 16
0000
1000
0000
0000
,  // measure 17
0000
0000
0000
0000
,  // measure 18
0000
1000
0000
0000
,  // measure 19
0000
0000
0000
0000
,  // measure 20
0000
1000
0000
0000
,  // measure 21
0000
0000
0000
0000
,  // measure 22
0000
1000
0000
0000
,  // measure 23
0000
1001
1000
0000
,  // measure 24
0000
0000
0001
0000
,  // measure 25
0000
0000
1000
0000
,  // measure 26
0000
0000
0001
0000
,  // measure 27
0000
0000
1000
0000
,  // measure 28
0000
0000
0001
0000
,  // measure 29
0000
0000
1000
0000
,  // measure 30
0000
0000
1001
0010
,  // measure 31
0000
0000
0000
0010
,  // measure 32
0000
0000
0000
0010
,  // measure 33
0000
0000
0000
0010
,  // measure 34
0000
0000
0000
0100
,  // measure 35
0000
0000
0000
0100
,  // measure 36
0000
0000
0000
0100
,  // measure 37
0000
0000
0000
0100
,  // measure 38
0000
0000
0000
1000
,  // measure 39
0000
0000
0000
1000
,  // measure 40
0000
0000
0000
1000
,  // measure 41
0000
0000
0000
1000
,  // measure 42
0000
0000
0000
0001
,  // measure 43
0000
0000
0000
0001
,  // measure 44
0000
0000
0000
0001
,  // measure 45
0000
0000
0000
1001
,  // measure 46
0000
1001
0000
0110
;

//---------------dance-single - hooky----------------
#NOTEDATA:;
#CHARTNAME:;
#STEPSTYPE:dance-single;
#DESCRIPTION:hooky;
#CHARTSTYLE:;
#DIFFICULTY:Easy;
#METER:3;
#RADARVALUES:0.211,0.247,0.153,0.020,0.000,128.000,15.000,2.000,0.000,0.000,0.000,0.000,0.000,0.211,0.247,0.153,0.020,0.000,128.000,15.000,2.000,0.000,0.000,0.000,0.000,0.000;
#CREDIT:hooky;
#DISPLAYBPM:127.000;
#NOTES:
0000
0000
0000
0000
,
0000
0000
0000
0000
,
0000
0000
0000
0000
,
0000
0000
0000
0000
,
0000
0000
0000
0000
,
0000
0000
0000
0000
,
0000
0000
0000
0000
,
0000
0000
0000
0000
,
0000
1000
0000
0100
,
0000
1000
0010
0100
,
0000
0001
0000
0001
,
0000
0010
0001
0100
,
0000
0010
0000
0010
,
0000
1000
0100
0010
,
0000
0001
0000
0001
,
0000
1000
0000
1000
,
0000
1010
0000
0101
,
0000
0011
0000
1100
,
0000
1000
1000
1000
,
0000
0001
0001
0001
,
0000
0100
0010
1000
,
1000
0001
0000
0001
,
1000
0001
0000
0001
,
0100
0110
1001
1000
,
0100
0010
0001
0001
,
0100
0010
1000
1000
,
0100
0010
0001
0001
,
0100
0010
1001
0000
,
1000
1000
1100
0000
,
0001
0001
0011
0000
,
0100
0100
0110
1000
,
0100
1000
0100
0010
,
1000
0001
0100
0001
,
0010
0001
0100
0010
,
1000
0100
0000
1000
,
0010
0100
0100
0001
,
0010
0001
0001
0100
,
0010
1000
1000
0100
,
1000
0010
0000
0001
,
0001
1000
1000
0010
,
0100
0001
0001
1000
,
0100
1000
1000
0010
,
0100
0001
0000
0010
,
0001
0100
0100
0010
,
1000
0100
0100
1000
,
0010
0100
0001
1001
,
1001
1001
1001
0220
,
0000
0000
0000
0000
,
0000
0000
0330
0000
;

//---------------dance-single - hooky----------------
#NOTEDATA:;
#CHARTNAME:;
#STEPSTYPE:dance-single;
#DESCRIPTION:hooky;
#CHARTSTYLE:;
#DIFFICULTY:Medium;
#METER:5;
#RADARVALUES:0.275,0.296,0.112,0.081,0.000,170.000,11.000,8.000,0.000,0.000,0.000,0.000,0.000,0.275,0.296,0.112,0.081,0.000,170.000,11.000,8.000,0.000,0.000,0.000,0.000,0.000;
#CREDIT:hooky;
#DISPLAYBPM:127.000;
#NOTES:
0000
0000
0000
0000
,
0000
0000
0000
0000
,
0000
0000
0000
0000
,
0000
0000
0000
0000
,
0000
0000
0000
0000
,
0000
0000
0000
0000
,
0000
0000
0000
0000
,
0000
0000
0000
0000
,
0000
1000
0100
1000
,
0100
2000
0000
3100
,
0000
0010
0001
0010
,
0001
0020
0000
0031
,
0000
0100
0001
0100
,
0001
0200
0000
0301
,
0000
1000
0010
1000
,
0010
0020
1000
1000
,
1030
0000
1000
0100
1000
0000
0010
0000
,
0010
0200
0000
0010
,
0310
0000
1000
0010
1000
0000
0100
0000
,
0100
0210
0001
1000
,
0310
0000
1000
0100
1000
0000
0010
0000
,
0010
0110
0000
0001
,
0001
1001
0000
0100
,
0100
0110
1000
0100
,
1000
0010
0100
0001
,
0010
0001
0100
0010
,
1000
0100
1000
0010
,
0100
0001
0010
0000
1001
0000
0100
0000
,
0010
1000
0100
1000
,
0010
0100
0001
0010
,
0001
0100
0010
0000
1001
0000
1000
0000
,
0100
0000
1000
0010
0010
0000
0100
0000
,
0100
0000
0001
0010
0010
0000
0001
0000
,
0100
0000
0010
0010
1000
0000
0100
0000
,
0100
0000
1000
0010
0100
0001
0010
0000
,
0010
0000
0001
0001
0100
0000
0010
0000
,
0010
0000
1000
0100
0100
0000
1000
0000
,
1000
0000
0010
0100
0100
0000
0001
0000
,
0001
0000
0010
0001
0010
0100
0010
0000
,
0010
0000
0100
0100
1000
0000
0100
0000
,
0100
0000
0010
0010
0100
0000
0001
0000
,
0001
0000
0100
0010
0001
0000
0100
0000
,
0100
0000
0010
0100
0001
0100
1000
0000
,
1000
0000
0100
0100
0001
0000
0100
0000
,
0100
0000
0010
0010
1000
0000
0100
0000
,
0100
0000
0010
0010
0100
0001
1010
0000
,
0101
1100
0011
0220
,
0000
0000
0000
0000
,
0000
0000
0330
0000
;

//---------------dance-single - hooky----------------
#NOTEDATA:;
#CHARTNAME:;
#STEPSTYPE:dance-single;
#DESCRIPTION:hooky;
#CHARTSTYLE:;
#DIFFICULTY:Hard;
#METER:7;
#RADARVALUES:0.388,0.395,0.265,0.071,0.000,234.000,26.000,7.000,0.000,0.000,0.000,0.000,0.000,0.388,0.395,0.265,0.071,0.000,234.000,26.000,7.000,0.000,0.000,0.000,0.000,0.000;
#CREDIT:hooky;
#DISPLAYBPM:127.000;
#NOTES:
0000
0000
0000
0000
,
0000
0000
0000
0000
,
0000
0000
0000
0000
,
0000
0000
0000
0000
,
0000
0000
0000
0000
,
0000
0000
0000
0000
,
0000
0000
0000
0000
,
0000
0000
0000
0000
0000
0000
0000
1000
,
0100
1000
0100
0000
0100
0100
1000
0000
,
1000
1000
0100
1000
0100
0001
0100
0010
,
0001
0000
0100
0000
0010
0010
0100
0000
,
0010
0010
0000
0100
0010
0001
0100
1000
,
0001
0001
0010
0000
0010
0010
0001
0000
,
0001
0001
0010
0001
0010
1000
0010
0100
,
1000
1000
0010
0000
0100
0100
0010
0000
,
0100
0100
0000
0010
0100
1000
0010
0001
,
1000
0000
1100
0000
1000
0100
0001
0100
,
1000
0100
0001
0000
0100
0010
0001
0100
,
0010
1000
0100
0000
0001
0000
0100
0010
,
0001
1000
0100
0000
0100
0010
0001
0010
,
0100
1000
0100
0010
0001
0010
0001
0100
,
0010
1000
0001
0000
0000
0010
0100
0010
,
0100
0010
0100
0000
0000
1000
0001
1000
,
0001
1000
1001
0000
1100
0000
1000
0010
,
0100
0000
0100
0000
0200
0000
0301
0100
,
1000
0000
0100
0000
0020
0000
1030
0010
,
0001
0000
0010
0000
0200
0000
0310
0100
,
0010
0000
1010
0000
0011
0000
0001
0100
,
0010
0000
0010
0000
0020
0000
1030
0010
,
0001
0000
0010
0000
0200
0000
0301
0100
,
1000
0100
0110
1000
,
1000
0100
0001
0100
1000
0000
0001
0000
,
0001
0010
1000
0010
0001
0000
0100
0000
,
0100
0100
0001
0100
1000
0000
0100
0000
,
0010
0010
1000
0010
0001
0000
0001
0000
,
0001
0010
1000
0010
0001
0000
0010
0000
,
1000
0100
0001
0100
1000
0000
0010
0000
,
0010
0010
1000
0010
0001
0000
0010
0000
,
0100
0100
0001
0100
1000
0000
1100
1000
,
0100
1000
1100
0000
0011
0000
0100
0010
,
0100
0010
0011
0000
1100
0000
0001
0100
,
0001
0100
0101
0000
1100
0000
0010
1000
,
0010
1000
0110
0000
1001
0000
0001
0010
,
0001
0010
0011
0000
1100
0000
0010
0100
,
0010
0100
1100
0000
0011
0000
1000
0010
,
1000
0010
1010
0000
0011
0000
0101
0000
,
1100
0110
1001
0220
,
0000
0000
0000
0000
,
0000
0000
0330
0000
;
