#TITLE:遠く;
#SUBTITLE:;
#ARTIST:MAKI;
#TITLETRANSLIT:Far;
#SUBTITLETRANSLIT:;
#ARTISTTRANSLIT:;
#CREDIT:TaroNuke;
#BANNER:Far-bn.png;
#BACKGROUND:Far-bg.png;
#LYRICSPATH:;
#CDTITLE:;
#MUSIC:Far.ogg;
#OFFSET:-0.360;
#SAMPLESTART:42.908;
#SAMPLELENGTH:12.000;
#SELECTABLE:YES;
#BPMS:0.000=141.000,234.000=133.704,235.000=115.738,236.000=74.226;
#STOPS:;
#BGCHANGES:;

//---------------dance-single - Ama-tan----------------
#NOTES:
     dance-single:
     Ama-tan:
     Hard:
     8:
     0.486,0.464,0.098,0.562,0.013:
0000
0000
0000
0000
0000
0000
1000
0001
,
0200
0000
0301
1000
0200
0000
1300
0001
,
0200
0000
0001
0000
0301
0000
0001
1000
,
0200
0000
1300
0001
0200
0000
0301
1000
,
0020
0000
0100
0000
0130
0000
0001
1000
,
0200
0000
1300
0001
0200
0000
0301
1000
,
0200
0000
1000
0000
1300
0000
1000
0001
,
0200
0000
0301
1000
0200
0000
1300
0001
,
0020
0000
0100
0000
0130
0000
0100
0010
,
0001
0000
1010
0000
1000
0001
1000
0100
,
0010
0100
1000
0001
0100
0010
0100
2000
,
0000
3000
0100
0020
0000
0030
0100
0002
,
0000
1000
0010
1003
,
1000
0000
0011
0000
0001
1000
0001
0100
,
0010
0100
0001
1000
0100
0010
0100
0002
,
0000
0003
0100
0020
0000
0230
0000
2300
,
0000
0000
0000
0000
3000
0000
0010
0100
0010
0000
0000
0000
1001
0000
0000
0000
,
0110
0000
1000
0001
0100
0001
0100
0010
,
0001
0010
1000
0001
1000
0000
0100
0020
,
0000
0030
0100
0002
0000
0003
0100
2000
,
0000
0001
0010
3001
,
0110
0000
0001
1000
0100
1000
0100
0010
,
1000
0010
0001
1000
0001
0000
0100
0020
,
0000
0030
0100
2000
0000
3200
0000
0302
,
0000
0000
0000
0000
0003
0000
1000
0100
0020
0000
0000
0000
0030
0000
0000
0000
,
0001
0100
1000
0100
0002
0000
0003
0000
,
1000
0100
0001
0100
2000
0000
3020
0000
,
0230
0000
0000
0001
0002
0000
0000
0000
,
0303
0000
1000
0000
0001
0010
0100
0000
,
1000
0010
0001
0010
2000
0000
3000
0000
,
0001
0010
1000
0010
0002
0000
0023
0000
,
0230
0000
0000
2000
0000
0000
0000
0000
,
3300
2000
3002
0013
,
0001
0100
1000
0100
0010
0000
1001
0000
,
1000
0100
0001
0100
0020
0000
0032
0000
,
0203
0000
0000
0010
0020
0000
0000
0000
,
0330
0000
1001
0000
1000
0010
0100
0000
,
0001
0010
1000
0010
0100
0000
1001
0000
,
1000
0010
0001
0010
0200
0000
0302
0000
,
2003
0000
0000
0200
0000
0000
0000
0000
,
3300
0000
0000
0000
,
0001
1000
0010
0100
0020
0000
0000
0000
,
0130
0010
1000
0001
0010
0100
1000
0001
,
0200
0000
0301
1000
0200
0000
1300
0001
,
0200
0000
0001
0000
0301
0000
0001
1000
,
0200
0000
1300
0001
0200
0000
0301
1000
,
0020
0000
0100
0000
0130
0000
0001
1000
,
0200
0000
1300
0001
0200
0000
0301
1000
,
0200
0000
1000
0000
1300
0000
1000
0001
,
0100
0000
0001
1000
0010
0000
1000
0100
,
0001
0100
0010
0000
1000
0010
0001
0000
,
1000
0100
0010
0001
0100
0010
0001
0000
,
1000
0100
0010
1000
0100
0010
0001
0000
,
2000
0010
0100
3001
,
0001
0010
1000
0010
0001
0100
0001
0000
,
1000
0010
0100
0001
0010
0100
0001
0000
,
1000
0010
0100
1000
0010
0100
0001
0000
,
2000
0010
0100
3001
,
0001
0100
1000
0000
0001
0100
1000
0000
,
0110
0000
0000
0000
0000
0000
0000
0220
0000
0000
0000
0000
0000
0000
0000
0000
0000
0000
0000
0000
0000
0000
0000
0000
0000
0000
0000
0000
0000
0000
0000
0000
0000
0000
0000
0000
0000
0000
0000
0000
0000
0000
0000
0000
0000
0000
0000
0000
0000
0000
0000
0000
0000
0000
0000
0000
0000
0000
0000
0000
0000
0000
0000
0000
,
0000
0000
0000
0330
,
2002
3003
0000
0000
;

//---------------dance-single - Ama----------------
#NOTES:
     dance-single:
     Ama:
     Beginner:
     1:
     0.101,0.136,0.009,0.009,0.000:
0000
0000
0000
0000
,
1000
0000
0000
0000
,
1000
0000
0000
0000
,
0001
0000
0000
0000
,
0001
0000
0000
0000
,
1000
0000
0000
0000
,
1000
0000
0000
0000
,
0001
0000
0000
0000
,
0001
0000
0000
0000
,
0000
0000
0100
0000
,
0000
0000
0010
0000
,
0000
0000
1000
0000
,
0000
0000
0001
0000
,
0000
0000
0010
0000
,
0000
0000
0100
0000
,
0000
0000
1000
0000
,
0000
0000
0001
0000
,
0000
0000
0100
0000
,
0000
0000
0010
0000
,
0000
0000
1000
0000
,
0000
0000
0001
0000
,
0000
0000
0010
0000
,
0000
0000
0100
0000
,
0000
0000
1000
0000
,
0000
0000
0001
0000
,
1000
0000
1000
0000
,
0001
0000
0001
0000
,
0100
0000
0000
0000
,
0000
0000
0000
0000
,
0001
0000
0001
0000
,
1000
0000
1000
0000
,
0010
0000
0000
0000
,
0000
0000
0000
0000
,
1000
1000
1000
0000
,
0001
0001
0001
0000
,
0010
0000
0010
0000
,
0000
0000
0000
0000
,
0001
0001
0001
0000
,
1000
1000
1000
0000
,
0100
0000
0000
0000
,
0000
0000
0000
0000
,
1000
0000
1000
0000
,
0001
0000
0001
0000
,
1000
0000
0000
0000
,
1000
0000
0000
0000
,
0001
0000
0000
0000
,
0001
0000
0000
0000
,
1000
0000
0000
0000
,
1000
0000
0000
0000
,
0001
0000
0000
0000
,
0001
0000
0000
0000
,
1000
0000
1000
0000
,
0100
0000
0100
0000
,
0010
0000
0010
0000
,
0001
0000
0000
0000
,
0001
0000
0001
0000
,
0100
0000
0100
0000
,
0010
0000
0010
0000
,
1000
0000
0000
0000
,
0020
0000
0000
0000
,
0000
0000
0000
0030
,
1001
0000
0000
0000
;

//---------------dance-single - TaroNuke----------------
#NOTES:
     dance-single:
     TaroNuke:
     Easy:
     4:
     0.242,0.245,0.027,0.303,0.000:
0000
0000
0000
2000
,
3000
0020
0030
2000
,
3000
0000
0000
0002
,
0003
0020
0030
0002
,
0003
0000
0000
2000
,
3000
0002
0003
0200
,
0300
0000
0000
0002
,
0003
2000
3000
0020
,
0030
0000
0000
0000
,
1000
0001
0010
0000
,
0001
1000
0100
0000
,
1000
0010
1000
0010
,
1000
0000
0000
0000
,
0001
0100
0010
0000
,
1000
0010
0100
0000
,
1000
0100
0001
0010
,
1000
0000
0110
0000
,
1000
0100
0100
0000
,
0001
0100
0100
0000
,
1000
0001
1000
0001
,
1000
0000
0000
0000
,
0001
0010
0010
0000
,
1000
0010
0010
0000
,
1000
0010
0001
0100
,
1000
0000
0110
0000
,
1000
0100
1000
0010
,
0100
0001
0010
0100
,
2000
0000
3002
0000
,
0003
0000
0000
0000
,
0001
0100
0001
0010
,
0100
1000
0010
0100
,
0002
0000
2003
0000
,
3000
0000
0000
0000
,
1000
0010
1000
0100
,
0010
0001
0100
0010
,
2000
0000
3020
0000
,
0030
1000
0100
0010
,
0001
0010
0001
0100
,
0010
1000
0100
0010
,
0002
0000
2003
0000
,
3000
0000
0000
0000
,
1000
0010
1000
1000
,
0001
0010
0001
0002
,
0003
2000
3000
0200
,
0300
0000
0000
2000
,
3000
0002
0003
0020
,
0030
0000
0000
0002
,
0003
0200
0300
2000
,
3000
0000
0000
0002
,
0003
0200
0300
2000
,
3000
0000
0000
0000
,
1000
1000
1000
1000
,
1000
1000
1000
1000
,
0010
0010
0010
0010
,
0010
0010
0010
0010
,
0001
0001
0001
0001
,
0001
0001
0001
0001
,
0100
0100
0100
0100
,
0100
0000
0100
0000
,
0020
0200
0000
0000
0000
0000
0000
0000
,
0000
0000
0000
0330
,
1001
0000
0000
0000
;

//---------------dance-single - TaroNuke----------------
#NOTES:
     dance-single:
     TaroNuke:
     Medium:
     6:
     0.360,0.437,0.036,0.642,0.000: // measure 1
0000
0000
0000
0000
0000
0000
2000
3002
,  // measure 2
0000
0003
0200
0302
0000
0003
2000
3002
,  // measure 3
0000
0003
0000
0000
0000
0000
2000
3002
,  // measure 4
0000
0003
0020
0032
0000
0003
0200
0320
,  // measure 5
0000
0030
1000
0000
1000
0000
0002
2003
,  // measure 6
0000
3000
0200
2300
0000
3000
0002
2003
,  // measure 7
0000
3000
0000
0000
0000
0000
0002
2003
,  // measure 8
0000
3000
0020
2030
0000
3000
0200
0320
,  // measure 9
0032
0000
2003
0000
,  // measure 10
3001
0000
1000
0000
0100
0010
0100
0000
,  // measure 11
1000
0000
0010
0000
0001
0000
0010
0200
,  // measure 12
0000
0000
0301
2000
0000
0000
3100
0020
,  // measure 13
0000
0030
0001
1000
,  // measure 14
0001
0000
1000
0000
0010
0100
0010
0000
,  // measure 15
1000
0000
0100
0000
0001
0000
0100
0020
,  // measure 16
0000
0000
0031
1000
0000
0100
0000
0020
,  // measure 17
0000
0000
0031
0000
,  // measure 18
1000
0000
0001
0000
0100
0010
0100
0000
,  // measure 19
0001
0000
0010
0000
1000
0000
0010
0200
,  // measure 20
0000
0000
1300
0002
0000
0000
0103
0020
,  // measure 21
0000
0030
1000
0001
,  // measure 22
1000
0000
0001
0000
0010
0100
0010
0000
,  // measure 23
0001
0000
0100
0000
1000
0000
0100
0020
,  // measure 24
0000
0000
1030
0001
0000
0010
0000
0200
,  // measure 25
0000
0000
2300
3000
,  // measure 26
0010
1000
0100
1000
0001
0000
0000
0000
,  // measure 27
0010
0001
0100
0001
1000
0000
0010
0000
,  // measure 28
0200
0000
0302
0000
,  // measure 29
1003
0010
0100
0001
,  // measure 30
0010
0001
0100
0001
1000
0000
0000
0000
,  // measure 31
0010
1000
0100
1000
0001
0000
0010
0000
,  // measure 32
0200
0000
0000
2300
0000
0000
3000
0000
,  // measure 33
0000
0011
0110
1100
,  // measure 34
1000
0000
0001
0000
0000
0100
0010
1000
,  // measure 35
0000
0100
0000
0020
0000
0000
0000
0000
,  // measure 36
0032
0000
0000
0000
,  // measure 37
0203
0000
0301
0000
,  // measure 38
1000
0000
0001
0000
0000
0010
0100
1000
,  // measure 39
0000
0010
0000
0200
0000
0000
0000
0000
,  // measure 40
0302
0000
0003
0000
,  // measure 41
1000
0100
0010
0001
,  // measure 42
0100
0001
0010
0001
1000
0000
0000
0000
,  // measure 43
0100
1000
0010
1000
0001
0000
2000
3002
,  // measure 44
0000
0003
0200
0302
0000
0003
2000
3002
,  // measure 45
0000
0003
0000
0000
0000
0000
2000
3002
,  // measure 46
0000
0003
0020
0032
0000
0003
0200
0320
,  // measure 47
0000
0030
1000
0000
1000
0000
0002
2003
,  // measure 48
0000
3000
0200
2300
0000
3000
0002
2003
,  // measure 49
0000
3000
0000
0000
0000
0000
0000
0000
,  // measure 50
1000
0100
0001
0100
,  // measure 51
0010
0000
0001
0000
0100
0000
1000
0100
,  // measure 52
0001
0100
0010
0100
,  // measure 53
1000
0100
0010
0100
,  // measure 54
0002
0000
0000
0000
,  // measure 55
2003
0000
0000
0000
,  // measure 56
3001
0010
0100
0010
,  // measure 57
1000
0010
0100
0010
,  // measure 58
0002
0000
0000
0000
,  // measure 59
0203
0000
0300
0000
,  // measure 60
0002
2000
0000
0000
0000
0000
0000
0000
,  // measure 61
0000
0000
0000
3003
,  // measure 62
0220
0330
0000
0000
;
