#TITLE:Earth Beat;
#SUBTITLE:;
#ARTIST:CAPACITY GATE;
#TITLETRANSLIT:;
#SUBTITLETRANSLIT:;
#ARTISTTRANSLIT:;
#CREDIT:;
#BANNER:Earth Beat bn.png;
#BACKGROUND:Earth Beat bg.png;
#LYRICSPATH:;
#CDTITLE:;
#MUSIC:Earth Beat.mp3;
#OFFSET:-1.300;
#SAMPLESTART:32.879;
#SAMPLELENGTH:12.000;
#SELECTABLE:YES;
#DISPLAYBPM:95.000:190.000;
#BPMS:0.000=190.000,92.000=380.000,96.000=190.000,128.000=95.000,144.000=190.000,276.000=380.000,279.000=190.000;
#STOPS:92.000=0.158
,93.000=0.158
,94.000=0.158
,95.000=0.158
,276.000=0.157
,277.000=0.158
,278.000=0.158
;
#BGCHANGES:;

//---------------dance-single - Ama-tan----------------
#NOTES:
     dance-single:
     Ama-tan:
     Challenge:
     9:
     0.618,0.638,0.280,0.190,0.035: // measure 1
0000
0000
0000
0000
,  // measure 2
0000
0000
0000
0000
,  // measure 3
0000
0000
0000
0000
,  // measure 4
0000
0000
0000
0000
,  // measure 5
0001
1000
0000
0001
0000
1000
0001
1000
,  // measure 6
0010
0100
0000
0010
0000
0100
0001
1000
,  // measure 7
0010
0100
0000
0010
0000
1000
0100
0010
,  // measure 8
0200
0000
0000
0000
,  // measure 9
1300
0100
1000
0100
0001
0100
0001
0100
,  // measure 10
0010
1000
0010
1000
0001
0100
1000
0000
,  // measure 11
0001
0100
1000
0001
0010
1000
0001
0100
,  // measure 12
0010
0001
0010
0100
0001
1000
0100
0000
,  // measure 13
1000
0010
1000
0010
0001
0010
0001
0010
,  // measure 14
0100
1000
0100
1000
0100
0001
1000
0000
,  // measure 15
1000
0100
0001
1000
0010
0001
1000
0100
,  // measure 16
0010
1000
0010
0100
1000
0001
0100
0000
,  // measure 17
MMMM
0000
0000
1010
0000
0101
0000
0101
,  // measure 18
MMMM
0000
0000
0011
0000
1100
0000
1100
,  // measure 19
MMMM
0000
0000
0110
0000
1001
0000
1001
,  // measure 20
MMMM
0000
0000
1001
0000
0110
0000
1001
,  // measure 21
MMMM
0000
0000
1100
0000
0101
0000
0101
,  // measure 22
MMMM
0000
0000
0101
0000
1100
0000
1100
,  // measure 23
MMMM
0000
0000
0110
0000
0101
0000
1100
,  // measure 24
MMMM
MMMM
MMMM
MMMM
,  // measure 25
1000
0100
0001
0100
0010
1000
0010
0100
,  // measure 26
0001
0100
1000
0010
0100
0011
0000
0012
,  // measure 27
0000
0103
1000
0100
0010
0001
0010
0100
,  // measure 28
1000
0100
0001
0010
0100
1100
0000
2100
,  // measure 29
0000
3100
0001
0100
0010
1000
0010
0100
,  // measure 30
0001
0100
1000
0100
0010
0011
0000
0012
,  // measure 31
0000
0103
1000
0100
0010
0001
0010
0100
,  // measure 32
1000
0000
0100
0000
0001
0000
0010
0000
0100
0010
0100
0010
0100
0000
0000
0000
,  // measure 33
2000
0000
3200
0000
,  // measure 34
0302
0000
0023
0230
,  // measure 35
0320
0000
0000
2030
0000
0000
0000
0000
3200
0000
0000
0000
0000
0000
0000
0000
,  // measure 36
0302
0000
0000
0000
0020
0000
0033
MMMM
,  // measure 37
1000
0100
0000
0001
0100
0001
0000
0100
,  // measure 38
0010
1000
0000
0010
0100
1000
0000
0001
,  // measure 39
1000
0010
0000
0001
0010
0001
0000
0010
,  // measure 40
0100
1000
0000
0100
0010
1000
0000
0001
,  // measure 41
0100
0001
0000
0100
1000
0100
0000
0010
,  // measure 42
0001
0010
0000
1000
0001
0010
0000
0100
,  // measure 43
1000
0001
0000
0010
1000
0010
0000
0100
,  // measure 44
0001
0100
0000
1000
0001
0010
0000
0200
,  // measure 45
2000
0000
0000
0000
,  // measure 46
0000
0300
0002
3003
,  // measure 47
0001
0100
0001
0100
1000
0001
1000
0001
,  // measure 48
0010
1000
0010
1000
0100
0010
0100
0010
,  // measure 49
0001
0010
0001
0010
1000
0001
1000
0001
,  // measure 50
0100
1000
0100
1000
0010
0100
0010
0010
,  // measure 51
1000
0100
1000
0100
0001
1000
0001
1000
,  // measure 52
0010
0001
0010
0001
0100
0010
0100
0010
,  // measure 53
1000
0010
1000
0010
0001
1000
0001
1000
,  // measure 54
0100
0000
0001
0000
0100
0000
0001
0000
0010
0100
0010
0100
0010
0000
0000
0000
,  // measure 55
0001
0010
0100
0010
1000
0010
0100
0010
,  // measure 56
0001
0100
0001
0100
1000
0001
1000
0001
,  // measure 57
0010
1000
0010
0100
0010
0001
0010
0100
,  // measure 58
0001
0010
0001
0010
1000
0001
1000
0001
,  // measure 59
0100
0010
0100
1000
0100
0010
0100
0001
,  // measure 60
0100
0001
1000
0001
1000
0010
0100
0010
,  // measure 61
0100
1000
0001
0100
1000
0100
0010
1000
,  // measure 62
0001
0000
0100
0000
0010
0000
1000
0000
0100
0010
0100
0010
0100
0000
0000
0000
,  // measure 63
MMMM
0000
1000
0100
0001
0100
1000
0000
,  // measure 64
MMMM
0000
0001
0100
1000
0100
0001
0000
,  // measure 65
MMMM
0000
0001
0010
1000
0010
0001
0000
,  // measure 66
MMMM
0000
1000
0010
0001
0010
1000
0000
,  // measure 67
MMMM
0000
1000
0100
0001
0100
0010
0000
,  // measure 68
MMMM
0000
0001
0100
1000
0100
0010
0000
,  // measure 69
MMMM
0000
0001
0010
1000
0001
0100
0000
,  // measure 70
MMMM
MMMM
MMMM
2002
,  // measure 71
0000
0000
0000
3003
;

//---------------dance-single - TaroNuke----------------
#NOTES:
     dance-single:
     TaroNuke:
     Hard:
     8:
     0.629,0.638,0.310,0.230,0.055:
0000
0000
0000
0000
,
0000
0000
0000
0000
,
0000
0000
0000
0000
,
0000
0000
0000
0000
,
1000
0001
0000
1000
0000
0001
1000
0001
,
1000
0001
0000
1000
0000
0100
0010
0001
,
1000
0001
0000
1000
0000
0001
1000
0001
,
0200
0010
0010
0310
,
0001
0000
0000
0100
0000
0100
0000
0100
,
0000
0001
0000
0010
0010
1000
0010
0001
,
1000
0000
0000
0100
0000
0100
0000
0100
,
0000
1000
0000
0010
0010
0001
0010
0100
,
0001
0000
0000
0100
0000
0100
0000
0100
,
0000
0001
0000
0010
0010
1000
0010
0001
,
1000
0000
0000
0100
0000
0001
0000
0010
,
0000
1000
0001
1000
0002
0000
1003
0000
,
1001
0000
1000
0100
0010
0100
1000
0000
,
1001
0000
0001
0100
0010
0100
0001
0000
,
1001
0000
1000
0100
0010
0001
1000
0000
,
1001
0000
0001
0100
0010
1000
0001
0000
,
1001
0000
1000
0100
0001
0100
1000
0000
,
1001
0000
0001
0100
1000
0100
0001
0000
,
1001
0000
1000
0010
0001
0010
1000
0000
,
1100
0101
1100
0101
,
1000
0100
0001
0100
0010
0000
0000
0210
,
0000
0310
0001
1000
0010
1000
0100
0010
,
0001
0100
1000
0100
0010
0000
0000
0210
,
0000
0310
1000
0010
0100
0001
0010
0100
,
1000
0100
0001
0100
0010
0000
0000
0210
,
0000
0310
0001
0010
0100
0010
0001
1000
,
0001
0000
0000
0100
0000
1000
0000
0010
,
0000
0001
1000
0001
2000
0000
3001
0000
,
2000
0000
3200
0000
,
0320
0000
0032
0203
,
0320
0000
0000
2030
0000
0000
0000
0000
3002
0000
0000
0000
0000
0000
0000
0000
,
0023
0000
0230
0000
,
1300
0001
0000
0010
0100
1000
0000
0010
,
0100
0001
0000
0010
0100
1000
0000
0010
,
1000
0001
0000
0010
0100
1000
0000
0010
,
0100
0001
0000
0010
0100
1000
0000
0001
,
0010
0100
0000
1000
0010
0100
0000
1000
,
0100
0010
0000
1000
0001
0100
0000
1000
,
0100
0010
0000
1000
0010
0001
0000
1000
,
0100
0010
0000
1000
0001
0100
0000
0020
,
2000
0000
0000
0000
,
0000
0030
0002
3003
,
1000
0000
0010
0000
0100
0000
0001
0100
0001
0000
0010
0000
0100
0000
0010
0000
,
0000
0000
1001
0000
0000
0000
1000
0100
1000
0000
0001
0000
0010
0000
0100
0000
,
1000
0000
0100
0000
0010
0000
0001
0010
0001
0000
0100
0000
0010
0000
0100
0000
,
0000
0000
1001
0000
0000
0000
0001
0100
0001
0000
0100
0000
0010
0000
1000
0000
,
0001
0000
0010
0000
1000
0000
0010
1000
0010
0000
0100
0000
1000
0000
0010
0000
,
0000
0110
0000
1000
1000
0001
0100
0010
,
1000
0100
0001
0100
0010
0001
1000
0001
,
0100
0001
0010
0100
2000
0000
3001
0000
,
0001
0000
0010
0000
0100
0000
1000
0100
1000
0000
0010
0000
0100
0000
0010
0000
,
0000
0000
1001
0000
0000
0000
0001
0100
0001
0000
1000
0000
0100
0000
0010
0000
,
0001
0000
0100
0000
0010
0000
1000
0010
1000
0000
0100
0000
0010
0000
0100
0000
,
0000
0000
1001
0000
0000
0000
1000
0100
1000
0000
0100
0000
0010
0000
0001
0000
,
1000
0000
0010
0000
0001
0000
0010
0001
0010
0000
0100
0000
0001
0000
0010
0000
,
0000
0110
0000
0001
0001
1000
0100
0010
,
0001
0100
1000
0100
0010
1000
0001
1000
,
0010
1000
0100
0010
0002
0000
1003
0000
,
1001
0000
1000
0100
0010
0100
1000
0000
,
1001
0000
0001
0100
0010
0100
0001
0000
,
1001
0000
1000
0100
0010
0001
1000
0000
,
1001
0000
0001
0100
0010
1000
0001
0000
,
1001
0000
1000
0100
0001
0100
1000
1000
,
1001
0000
0001
0100
1000
0100
0001
0001
,
1001
0000
1000
0010
0001
0010
1000
0100
,
1100
0101
1100
2002
,
0000
0000
0000
3003
;

//---------------dance-single - TaroNuke----------------
#NOTES:
     dance-single:
     TaroNuke:
     Beginner:
     2:
     0.130,0.210,0.210,0.090,0.000:
0000
0000
0000
0000
,
0000
0000
0000
0000
,
0000
0000
0000
0000
,
0000
0000
0000
0000
,
1000
0000
0000
0000
,
1000
0000
0000
0000
,
1000
0000
0000
0000
,
0001
0000
0000
0000
,
1000
0000
0000
0000
,
0100
0000
0000
0000
,
0001
0000
0000
0000
,
0010
0000
0000
0000
,
1000
0000
0000
0000
,
0010
0000
0000
0000
,
0001
0000
0000
0000
,
0100
0000
0000
0000
,
1001
0000
0000
0000
,
1001
0000
0000
0000
,
1001
0000
0000
0000
,
1001
0000
0000
0000
,
0110
0000
0000
0000
,
0110
0000
0000
0000
,
0110
0000
0000
0000
,
1002
0000
0000
0000
,
1003
0000
0000
0000
,
0000
0000
0000
0000
,
1000
0000
0000
0000
,
0000
0000
0000
0000
,
0001
0000
0000
0000
,
0000
0000
0000
0000
,
0001
0000
0000
0000
,
0000
0000
0000
0000
,
2000
0000
0000
0000
,
3002
0000
0000
0000
,
0023
0000
0000
0000
,
0230
0000
0000
0000
,
1300
0000
0000
0000
,
0110
0000
0000
0000
,
0001
0000
0000
0000
,
0110
0000
0000
0000
,
1000
0000
0000
0000
,
0110
0000
0000
0000
,
0001
0000
0000
0000
,
0110
0000
0000
0000
,
2002
0000
0000
0000
,
3003
0000
0000
0000
,
1000
0000
0000
0000
,
0100
0000
0000
0000
,
0001
0000
0000
0000
,
0010
0000
0000
0000
,
1000
0000
0000
0000
,
0100
0000
0000
0000
,
0001
0000
0000
0000
,
0010
0000
0000
0000
,
1000
0000
0000
0000
,
0010
0000
0000
0000
,
0001
0000
0000
0000
,
0100
0000
0000
0000
,
1000
0000
0000
0000
,
0010
0000
0000
0000
,
0001
0000
0000
0000
,
0100
0000
0000
0000
,
1001
0000
0000
0000
,
1001
0000
0000
0000
,
1001
0000
0000
0000
,
1001
0000
0000
0000
,
0110
0000
0000
0000
,
0110
0000
0000
0000
,
0110
0000
0000
0000
,
2002
0000
0000
3003
;

//---------------dance-single - TaroNuke----------------
#NOTES:
     dance-single:
     TaroNuke:
     Easy:
     4:
     0.300,0.314,0.140,0.110,0.000:
0000
0000
0000
0000
,
0000
0000
0000
0000
,
0000
0000
0000
0000
,
0000
0000
0000
0000
,
1000
0100
1000
1000
,
0001
0100
0001
0001
,
0020
0000
0000
0000
,
0230
0000
0000
0300
,
1000
0100
1000
0100
,
0010
0001
0010
0100
,
1000
0010
1000
0010
,
0100
0001
0010
0100
,
1000
0100
1000
0100
,
0010
0001
0010
0001
,
1000
0010
0100
0010
,
1000
0100
0020
0000
,
0031
0000
0000
0000
,
0110
0000
0000
0000
,
1001
0000
0000
0000
,
0110
0000
0000
0000
,
1001
0000
0000
0000
,
0110
0000
0000
0000
,
1001
0000
0000
0000
,
1020
0000
0000
0000
,
1030
0010
1000
0010
,
0100
0100
0010
0010
,
0100
0001
0100
0001
,
0010
0010
0100
0100
,
1000
0100
1000
0100
,
0010
0010
0001
0001
,
1000
0010
0100
0010
,
1000
1000
0002
0000
,
1003
0000
0100
0000
,
0001
0000
0010
0000
,
1000
0000
0010
0000
,
0001
0000
0200
0000
,
1300
0000
0000
1000
0000
0000
1000
0000
,
0000
1000
0000
0000
0001
0000
0001
0000
,
0010
0000
0000
0010
0000
0000
0010
0000
,
0000
0010
0000
0000
0001
0000
0001
0000
,
0100
0000
0000
0010
0000
0000
1000
0000
,
0000
0010
0000
0000
0100
0000
0100
0000
,
0001
0000
0000
0010
0000
0000
0100
0000
,
0000
1000
0000
0000
0001
0000
0100
0000
,
0020
0000
0000
0000
,
0000
0000
2000
3030
,
1000
0100
0010
0010
,
0001
0100
0010
0100
,
0001
0100
0010
0010
,
1000
0100
0010
0100
,
1000
0010
0100
0100
,
0001
0010
0100
1000
,
0001
0100
1000
0100
,
0010
1000
0200
0000
,
1300
0100
0010
0010
,
0001
0100
0010
0100
,
0001
0100
0010
0010
,
1000
0100
0010
0100
,
1000
0010
0100
0100
,
0001
0010
0100
1000
,
0001
0100
1000
0100
,
0010
1000
0200
0000
,
0310
0000
0000
0000
,
1001
0000
0000
0000
,
0110
0000
0000
0000
,
1001
0000
0000
0000
,
0110
0000
0000
0000
,
1001
0000
0000
0000
,
0110
0000
0000
0000
,
1002
0000
0000
1003
;

//---------------dance-single - TaroNuke----------------
#NOTES:
     dance-single:
     TaroNuke:
     Medium:
     6:
     0.396,0.496,0.721,0.120,0.000:
0000
0000
0000
0000
,
0000
0000
0000
0000
,
0000
0000
0000
0000
,
0000
0000
0000
0000
,
1000
0100
0000
1000
0000
0100
1000
0000
,
0001
0100
0000
0001
0000
0100
0001
0000
,
1000
0010
0000
1000
0000
0010
1000
0000
,
0001
0010
0001
0010
,
0001
0000
0000
0000
,
0000
0000
0000
0000
,
0000
0000
0000
0000
,
0000
0000
0000
0000
,
0000
0000
0000
0000
,
0000
0000
0000
0000
,
0000
0000
0000
0000
,
0000
0000
0000
0000
,
1100
0000
0000
1100
0000
1001
0000
0000
,
0101
0000
0000
0101
0000
1001
0000
0000
,
1010
0000
0000
1010
0000
1001
0000
0000
,
0011
0000
0000
0011
0000
1001
0000
0000
,
1010
0000
0000
1010
0000
0101
0000
0000
,
0011
0000
0000
0011
0000
1100
0000
0000
,
1010
0000
0000
0101
0000
1001
0000
0000
,
2001
0001
0001
0001
,
3001
0000
0000
0000
1001
0000
0000
0002
,
0000
0103
0000
0000
0000
0010
0000
0100
,
0000
0000
0000
0000
1001
0000
0000
2000
,
0000
3100
0000
0000
0000
0010
0000
0100
,
0000
0000
0000
0000
1001
0000
0000
0002
,
0000
0013
0000
0000
0000
0100
0000
0010
,
0000
0000
0000
0000
1001
0000
0000
2000
,
0000
3010
0000
0000
0000
0100
0000
0010
,
1000
0000
1000
0000
,
0001
0000
0010
0100
,
1000
0000
1000
0000
,
0001
0000
0200
0000
,
0301
0000
0000
0010
0000
0000
0100
0000
,
0000
1000
0000
0000
0010
0000
0100
0000
,
0001
0000
0000
0100
0000
0000
0010
0000
,
0000
1000
0000
0000
0100
0000
0010
0000
,
0001
0000
0000
0100
0000
0000
0010
0000
,
0000
1000
0000
0000
0100
0000
0010
0000
,
0001
0000
0000
1000
0000
0000
0001
0000
,
0000
0010
0000
0000
0100
0000
1000
0000
,
0002
0000
0000
0000
,
0000
0000
0200
0303
,
1100
0101
1100
1000
,
0100
0000
0010
0000
0001
0100
0001
0000
,
0101
1100
0101
0001
,
0100
0010
1000
1000
,
1010
0011
1010
1000
,
0010
0100
0001
0010
,
0011
1010
0011
0001
,
0100
0010
2000
3001
,
1100
0101
1100
1000
,
0100
0000
0010
0000
0001
0100
0001
0000
,
0101
1100
0101
0001
,
0100
0010
1000
1000
,
1010
0011
1010
1000
,
0010
0000
0100
0000
0001
0010
0001
0000
,
0011
1010
0011
0001
,
0100
0010
2000
3001
,
1100
0000
0000
1100
0000
1001
0000
0000
,
0101
0000
0000
0101
0000
1001
0000
0000
,
1010
0000
0000
1010
0000
1001
0000
0000
,
0011
0000
0000
0011
0000
1001
0000
0000
,
1010
0000
0000
1010
0000
0101
0000
0000
,
0011
0000
0000
0011
0000
1100
0000
0000
,
1010
0000
0000
0101
0000
1001
0000
0000
,
1002
1000
1000
2000
,
0000
0000
0000
3003
;
