#TITLE:Der Wald;
#SUBTITLE:(kors k Remix);
#ARTIST:Eleharmonica remixed by kors k;
#TITLETRANSLIT:;
#SUBTITLETRANSLIT:;
#ARTISTTRANSLIT:;
#CREDIT:;
#BANNER:;
#BACKGROUND:;
#LYRICSPATH:;
#CDTITLE:;
#MUSIC:Der Wald (kors k Remix).mp3;
#OFFSET:-1.450;
#SAMPLESTART:46.600;
#SAMPLELENGTH:11.290;
#SELECTABLE:YES;
#BPMS:0.000=85.000,32.000=170.000,160.000=85.000,192.000=170.000;
#STOPS:;
#BGCHANGES:;

//---------------dance-single - ----------------
#NOTES:
     dance-single:
     :
     Hard:
     9:
     0.612,0.714,0.317,0.090,0.151: // measure 1
0000
0000
0000
0000
,  // measure 2
0000
0000
0000
0000
,  // measure 3
1000
0100
0010
0100
0001
0100
0010
0100
,  // measure 4
1000
0000
0010
0000
0100
0000
0010
0000
0001
0000
0010
0000
0100
0001
1000
0100
,  // measure 5
0010
0001
0010
0100
1000
0010
0001
0010
,  // measure 6
1000
0000
0010
0000
0100
0000
0001
0000
1000
0000
0100
0000
0010
0001
0100
0001
,  // measure 7
1000
0010
0001
0010
1000
0100
0001
0100
,  // measure 8
1000
0100
0001
1000
0010
0100
1000
0010
,  // measure 9
0101
0000
1001
0000
1000
0010
0100
0000
,  // measure 10
0001
0000
1001
0000
1000
0100
0010
0000
,  // measure 11
0001
0100
1000
0100
0010
0000
1000
0100
,  // measure 12
0010
0000
0001
0010
0100
0001
0100
0000
,  // measure 13
1100
0000
1000
0001
0100
0010
0100
0000
,  // measure 14
1001
0000
0001
0010
1000
0010
0001
0000
,  // measure 15
0100
0001
0010
1000
0010
0000
0001
0100
,  // measure 16
0010
0000
0100
0001
1000
0000
0011
0000
,  // measure 17
1100
0000
1000
0001
0100
0000
0101
0000
,  // measure 18
0001
0100
0010
1000
0100
0000
1100
0000
,  // measure 19
1000
0100
0010
0001
0100
0000
0010
1000
,  // measure 20
0100
0100
0010
0001
0100
0000
0101
0000
,  // measure 21
1000
0100
0010
0001
1000
0100
0010
0001
,  // measure 22
1000
0010
1000
0010
0100
0001
0100
0001
,  // measure 23
1000
0100
0010
1000
0010
0001
0100
0010
,  // measure 24
2002
0000
0000
3003
,  // measure 25
1010
0000
0001
0010
0000
0100
1000
0000
,  // measure 26
0001
0010
0100
0001
0000
0100
1000
0001
,  // measure 27
0100
0000
0010
1000
0000
0001
0010
0100
,  // measure 28
0010
0011
0101
1010
,  // measure 29
1100
0000
0001
0100
1000
0001
0010
0000
,  // measure 30
1001
0000
0001
0010
1000
0001
0100
1000
,  // measure 31
0001
0000
0010
0000
0100
1000
0010
0000
,  // measure 32
0100
0001
0010
1000
0001
0100
1000
0010
,  // measure 33
0110
0000
0100
0001
1000
0010
0001
0010
,  // measure 34
1000
0000
0001
0010
0100
0010
0001
1000
,  // measure 35
0010
0000
1000
0100
0010
0001
0100
0010
,  // measure 36
1000
0101
1001
1100
,  // measure 37
1001
0000
0001
0100
1000
0100
0010
1000
,  // measure 38
0100
0000
0001
0100
1000
0100
1000
0010
,  // measure 39
0100
0001
0100
0010
1000
0010
0100
0001
,  // measure 40
2002
0000
3000
0003
,  // measure 41
1001
0000
0001
0100
1000
0000
0100
0000
0001
1000
0000
1000
0001
0000
1000
0000
,  // measure 42
0001
0000
0000
0000
0010
0000
0000
0000
0100
0000
0000
0000
1000
0000
0000
0000
0001
0000
0000
0000
0000
0000
0000
1000
0010
0000
0100
0000
0000
0000
0001
0000
,  // measure 43
0100
0000
0001
0010
0100
0000
0010
0100
0000
0010
0001
0100
0010
0000
1000
0000
,  // measure 44
0001
0000
0000
0100
0001
0000
0100
0000
0010
0000
0000
0000
0100
0000
0000
0000
0010
0000
1000
0010
1000
0000
0001
0000
1000
0000
0000
0000
0001
0000
0000
0000
,  // measure 45
1001
0000
0001
0010
0100
0000
0010
0001
0000
1000
0100
1000
0001
0100
0001
0000
,  // measure 46
1000
0000
0001
1000
0001
0000
1000
0000
0002
0000
0023
0000
0230
0000
2300
0000
,  // measure 47
0002
0000
0000
0000
0000
0000
0000
0000
3003
0000
0000
0000
0001
1000
0001
1000
0001
0000
0100
0000
0001
0000
0100
0000
0001
0000
0000
0000
1000
0000
0000
0000
,  // measure 48
0001
0010
0100
1000
0010
0001
0010
1000
2002
0000
0000
0000
0003
0000
3000
0000
,  // measure 49
0001
0100
0010
1000
0100
0010
0001
0100
,  // measure 50
0010
1000
0001
0010
0001
1000
0010
1000
,  // measure 51
0001
0100
0001
1000
0100
1000
0001
0100
,  // measure 52
0001
0010
1000
0001
0100
1000
0001
1000
,  // measure 53
0010
0100
1000
0001
0010
1000
0001
1000
,  // measure 54
0100
0001
1000
0010
0100
1000
0010
0001
,  // measure 55
0010
0100
0100
0001
1000
1000
0100
0010
,  // measure 56
0100
0000
0000
0010
0000
0000
0100
0000
0000
1000
0000
1000
0001
0000
1000
0000
,  // measure 57
0001
0100
1000
0100
1000
0100
0010
1000
,  // measure 58
0001
0010
1000
0010
1000
0010
0001
0100
,  // measure 59
0010
0100
0001
0010
1000
0001
0100
0010
,  // measure 60
0001
0100
0010
1000
0100
0001
0100
1000
,  // measure 61
0001
0100
0010
0100
0001
0100
0010
0100
,  // measure 62
0001
1000
0100
0010
0001
1000
0100
0010
,  // measure 63
0001
0010
1000
0100
1000
0010
0001
1000
,  // measure 64
0001
0100
1000
0100
0010
0100
0001
1000
,  // measure 65
1001
0000
0001
0001
0001
0000
1000
1000
,  // measure 66
1000
0000
0010
0010
1010
0000
0101
0000
,  // measure 67
1001
0000
0011
0011
0011
0000
1100
1100
,  // measure 68
1100
0000
1001
1001
1001
0000
0000
0000
;

//---------------dance-single - ----------------
#NOTES:
     dance-single:
     :
     Beginner:
     2:
     0.141,0.220,0.122,0.000,0.000: // measure 1
0000
0000
0000
0000
,  // measure 2
0000
0000
0000
0000
,  // measure 3
0001
0000
0000
0000
,  // measure 4
0010
0000
0000
0000
,  // measure 5
0100
0000
0000
0000
,  // measure 6
1000
0000
0000
0000
,  // measure 7
0001
0000
0000
0000
,  // measure 8
1000
0000
0000
0000
,  // measure 9
1001
0000
0000
0000
,  // measure 10
0001
0000
0100
0000
,  // measure 11
0001
0000
0000
0000
,  // measure 12
1000
0000
0000
0000
,  // measure 13
1001
0000
0000
0000
,  // measure 14
0001
0000
0010
0000
,  // measure 15
0001
0000
0000
0000
,  // measure 16
1000
0000
0000
0000
,  // measure 17
0110
0000
0000
0000
,  // measure 18
0010
0000
1000
0000
,  // measure 19
0001
0000
1000
0000
,  // measure 20
0100
0000
0010
0000
,  // measure 21
0100
0000
0000
0000
,  // measure 22
0010
0000
0000
0000
,  // measure 23
0001
0000
1000
0000
,  // measure 24
1001
0000
0000
0000
,  // measure 25
0001
0000
0100
0000
,  // measure 26
0001
0000
1000
0000
,  // measure 27
0001
0000
0000
0000
,  // measure 28
1000
0000
0100
0100
,  // measure 29
0100
0000
0000
0000
,  // measure 30
0010
0000
0100
0000
,  // measure 31
1000
1000
1000
0000
,  // measure 32
0000
0000
0000
0000
,  // measure 33
0001
0000
1000
0000
,  // measure 34
0001
0000
0100
0000
,  // measure 35
0010
0000
0000
0000
,  // measure 36
0100
0100
0100
0000
,  // measure 37
1001
0000
0000
0000
,  // measure 38
0001
0000
1000
0000
,  // measure 39
0001
0000
0000
0000
,  // measure 40
1001
0000
0000
0000
,  // measure 41
0110
0000
0010
0000
,  // measure 42
1000
0000
0001
0000
,  // measure 43
1000
0000
1000
0000
,  // measure 44
0001
0000
0010
0000
,  // measure 45
0110
0000
0100
0000
,  // measure 46
0010
0000
0001
0000
,  // measure 47
1000
0000
1001
0000
,  // measure 48
0001
0001
0001
0000
,  // measure 49
1001
0000
0000
0000
,  // measure 50
1000
0000
0010
0000
,  // measure 51
1000
0000
0000
0000
,  // measure 52
0001
0000
0010
0000
,  // measure 53
0100
0000
1000
0000
,  // measure 54
0100
0000
0010
0000
,  // measure 55
0001
0000
0000
0000
,  // measure 56
1000
0000
0001
0000
,  // measure 57
1001
0000
0000
0000
,  // measure 58
0001
0000
0100
0000
,  // measure 59
0001
0000
0000
0000
,  // measure 60
1000
0000
0010
0000
,  // measure 61
1000
0000
0001
0000
,  // measure 62
0010
0000
0100
0000
,  // measure 63
0010
0000
0001
0000
,  // measure 64
1000
0000
0001
0000
,  // measure 65
1001
0000
0000
0000
,  // measure 66
0000
0000
0100
0100
,  // measure 67
0100
0000
0000
0000
,  // measure 68
1001
1001
1001
0000
;

//---------------dance-single - ----------------
#NOTES:
     dance-single:
     :
     Easy:
     4:
     0.320,0.385,0.260,0.212,0.000: // measure 1
0000
0000
0000
0000
,  // measure 2
0000
0000
0000
0000
,  // measure 3
1000
0100
0001
0100
,  // measure 4
1000
0010
0001
0010
,  // measure 5
1000
0000
0001
1000
,  // measure 6
0001
0000
0100
0001
,  // measure 7
0100
0000
0010
0100
,  // measure 8
0010
0000
1000
0001
,  // measure 9
1001
0000
1000
0100
,  // measure 10
0001
0100
1000
0000
,  // measure 11
1001
0000
0001
0100
,  // measure 12
1000
0100
0001
0000
,  // measure 13
0110
0000
0010
0001
,  // measure 14
0100
0001
0010
0000
,  // measure 15
0110
0000
0100
1000
,  // measure 16
0010
1000
0100
0000
,  // measure 17
1001
0001
0100
0001
,  // measure 18
0100
0010
1000
0010
,  // measure 19
1000
0100
0001
0100
,  // measure 20
1000
0010
0100
0001
,  // measure 21
1000
1000
0100
0100
,  // measure 22
0010
0010
0001
0001
,  // measure 23
0100
1000
0100
0001
,  // measure 24
2002
0000
0000
3003
,  // measure 25
0220
0330
1000
0010
,  // measure 26
0100
0001
0010
0100
,  // measure 27
0010
0000
0001
0100
,  // measure 28
1000
0100
0001
1000
,  // measure 29
0100
0000
0010
0100
,  // measure 30
1000
0000
0010
0001
,  // measure 31
0010
1000
0001
0000
,  // measure 32
1000
0100
0001
0100
,  // measure 33
0110
0000
0010
0001
,  // measure 34
0100
1000
0100
0000
,  // measure 35
0010
1000
0001
0010
,  // measure 36
0100
0010
0001
1000
,  // measure 37
0001
0000
1000
0010
,  // measure 38
0100
0000
0001
0010
,  // measure 39
1000
0001
0100
1000
,  // measure 40
2002
0000
3003
0000
,  // measure 41
0220
0330
2002
3003
,  // measure 42
0001
0010
1000
0010
,  // measure 43
0220
0330
2002
3003
,  // measure 44
0001
0100
1000
0100
,  // measure 45
2002
3003
0220
0330
,  // measure 46
0010
1000
0100
0010
,  // measure 47
0220
0330
2002
3003
,  // measure 48
1002
2000
3003
0000
,  // measure 49
0010
1000
0001
0010
,  // measure 50
0100
0010
0001
0100
,  // measure 51
0010
0000
1000
0100
,  // measure 52
0010
0100
0001
0100
,  // measure 53
1000
0000
0001
0100
,  // measure 54
0001
1000
0100
0010
,  // measure 55
0001
1000
0001
0100
,  // measure 56
0010
1000
0001
0000
,  // measure 57
1000
0100
0010
0100
,  // measure 58
1000
0001
0100
0010
,  // measure 59
0100
0000
0001
0010
,  // measure 60
1000
0010
0100
0010
,  // measure 61
0001
0001
1000
0100
,  // measure 62
0010
0010
0001
1000
,  // measure 63
0010
0010
0100
0100
,  // measure 64
1001
1001
1001
1001
,  // measure 65
2002
0000
0000
0000
,  // measure 66
3003
0000
0110
1001
,  // measure 67
0110
0110
0110
1001
,  // measure 68
1001
0110
0110
0000
;

//---------------dance-single - ----------------
#NOTES:
     dance-single:
     :
     Medium:
     6:
     0.409,0.467,0.130,0.130,0.000: // measure 1
0000
0000
0000
0000
,  // measure 2
0000
0000
0000
0000
,  // measure 3
1000
0100
0001
0000
1000
0001
1000
0000
,  // measure 4
0001
0100
1000
0000
0001
1000
0001
0001
,  // measure 5
0001
0100
0010
0000
1000
0100
1000
0000
,  // measure 6
0001
0010
0100
0000
0010
0001
1000
0001
,  // measure 7
1000
0001
0100
0000
0010
0100
0001
0000
,  // measure 8
1000
0100
0010
0001
0100
1000
0100
0001
,  // measure 9
1000
0000
0001
0000
0000
1000
0001
0000
,  // measure 10
1000
0000
0010
0000
0000
0100
0010
0000
,  // measure 11
0100
0000
0001
0000
0000
1000
0100
0000
,  // measure 12
1000
0000
0001
0000
0010
0100
0010
0000
,  // measure 13
1000
0000
0001
0100
0001
0000
1000
0000
,  // measure 14
0100
0001
0100
1000
,  // measure 15
0001
0000
1000
0001
1000
0000
0010
0000
,  // measure 16
0001
0010
1000
0001
,  // measure 17
0101
0000
0100
0010
0100
0000
0010
0000
,  // measure 18
1000
0100
0001
0100
,  // measure 19
1000
0000
0001
0010
0001
0000
1000
0000
,  // measure 20
0001
0100
0010
1000
,  // measure 21
0001
0000
0010
0001
0100
0000
0010
0000
,  // measure 22
1000
0100
0001
0100
,  // measure 23
1000
0000
0010
1000
0001
0000
1000
0000
,  // measure 24
2002
0000
0000
3003
,  // measure 25
0110
0000
0010
0000
1000
0000
0100
1000
,  // measure 26
0001
0010
0100
0010
,  // measure 27
0001
0000
0100
0001
0100
0000
0010
1000
,  // measure 28
0020
0001
0100
1000
,  // measure 29
0100
0000
0000
1000
2000
0000
3030
0000
,  // measure 30
0010
0000
1000
0000
0001
0000
0010
0001
,  // measure 31
1000
0001
2002
3003
,  // measure 32
1000
0000
0010
0000
0100
0001
0010
0000
,  // measure 33
0110
0000
0100
0000
1000
0000
0001
0100
,  // measure 34
1000
0000
1000
0100
0001
0000
1000
0000
,  // measure 35
0100
0000
0001
0000
0100
0000
0010
0001
,  // measure 36
0200
1000
0010
0001
,  // measure 37
0010
0000
0000
0001
0002
0000
0303
0000
,  // measure 38
1000
0001
1000
0100
,  // measure 39
0010
0100
1000
0100
,  // measure 40
2002
0000
0003
3000
,  // measure 41
1001
0000
0110
0000
0010
1000
0100
1000
,  // measure 42
0001
0001
0020
0000
0200
0000
0000
0330
,  // measure 43
0100
0010
0100
0000
0001
1000
0001
0000
,  // measure 44
1000
0100
0001
0100
1000
0100
0001
0100
,  // measure 45
0010
0000
0001
0000
1000
0010
0001
0010
,  // measure 46
0100
0000
0001
0000
1000
0100
0010
0100
,  // measure 47
2000
0000
3000
0002
0103
0000
0010
1000
,  // measure 48
0001
0010
1000
0010
0220
0000
0030
0300
,  // measure 49
1001
0000
0001
0010
0000
0100
1000
0000
,  // measure 50
0001
0000
1000
0010
0000
0100
0001
0100
,  // measure 51
0010
1000
0100
0001
,  // measure 52
0010
0000
1000
0000
0001
0000
1000
0001
,  // measure 53
1000
0000
0001
0010
0000
0100
1000
0000
,  // measure 54
0001
0000
1000
0001
0000
1000
0001
0100
,  // measure 55
0010
1000
0100
0010
,  // measure 56
0100
1000
0001
0100
,  // measure 57
0110
0000
0010
1000
0001
0000
1000
0000
,  // measure 58
0001
0000
0010
0001
0100
0000
0010
0000
,  // measure 59
1000
0100
0001
0100
,  // measure 60
1000
0010
0001
0010
,  // measure 61
1000
0100
1000
0000
0001
0010
0001
0000
,  // measure 62
1000
0010
1000
0000
0001
0100
0001
0000
,  // measure 63
1000
0100
0001
0000
0001
0100
1000
0000
,  // measure 64
0001
0100
1000
0000
1000
0100
0001
0000
,  // measure 65
1001
0000
0001
1000
0001
0000
1000
0001
,  // measure 66
1000
0001
0100
0110
,  // measure 67
1001
0000
0001
1000
0001
0000
1000
0001
,  // measure 68
1000
0110
1001
0000
;
